#TITLE:glowing clouds;
#SUBTITLE:;
#ARTIST:CHiNTOMO;
#TITLETRANSLIT:;
#SUBTITLETRANSLIT:;
#ARTISTTRANSLIT:;
#GENRE:;
#CREDIT:;
#BANNER:glowing_clouds-bn.png;
#BACKGROUND:glowing_clouds-bg.png;
#LYRICSPATH:glowing clouds.lrc;
#CDTITLE:NAOKI_cdtitle.png;
#MUSIC:glowing clouds feat.橘 朋之-short ver-.ogg;
#OFFSET:-0.088;
#SAMPLESTART:119.469;
#SAMPLELENGTH:12.000;
#SELECTABLE:YES;
#DISPLAYBPM:97.500:195.000;
#BPMS:0.000=195.000,132.000=390.000,136.000=97.500,152.000=195.000,300.000=97.500,316.000=195.000;
#STOPS:132.000=0.615
;
#BGCHANGES:403.500=glowing_clouds-video.avi=1.000=1=0=0=StretchNoLoop==CrossFade==,
420.000=glowing_clouds-bg.png=1.000=1=0=0=StretchNoLoop==CrossFade==,
99999=-nosongbg-=1.000=0=0=0 // don't automatically add -songbackground-
;
#KEYSOUNDS:;

//---------------dance-single - NAOKI----------------
#NOTES:
     dance-single:
     NAOKI:
     Hard:
     16:
     0.959,1.000,0.465,0.358,0.537:
0000
0000
0000
0000
,
0000
0000
0000
0000
,
0000
0000
0000
0000
0000
0000
0000
1000
,
1001
0110
0000
0000
,
0000
0000
0000
0000
0011
0000
0000
0000
0000
0000
0000
0000
1000
0100
1000
0100
,
1000
0010
0100
0001
,
1000
0100
0010
0001
0100
0000
0010
0110
,
0000
1001
0000
0000
0000
0000
0000
0000
,
0000
0000
0101
0000
0000
0000
1010
0000
0000
0000
0010
0100
0001
1000
0100
0010
,
0001
1000
0010
1000
0000
0001
0010
0001
,
0000
0100
0010
1000
0000
0100
0010
0001
,
1001
0110
0100
0001
,
1000
0000
0000
0000
1010
0000
0000
0000
0000
0000
0000
0000
0001
0100
0001
0100
,
0001
0010
0100
1000
0000
0010
0000
0100
,
0001
1000
0100
0010
0001
0000
0100
0110
,
0000
1001
0000
0001
0000
0100
0000
0010
,
0000
0000
1010
0000
0000
0000
0101
0000
0000
0000
0100
0010
1000
0001
0010
0100
,
1000
0010
0100
0010
2000
0100
3100
0010
,
0001
0100
0100
1000
0110
0000
0010
0100
,
0001
0010
0100
0010
0002
0100
0103
0010
,
1000
0100
0100
0001
0110
0000
0100
0010
,
2000
0001
3001
0100
0010
0010
0001
1000
,
0100
0100
0001
1000
0110
0000
0010
0100
,
0002
1000
1003
0100
0010
0010
1000
0001
,
0100
0100
1000
0001
0110
0000
0001
0010
,
0011
0100
1000
0010
1010
0100
0001
1000
,
0100
0010
0001
0100
0110
0000
1000
0010
,
1010
0100
0001
0010
0011
0100
1000
0001
,
0100
0010
1000
0100
0110
0000
0010
0001
,
1000
0020
0000
0100
0000
2030
0000
0100
,
0000
3002
0000
0010
0000
0203
0000
0010
,
0000
0301
0000
0010
0000
0100
0000
1000
,
1010
0011
1100
0101
,
2002
0000
0000
3003
,
1000
0000
1000
0000
0100
0000
0100
0000
0010
1000
0010
0001
0100
0000
0110
0000
,
1001
0000
0001
0000
0010
0000
0010
0100
1000
0000
0001
0100
0010
0000
0010
1000
,
0001
0000
0001
0000
0100
0000
0100
0000
0010
0001
0010
1000
0100
0000
0110
0000
,
1001
0000
1000
0000
0010
0000
0010
0100
0001
0000
1000
0100
0010
0000
0010
0001
,
2000
3000
0010
0100
0010
0000
1000
0000
0001
0010
0001
0000
1000
0000
0010
0100
,
0001
0000
1000
0000
0001
0100
0010
0100
0001
0000
1000
0000
0010
0000
0100
0000
,
0001
0000
0010
0100
0010
0000
0001
0000
1000
0010
1000
0000
0001
0000
0010
0100
,
1000
0000
0001
0000
1000
0010
0100
0010
1000
0000
0001
0000
0010
0000
0100
0000
,
1000
0000
0010
0100
0010
0000
1000
0000
0001
0100
0001
0000
1000
0000
0100
0010
,
0001
0000
1000
0000
0001
0100
0010
0100
0001
0000
1000
0000
0100
0000
0010
0000
,
0001
0010
0001
0010
0100
1000
0100
0010
0001
1000
0010
0100
0001
0100
0010
1000
,
0001
0101
1100
1001
,
0001
0100
0010
1000
0100
0001
1000
0001
,
0100
1000
0010
0001
1000
0001
0010
0100
,
0001
1000
0100
0010
0001
1000
0010
0100
,
1000
0100
0010
1000
0001
0010
0100
1000
,
1000
0010
0100
0001
0010
1000
0001
1000
,
0010
0001
0100
1000
0001
1000
0100
0010
,
1000
0001
0010
0100
1000
0001
0100
0010
,
0001
0000
0010
0000
0100
0000
0001
0000
1000
0000
0100
0000
0010
0000
0001
1000
,
0002
0000
0103
0010
1000
0000
0001
0010
0100
0000
1000
0000
0010
0000
0100
0001
,
1000
0000
0100
0010
0001
0000
1000
0010
0100
0000
0001
0000
0010
0000
0100
1000
,
0001
0000
1000
0010
0100
0000
0001
1000
0100
0000
0010
0000
0001
0000
1000
0010
,
0100
0000
0001
0100
0010
0000
1000
0001
0010
0000
0100
0000
1000
0001
1000
0001
,
0010
0000
0100
0010
0001
0000
1000
0010
0100
0000
0001
0000
0010
0000
0100
1000
,
0001
0000
0100
0010
1000
0000
0001
0010
0100
0000
1000
0000
0010
0000
0100
0001
,
1000
0000
0010
0100
0001
0000
1000
0100
0010
0000
0001
0000
1000
0000
0010
0000
,
0100
0001
0000
1000
0000
1001
0000
0000
,
0010
0000
1000
0001
0000
0010
0100
1000
0000
0001
0100
0000
0010
0000
0010
0000
,
1000
0000
0100
0010
0000
0001
1000
0010
0000
0100
0001
0000
0010
0000
0010
0000
,
0100
0000
1000
0001
0000
0100
0010
1000
0000
0001
0010
0000
0100
0000
0100
0000
,
1000
0000
0010
0100
0000
0001
1000
0100
0000
0010
0001
0000
0100
0000
0100
0000
,
0001
0000
0010
0100
0000
1000
0001
0100
0000
0010
1000
0000
0001
0000
0001
0000
,
1000
0000
0100
0010
0000
0001
1000
0010
0000
0100
0001
0000
1000
0000
1000
0000
,
0001
0000
0010
0100
0000
1000
0001
0100
0000
0010
1000
0000
0100
0000
0010
0000
,
0011
1100
0101
1010
,
1000
0000
0100
0010
0000
0001
1000
0010
0000
0100
0001
0000
1000
0000
1000
0000
,
0001
0000
0100
0010
0000
1000
0001
0010
0000
0100
1000
0000
0001
0000
0001
0000
,
1000
0000
0010
0100
0000
0001
1000
0100
0000
0010
0001
0000
0100
0000
0010
0000
,
1010
0101
1100
0011
,
2100
0100
3002
0100
0103
0010
0110
0000
,
1002
0000
0000
0000
0023
0000
0000
0000
0230
0000
0001
0000
1300
0000
0000
0010
,
0110
0000
0000
0000
1001
0000
0000
0000
2100
0000
0000
0000
0000
0000
0000
0000
3010
0000
0000
0000
0021
0000
0000
0000
1000
0000
0000
0000
0130
0001
0100
0001
,
0020
0000
0100
0000
0032
0000
1000
0000
0203
0000
1000
0000
0301
0000
1000
1010
,
0000
0000
0101
0000
0000
0000
0001
0000
0020
0000
0000
0000
0130
0000
1000
0000
0000
0000
1100
0000
0000
0000
0011
0000
0000
0000
1000
0010
0100
0010
1000
0010
,
0100
0001
0010
0001
0100
0010
0100
0001
,
0010
0100
0010
0001
0100
0000
0100
0001
,
0010
0100
0001
0100
0010
0001
0100
0010
,
0001
0010
0100
0001
0010
0000
0100
1000
,
0010
0100
1000
0100
0010
1000
0100
0010
,
1000
0010
0100
1000
0010
0000
0010
1000
,
0100
0010
0100
1000
0010
0100
0001
0010
,
0011
1010
0101
2200
,
3300
0000
0000
0000
,
0012
0010
2003
0010
3010
0100
0110
0000
,
0002
1000
0203
0010
0301
2000
0100
3001
,
0010
0100
1000
0000
0001
0100
0010
0100
0001
0000
0000
0000
0100
0000
0010
0000
,
2000
0001
3200
0010
1300
0002
0100
1003
,
0010
0100
0001
0000
1000
0100
0010
0100
1000
0000
0000
0000
0100
0000
0010
0000
,
0002
1000
0023
0100
0031
2000
0010
3001
,
0100
0010
1000
0000
0001
0010
0100
0010
0001
0000
0000
0000
0010
0000
0100
0000
,
2000
0001
3020
0100
1030
0002
0010
1003
,
0100
0010
0001
0000
1000
0010
0100
0010
1000
0000
0001
0000
0010
0000
0100
1000
,
0002
0100
0023
1000
0130
2000
0010
3001
,
0100
0010
1000
0000
0001
0010
0100
0010
0001
0000
0000
0000
0010
0000
0100
0000
,
2000
0010
3200
0001
0310
0002
0100
1003
,
0010
0100
0001
0000
1000
0100
0010
0100
1000
0000
0000
0000
0010
0000
0100
0000
,
0002
0010
0203
1000
0310
2000
0001
3100
,
0010
0100
1000
0000
0001
0100
0010
0100
0001
0000
0000
0000
0010
0000
0100
0000
,
1000
0100
1000
0100
0010
0001
0010
0100
1000
0001
0100
0010
1000
0010
0100
0001
,
1000
0100
0010
0001
1100
0000
0101
0000
,
2002
0000
3003
0000
;

//---------------dance-single - NAOKI----------------
#NOTES:
     dance-single:
     NAOKI:
     Beginner:
     3:
     0.133,0.150,0.014,0.000,0.000:
0000
0000
0000
0000
,
0000
0000
0000
0000
,
0000
0000
0000
0000
,
0000
0000
0000
0000
,
0000
0000
0000
0000
,
0000
0000
0000
0000
,
0000
0000
0000
0000
,
0000
0000
0000
0000
,
0000
0000
0000
0000
,
0010
0000
0000
0000
,
0001
0000
0000
0000
,
1000
0000
0000
0000
,
0010
0000
0000
0000
,
0100
0000
0000
0000
,
0001
0000
0000
0000
,
1000
0000
0000
0000
,
0100
0000
0000
0000
,
0010
0000
0100
0000
,
0010
0000
0000
0000
,
0001
0000
1000
0000
,
0001
0000
0000
0000
,
1000
0000
0001
0000
,
1000
0000
0000
0000
,
0010
0000
0100
0000
,
0010
0000
0000
0000
,
1000
0000
1000
0000
,
0001
0000
0001
0000
,
0100
0000
0100
0000
,
0010
0000
0010
0000
,
1000
0000
1000
0000
,
0100
0000
0100
0000
,
0010
0000
0010
0000
,
0001
0000
1000
0000
,
1001
0000
0000
0000
,
0001
0000
0010
0000
,
0100
0000
1000
0000
,
0001
0000
0100
0000
,
0010
0000
1000
0000
,
0001
0000
0000
0000
,
0001
0000
0000
0000
,
1000
0000
0000
0000
,
1000
0000
0000
0000
,
0100
0000
0000
0000
,
0100
0000
0000
0000
,
0010
0000
0000
0000
,
0010
0000
0000
0000
,
0001
0000
0000
0000
,
0100
0000
0000
0000
,
1000
0000
0000
0000
,
0001
0000
0000
0000
,
0100
0000
0000
0000
,
0010
0000
0000
0000
,
1000
0000
0000
0000
,
0001
0000
0000
0000
,
0010
0000
0000
0000
,
0100
0000
0000
0000
,
0010
0000
0000
0000
,
0001
0000
0000
0000
,
0100
0000
0000
0000
,
0010
0000
0000
0000
,
1000
0000
0000
0000
,
0100
0000
0000
0000
,
0010
0000
0000
0000
,
0001
0000
0000
0000
,
1000
0000
0000
0000
,
0010
0000
0000
0000
,
0100
0000
0000
0000
,
0001
0000
0000
0000
,
0010
0000
0000
0000
,
0100
0000
0000
0000
,
1000
0000
0000
0000
,
0001
0000
0000
0000
,
0100
0000
0000
0000
,
0010
0000
0000
0000
,
1000
0000
0000
0000
,
1000
0000
0001
0000
,
1000
0000
0001
0000
,
0010
0000
0100
0000
,
0010
0000
0100
0000
,
1000
0000
1000
0000
,
1000
0000
0000
0000
,
0001
0000
0001
0000
,
0001
0000
0000
0000
,
0100
0000
0100
0000
,
0100
0000
0000
0000
,
0010
0000
0010
0000
,
0010
0000
0000
0000
,
1000
0000
0000
0000
,
0000
0000
0000
0000
,
0001
0000
0100
0000
,
0010
0000
0000
0000
,
1000
0000
0001
0000
,
0010
0000
0000
0000
,
0100
0000
1000
0000
,
0001
0000
0000
0000
,
1000
0000
0010
0000
,
0100
0000
0000
0000
,
0001
0000
0010
0000
,
0100
0000
0000
0000
,
1000
0000
0001
0000
,
0100
0000
0000
0000
,
0010
0000
1000
0000
,
0001
0000
0000
0000
,
1000
0000
0100
0000
,
0010
0000
0000
0000
,
1001
0000
0000
0000
;

//---------------dance-single - NAOKI----------------
#NOTES:
     dance-single:
     NAOKI:
     Easy:
     7:
     0.366,0.451,0.193,0.193,0.000:
0000
0000
0000
0000
,
0000
0000
0000
0000
,
0000
0000
0000
0000
,
0000
0000
0000
0000
,
0000
0000
0000
0000
,
1001
0000
0000
0000
,
0000
0000
0000
0000
0000
0000
0010
0100
,
0000
0100
0000
0000
0000
0000
0000
0000
,
0000
0110
0000
1001
0000
0000
0000
0000
,
0110
0000
1000
0000
,
0100
0000
0010
0000
,
0001
0000
0100
0000
,
0010
1000
0100
0000
,
0010
0000
0001
0000
,
0100
0010
0100
0000
,
0001
0000
0010
0000
,
0100
0000
1000
0000
,
0010
1000
0100
1000
,
0010
0100
0001
0000
,
0010
0001
0100
0001
,
0010
0100
1000
0000
,
0010
1000
0010
0100
,
0001
0010
0100
0000
,
0010
0001
0010
0100
,
1000
0010
0100
0000
,
0200
0010
0302
1000
,
0013
0100
1000
0000
,
0200
0010
2300
0001
,
3010
0100
0001
0000
,
2000
0100
3020
0100
,
1030
0001
0010
0000
,
0002
0010
0203
0010
,
0301
1000
0100
0010
,
2002
0000
0000
3003
,
0010
0010
0100
0100
,
0001
0001
1000
1000
,
0100
0100
0010
0010
,
0001
0100
0010
1000
,
0001
0001
1000
1000
,
0010
0100
0001
0000
,
0010
0010
0100
0100
,
1000
0001
0100
0000
,
0010
0010
1000
1000
,
0100
0010
0001
0000
,
0100
0100
0001
0001
,
1001
0110
1010
0101
,
0100
0000
0010
0000
,
1000
0000
0100
0000
,
0010
0000
0001
0000
,
0100
0000
1000
0000
,
0100
0000
0001
0000
,
0010
0000
0100
0000
,
1000
0000
0010
0000
,
0001
0000
0010
1000
,
0100
0000
0010
0000
,
0001
0000
0100
0000
,
0010
0000
1000
0000
,
0100
0000
0001
0000
,
0100
0000
1000
0000
,
0010
0000
0100
0000
,
0001
0000
0010
0000
,
0100
0000
1000
0000
,
0001
0100
0010
0000
,
0100
0001
0010
0000
,
0010
0100
1000
0000
,
0100
1000
0010
0000
,
0010
0100
0001
0000
,
0010
0001
0100
0000
,
0100
0010
1000
0000
,
0100
1000
0010
0100
,
0001
0001
0100
0010
,
1000
1000
0100
0010
,
0001
0001
1000
0010
,
0100
0100
0001
1000
,
0010
0010
0100
1001
,
0020
0000
2030
0000
,
3002
0000
0023
0000
,
0230
0000
2300
0000
,
3020
0000
0230
0000
,
0301
0001
0010
0010
,
0100
1000
0010
0000
,
1000
1000
0010
0010
,
0100
0001
0010
0000
,
0100
0100
1000
1000
,
0001
0100
0010
0000
,
0100
0100
0001
0001
,
1000
0100
0010
0002
,
0003
0000
0000
0000
,
0001
0010
0100
1000
,
2010
0001
3100
0110
,
0010
0001
0100
0000
,
0012
1000
0103
0110
,
0010
1000
0100
0000
,
2100
0001
3010
0110
,
0100
0001
0010
0000
,
0102
1000
0013
0110
,
0100
1000
0010
0000
,
1020
0100
1030
1001
,
0001
0010
0100
0000
,
0021
0100
0031
1001
,
1000
0010
0100
0000
,
0201
0010
0301
1001
,
1000
0100
0010
0000
,
1200
0010
1300
1001
,
0001
0100
0010
1000
,
1001
0000
0000
0000
;

//---------------dance-single - NAOKI----------------
#NOTES:
     dance-single:
     NAOKI:
     Medium:
     12:
     0.657,0.679,0.258,0.308,0.025:
0000
0000
0000
0000
,
0000
0000
0000
0000
,
0000
0000
0000
0000
0000
0000
0000
0010
,
0100
0101
0000
0000
,
0000
1001
0000
0010
,
0110
0000
0000
0000
,
0000
0000
0000
0000
0000
0000
0100
0010
,
0000
1010
0000
0000
0000
0000
0000
0000
,
0000
1001
0000
0110
0000
0100
0001
1000
,
0100
0010
0001
0100
,
0010
1000
0100
0010
0001
0000
0000
0010
,
0100
1100
1000
0010
,
0100
0101
0000
1001
,
0110
0010
1000
0100
,
0010
0001
1000
0010
0100
0000
0100
0001
,
0000
0011
0000
0010
0000
0100
0000
1000
,
0000
1010
0000
0101
0000
0001
0010
0100
,
1000
0010
0100
0000
0001
0010
0100
0000
,
1000
0010
0001
0010
2000
0000
3100
0010
,
0001
0100
0010
0000
1000
0100
0010
0000
,
0001
0010
1000
0010
0002
0000
0103
0010
,
1000
0100
0010
0000
0001
0100
0010
0000
,
1000
0100
0001
0100
2000
0000
3010
0100
,
0001
0010
0100
0000
1000
0010
0100
0000
,
0001
0100
1000
0100
0001
0000
0110
0000
,
1000
0010
0100
0000
0001
0010
0100
0000
,
0010
0001
1000
0010
0200
0000
0310
1000
,
0001
0010
0100
0000
1000
0010
0100
0000
,
0010
1000
0001
0010
0200
0000
0310
0001
,
1000
0010
0000
0010
0000
0100
0000
0100
,
0000
0001
0000
0001
0000
1000
0000
1000
,
0010
0100
0001
1000
0100
0010
0001
0100
,
0010
1010
0101
1100
,
2002
0000
0000
3003
,
0010
0010
0100
0100
0001
0010
1000
0000
,
0010
0010
0100
0100
1000
0010
0001
0010
,
1000
1000
0100
0100
0010
0001
0100
0000
,
0001
0001
0100
0100
0010
1000
0100
0010
,
0001
0100
0010
0000
0010
1000
0100
0000
,
0100
1000
0001
0100
2000
0000
3100
0000
,
0010
1000
0100
0000
0100
0010
0001
0000
,
0100
0010
1000
0100
0002
0000
0103
0000
,
0010
0001
0100
0000
0100
0010
1000
0000
,
0100
0010
0001
0100
2000
0000
3100
0000
,
0010
1000
0100
0000
0010
0001
0100
0000
,
1002
0013
2001
3010
,
0100
0001
0000
1000
0000
0100
0000
0010
,
0000
0001
0000
0100
0010
1000
0001
0010
,
0100
1000
0000
0001
0000
0100
0000
0010
,
0000
1000
0000
0100
0010
0001
1000
0010
,
0100
0001
0000
1000
0000
0010
0000
0100
,
0000
0001
0000
0010
0100
1000
0001
0100
,
0010
1000
0000
0001
0000
0010
0000
0100
,
0000
1000
0000
0010
0100
0001
1000
0100
,
0010
0001
0000
1000
0000
0010
0000
0100
,
0000
0001
0000
0010
0100
1000
0001
0100
,
0010
1000
0000
0001
0000
0010
0000
0100
,
0000
1000
0000
0010
0100
0001
1000
0100
,
0010
0001
0000
0100
0010
1000
0000
0100
,
0010
0001
0000
0100
0010
1000
0001
0010
,
0100
1000
0000
0001
0100
0010
0000
1000
,
0002
0000
0103
0000
,
2010
0000
3100
0020
0000
0031
1000
0010
,
0200
0000
0301
1000
0000
1000
0100
0010
,
0002
0000
0013
0200
0000
1300
0001
0100
,
0020
0000
1030
0001
0000
0001
0010
0100
,
2000
0000
3010
0200
0000
0301
1000
0100
,
0020
0000
0130
1000
0000
1000
0010
0100
,
0002
0000
0103
0020
0000
1030
0001
0010
,
0200
1000
0001
1300
,
1100
0000
1000
0020
0000
0130
0001
0010
,
0200
0000
0310
0002
0000
0103
0010
0010
,
2000
0000
3010
0200
0000
0310
1000
0100
,
0020
0001
1000
0031
,
0010
0100
0100
1000
0001
0100
0100
0000
,
0020
0000
0000
0000
0230
0000
0000
0000
0302
0000
0000
0000
1003
0000
0000
0010
,
0100
0110
0002
0000
1003
1010
0000
0100
,
0002
0000
0000
0000
0023
0000
0000
0000
0230
0000
0000
0000
1300
0000
0010
0100
,
0000
0110
0000
0000
0002
0000
0000
0000
0103
0010
0000
1000
0000
0100
0000
0010
,
0001
0100
0010
1000
,
0100
0010
0001
0100
0010
0000
1000
0000
,
0001
0010
0100
1000
,
0010
0100
0001
0010
0100
0000
1000
0000
,
1010
0010
0100
0001
,
0010
0100
1000
0010
0100
0000
0001
0000
,
1000
0100
0010
0001
,
1001
1100
0101
1001
,
0110
0000
0000
0000
,
0010
0100
0100
0001
1000
0100
0100
0000
,
0010
0001
1000
0000
0010
0100
0001
0000
,
0010
0100
1000
0001
0100
0000
0110
0000
,
0010
1000
0001
0000
0010
0100
1000
0000
,
0010
0100
0001
1000
0100
0000
0110
0000
,
0010
0001
1000
0000
0010
0100
0001
0000
,
0100
0001
1000
0100
0002
0000
0103
1000
,
0001
0100
0010
0000
1000
0001
0010
0000
,
0100
1000
0001
0100
2000
0000
3100
0001
,
1000
0100
0010
0000
0001
0100
0010
0000
,
0100
0001
1000
0100
0001
0000
0001
0100
,
1000
0010
0100
0000
0100
0001
0010
0100
,
1000
0010
0100
0001
0010
0000
0100
1000
,
0001
0100
0010
0000
0010
1000
0100
0010
,
0001
1000
0010
0100
0001
0000
0010
0100
,
1000
0010
0100
0001
0010
0001
0100
0010
,
1000
0100
0010
0001
1100
0000
0101
0000
,
2002
0000
3003
0000
;
