#TITLE:Night Drift;
#SUBTITLE:;
#ARTIST:NARXZ;
#TITLETRANSLIT:;
#SUBTITLETRANSLIT:;
#ARTISTTRANSLIT:;
#GENRE:;
#CREDIT:NAOKI;
#MUSIC:Night Drift.ogg;
#BANNER:Night-Drift-bn.png;
#BACKGROUND:Night-Drift-bg.png;
#CDTITLE:naokicdtitle.png;
#SAMPLESTART:195.273;
#SAMPLELENGTH:18.000;
#SELECTABLE:YES;
#OFFSET:0.053;
#BPMS:0.000=220.000;
#STOPS:;
#BGCHANGES:;
#FGCHANGES:;

//--------------- dance-single - NAOKI 4/24/18/15*/24*/32*/64 ----------------
#NOTES:
     dance-single:
     NAOKI 4/24/18/15*/24*/32*/64:
     Challenge:
     19:
     0,0,0,0,0:
0000
0000
0000
0000
,
0000
0000
0000
0000
,
0000
0000
0000
0000
,
0000
0000
0000
0000
,
0000
0000
0000
0000
,
0000
0000
0000
0000
,
0000
0000
0000
0000
,
0000
0000
0000
0000
,
0000
0000
0000
0000
,
0000
0000
0000
0000
,
0000
0000
0000
0000
,
0000
0000
0000
0000
,
0000
0000
0000
0000
,
0000
0000
0000
0000
,
0000
0000
0000
0000
,
0000
0000
0000
0000
,
1000
0100
0010
0001
1000
0010
0100
0001
,
0010
0001
1000
0010
1000
0100
0010
0001
,
0100
0000
0010
1000
0001
0010
0000
0100
,
1000
0010
1000
0001
0010
0001
1000
0010
,
0000
0100
0001
0000
1000
0100
0010
0001
,
0200
0000
0310
1000
0001
0010
0000
0100
,
1000
0001
0100
0010
0000
1000
0000
0001
,
0010
0000
0100
0000
1000
0000
0001
0100
0001
0000
1000
0000
0100
0000
0010
0000
,
0001
0100
0010
1000
0100
0010
0001
1000
,
0010
1000
0001
0010
0001
0100
0010
1000
,
0100
0010
0001
0100
0010
1000
0001
0010
,
0001
0000
1000
0000
0010
0000
0100
0001
0100
0000
0010
0000
1000
0000
0100
0000
,
1000
0010
0100
0001
0010
0100
1000
0010
,
1000
0001
0010
0001
0100
0010
1000
0001
,
0020
0000
0130
2000
0000
3001
0200
0000
,
0310
0000
1000
0000
0001
0000
0010
0100
0010
0000
0001
0000
1000
0000
0000
0000
,
0001
0100
0010
1000
0001
0010
0100
1000
,
0010
1000
0001
0010
0001
0100
0010
1000
,
0100
0000
0010
0001
1000
0010
0000
0100
,
0001
0010
0001
1000
0010
1000
0001
0010
,
0000
0100
1000
0000
0001
0100
0010
1000
,
0200
0000
0310
0001
1000
0010
0000
0100
,
0001
1000
0100
0010
0000
0001
0000
1000
,
0010
0000
0100
0000
0001
0000
1000
0100
1000
0000
0001
0000
0100
0000
0010
0000
,
1000
0100
0010
0001
0100
0010
1000
0001
,
0010
0001
1000
0010
1000
0100
0010
0001
,
0100
0010
1000
0100
0010
0001
1000
0010
,
1000
0000
0001
0000
0010
0000
0100
1000
0100
0000
0010
0000
0001
0000
0100
0000
,
0001
0010
0100
1000
0010
0100
0001
0010
,
0001
1000
0010
1000
0100
0010
0001
1000
,
0010
0100
0001
0010
0100
1000
0010
0100
,
0001
0010
0001
1000
0010
0000
0100
0001
,
1000
0000
0000
0000
,
0000
0000
0000
0000
,
0000
0000
0000
0000
,
0000
0000
0000
0000
,
0002
0003
2000
3000
,
0010
0100
1001
0000
,
0002
0023
0230
2300
,
3002
0203
0310
0000
,
2000
3000
0002
0003
,
2000
3000
0002
0003
,
2000
3000
0002
0003
,
2000
3000
0002
0003
,
1000
0001
0100
0000
0010
1000
0001
0010
,
0100
1000
0001
1000
0010
0100
0001
0000
,
0100
0100
0010
0010
,
1000
0100
0010
0001
,
1000
0010
0100
0001
1000
0100
0010
0001
,
0100
0010
1000
0001
0010
0100
1000
0001
,
0100
0010
1000
0001
0010
0100
1000
0001
0100
0001
1000
0100
0010
0001
1000
0010
,
0100
0001
0010
0100
1000
0001
0100
0010
1000
0100
0010
0001
1000
0010
0100
0001
,
1000
0100
1000
0010
0100
0001
0010
0001
1000
0010
1000
0001
0010
0100
1000
0001
,
0100
0001
0010
0100
1000
0010
1000
0001
0010
0001
1000
0010
0100
0001
1000
0100
,
0010
0001
1000
0001
0100
0010
1000
0001
0010
0100
1000
0000
0000
0000
0000
0000
,
0000
0000
0000
0000
,
0001
0100
0010
1000
0001
0010
0100
1000
0001
0100
0010
0100
0001
1000
0100
0010
,
0001
1000
0010
0100
0001
1000
0100
1000
0001
0100
0010
1000
0001
0010
0001
1000
,
0010
0100
0001
1000
0100
0010
0001
1000
0010
0100
0010
1000
0001
0010
0100
1000
,
0001
0100
0010
1000
0001
0010
0001
1000
0010
0100
0001
1000
0100
0010
0100
1000
,
0001
0100
0010
1000
0001
0010
0100
1000
0001
0100
0010
0100
0001
1000
0100
0010
,
0001
1000
0010
0100
0001
1000
0100
1000
0001
0100
0010
1000
0001
0010
0001
1000
,
0010
0100
0001
1000
0100
0010
0001
1000
0010
0100
0010
1000
0001
0010
0100
1000
,
0001
0100
0010
1000
0001
0010
0001
1000
0010
0100
0001
1000
0100
0010
0100
1000
,
0010
0100
0001
1000
0100
0010
0001
1000
0010
0100
0010
1000
0001
0010
0100
1000
,
0001
0100
0010
1000
0001
0010
0001
1000
0010
0100
0001
1000
0100
1000
0001
0100
,
0010
1000
0001
0010
0100
1000
0001
0100
0010
0100
0001
1000
0100
0010
0001
1000
,
0010
0100
0001
1000
0100
1000
0001
0100
0010
1000
0001
0010
0100
0010
0001
1000
,
0010
0100
0001
1000
0100
0010
0001
1000
0010
0100
0010
1000
0001
0010
0100
1000
,
0001
0100
0010
1000
0001
0010
0001
1000
0010
0100
0001
1000
0100
1000
0001
0100
,
0010
1000
0001
0010
0100
1000
0001
0100
0010
0100
0001
1000
0100
0010
0001
1000
,
0010
0100
0001
1000
0100
1000
0001
0100
0010
0100
0001
1000
0100
0010
0001
0100
,
0001
0010
0100
1000
0001
0100
0010
1000
0001
1000
0100
0010
0001
1000
0010
0100
,
0001
1000
0001
0010
0100
1000
0001
0100
0010
1000
0001
1000
0100
0010
0001
1000
,
0001
0100
0010
1000
0001
0010
0100
1000
0001
1000
0010
0100
0001
1000
0001
0010
,
0100
1000
0001
0100
0010
1000
0001
0010
0001
1000
0010
0100
0001
1000
0100
1000
,
0001
0100
0010
1000
0001
0010
0100
1000
0001
0100
0001
1000
0001
0010
0100
1000
,
0001
0100
0010
1000
0010
0100
0001
1000
0100
1000
0001
1000
0010
0100
0001
1000
,
0100
0010
0001
0010
0100
1000
0001
0100
0001
1000
0100
0010
0001
1000
0010
1000
,
0001
0010
0100
1000
0001
0100
0010
1000
0001
0010
0100
1000
0001
0100
0010
1000
,
0001
0010
0100
1000
0010
0000
0100
0001
,
1000
0100
1000
0001
0200
0300
0010
0010
,
1000
0100
0010
0001
1000
0010
0100
0001
1000
0100
0010
0001
1000
0010
1000
0001
,
0010
0100
1000
0001
0100
0010
1000
0001
0010
0100
1000
0001
0100
0001
1000
0100
,
0010
0001
0100
0001
1000
0001
0010
0100
1000
0010
1000
0001
1000
0100
0010
0001
,
1000
0010
1000
0001
0010
0100
1000
0001
0100
0010
1000
0001
0010
0100
1000
0001
,
0100
0001
1000
0100
0010
0001
1000
0001
0100
0010
1000
0001
0010
0001
1000
0010
,
1000
0100
0010
0001
1000
0010
1000
0001
0010
0100
1000
0001
0100
0001
0010
0100
,
1000
0001
1000
0010
0100
0001
1000
0100
0010
0001
1000
0010
0100
0001
1000
0001
,
0010
0100
0010
0001
1000
0010
0100
0001
1000
0100
0010
0001
1000
0010
0100
0001
,
1000
0100
1000
0010
1000
0001
0010
0001
0100
0001
1000
0100
0010
0100
1000
0001
,
0100
0010
0100
0001
1000
0100
0010
0001
1000
0001
0100
0010
1000
0001
0010
0100
,
1000
0001
1000
0010
0100
0001
1000
0001
0010
0100
0010
0001
1000
0001
0100
0010
,
1000
0001
1000
0100
0010
0100
1000
0001
1000
0010
0100
0001
0100
0010
1000
0001
,
0010
0100
1000
0001
0100
0010
1000
0001
0010
0100
1000
0001
0100
0001
0010
0001
,
1000
0010
1000
0100
1000
0001
0100
0010
0100
0001
1000
0100
0010
0001
1000
0010
,
0100
0001
1000
0001
0010
0100
1000
0001
0100
0010
1000
0001
0010
0100
1000
0001
,
1000
0010
0100
0001
1000
0100
0010
0001
1000
0010
0100
0001
1000
0100
0010
0001
,
0100
0010
1000
0001
0010
0100
1000
0001
0100
0010
0100
0001
1000
0100
1000
0001
,
1000
0010
0100
0001
1000
0100
0010
0001
0100
0001
1000
0001
0010
0100
1000
0001
,
0200
0000
0310
0000
1000
0000
0001
0010
,
0200
0000
0310
0000
0002
0003
2000
3000
,
0010
0000
0100
0000
0001
0000
1000
0100
,
0020
0000
0130
0000
2000
3000
0002
0003
,
1000
0010
0100
0001
0000
1000
0100
0000
,
0010
0000
0001
1000
0010
0000
0100
0001
,
0010
0100
1000
0001
0100
0010
1000
0100
,
0010
0001
2000
3000
,
0010
0100
0001
0000
1000
0000
0001
0010
,
0200
0000
0310
0000
0002
0003
2000
3000
,
0010
0100
0001
0000
1000
0000
0200
0000
,
0310
0001
1000
0000
0010
0000
0100
0000
,
0001
0010
0100
1000
0000
0001
0100
0000
,
0010
0000
1000
0001
0010
0000
0100
1000
,
0001
0000
0000
0000
0100
0000
0000
0000
0010
0000
1000
0000
0001
0010
0100
1000
,
0001
0000
0000
0000
0000
0000
0000
0000
0000
0000
0000
0000
0000
0000
0000
0000
0100
0000
0000
0000
0000
0000
0000
0000
0000
0000
0000
0000
0000
0000
0000
0000
0020
0030
0000
0000
0000
0000
0000
0000
0000
0000
0000
0000
0000
0000
0000
0000
0000
0000
0000
0000
0000
0000
0000
0000
0000
0000
0000
0000
0000
0000
0000
0000
,
1000
0100
0010
0001
1000
0010
0100
0001
1000
0100
0010
0001
1000
0001
0100
0010
,
1000
0001
0010
0100
1000
0001
0100
0010
1000
0001
0010
0001
1000
0010
0100
0001
,
1000
0100
0010
0001
1000
0010
0100
0001
1000
0100
0010
0001
1000
0001
0100
0010
,
1000
0001
0010
0100
1000
0001
0100
0010
1000
0001
0010
0001
1000
0010
0100
0001
,
1000
0100
1000
0001
1000
0010
0100
0001
1000
0100
0010
0001
1000
0001
0100
0010
,
1000
0001
0010
0100
1000
0001
0100
0010
1000
0001
0010
0001
1000
0010
0100
0001
,
1000
0100
0010
0001
1000
0010
1000
0001
0010
0100
1000
0001
0100
0001
1000
0100
,
0010
0100
1000
0001
0100
0010
0100
0001
1000
0100
0010
0001
1000
0000
0000
0000
,
0001
0100
0010
1000
0001
0010
0100
1000
0001
0100
0010
1000
0001
1000
0100
0010
,
0001
1000
0010
0100
0001
1000
0100
0010
0001
1000
0010
1000
0001
0010
0100
1000
,
0001
0100
0010
1000
0001
0010
0100
1000
0001
0100
0010
1000
0001
1000
0100
0010
,
0001
1000
0010
0100
0001
1000
0100
0010
0001
1000
0010
1000
0001
0010
0100
1000
,
0001
0100
0001
1000
0001
0010
0100
1000
0001
0100
0010
1000
0001
1000
0100
0010
,
0001
1000
0010
0100
0001
1000
0100
0010
0001
1000
0010
1000
0001
0010
0100
1000
,
0001
0100
0010
1000
0001
0010
0001
1000
0010
0100
0001
1000
0100
1000
0001
0100
,
0010
0000
1000
0000
0001
0010
0100
1000
,
0010
0000
0000
0000
0100
0000
0000
0000
0001
0000
1000
0000
0100
0010
0001
1000
,
0010
0000
0100
0000
0001
1000
0100
1000
,
0001
0100
0010
1000
0001
0010
0100
1000
0001
0100
0001
1000
0100
1000
0010
1000
,
0001
0010
0001
1000
0010
0100
0001
1000
0100
0010
0001
1000
0010
0100
0010
1000
,
0001
0010
0100
1000
0001
0100
0010
1000
0010
0100
0001
1000
0100
0010
0001
1000
,
0010
0100
0001
0100
0010
1000
0001
0010
0100
1000
0001
0100
0010
1000
0010
0100
,
0001
1000
0100
1000
0001
0100
0010
1000
0001
0010
0001
1000
0010
0100
0001
1000
,
0100
0010
0001
1000
0010
1000
0001
0010
0001
0100
0001
1000
0100
1000
0001
0100
,
0010
1000
0001
1000
0100
0010
0001
1000
0010
1000
0001
0010
0001
1000
0010
0100
,
0001
1000
0001
0010
0100
1000
0001
0100
0010
1000
0001
1000
0100
0010
0100
1000
,
0001
0100
0001
1000
0001
0010
0100
1000
0001
0100
0001
0100
0010
1000
0010
0100
,
0001
1000
0100
0010
0100
1000
0001
0100
0010
1000
0001
0010
0100
0010
0001
1000
,
0010
0100
0001
1000
0100
0010
0001
0010
0100
1000
0001
0100
0010
1000
0001
0010
,
0100
1000
0100
0010
0001
1000
0010
0100
0001
1000
0100
0010
0001
0010
0100
1000
,
0001
0100
0001
1000
0100
1000
0010
1000
0001
0010
0001
1000
0010
0100
0001
1000
,
0100
1000
0001
0100
0001
1000
0001
0010
0100
1000
0001
0100
0001
1000
0100
0010
,
0001
1000
0010
0100
0010
1000
0001
0010
0100
1000
0001
0100
0001
0010
0100
1000
,
0001
1000
0010
0100
0001
1000
0100
0010
0001
0100
0001
1000
0100
1000
0001
0100
,
0010
0000
1000
0000
0001
0010
0100
1000
,
0001
0100
0001
1000
0100
1000
0001
1000
0010
0100
0001
1000
0100
0010
0001
1000
,
0010
1000
0001
0010
0100
1000
0001
0100
0001
1000
0100
0010
0001
1000
0001
0100
,
0001
1000
0100
0010
0001
0100
0010
1000
0001
0010
0001
1000
0010
0100
0001
1000
,
0100
1000
0001
0100
0010
1000
0010
0100
0001
1000
0100
1000
0001
0100
0010
1000
,
0001
0010
0001
1000
0010
0100
0001
1000
0100
0010
0001
1000
0010
0100
0001
0100
,
0010
1000
0001
0010
0001
1000
0010
0100
0001
1000
0100
1000
0001
0100
0010
1000
,
0001
0010
0100
1000
0001
0100
0010
1000
0001
0010
0001
1000
0010
0100
0001
1000
,
0100
1000
0001
0100
0010
1000
0001
0010
0100
1000
0001
1000
0010
0100
0001
1000
,
0200
0000
0310
0000
0000
0000
0001
1000
,
0020
0130
0000
0001
,
1000
0000
0100
0000
0010
0001
1000
0010
,
0200
0000
0000
0000
0310
0000
0000
0000
1000
0000
0001
0000
0010
0100
1000
0001
,
0100
0000
0000
0000
0010
0000
0000
0000
1000
0100
0010
0001
1000
0010
0100
0001
,
1000
0100
0010
0001
0100
0010
0100
0001
0010
0100
1000
0001
0100
0010
1000
0100
,
1000
0001
0100
0001
1000
0100
0010
0001
1000
0010
1000
0001
0010
0100
1000
0001
,
0100
0010
1000
0001
0010
0001
1000
0010
0100
0001
0100
0010
1000
0001
0010
0001
,
1000
0010
0100
0001
1000
0100
1000
0001
1000
0010
0100
0001
1000
0100
1000
0001
,
0100
0010
1000
0001
0010
0001
1000
0010
0100
0001
1000
0100
0010
0001
0010
0100
,
1000
0001
0100
0010
1000
0001
1000
0100
0010
0001
0100
0001
0010
0100
1000
0001
,
0100
0010
1000
0001
1000
0100
0010
0001
1000
0010
1000
0001
0010
0100
1000
0001
,
0100
0001
1000
0100
1000
0001
0100
0001
0010
0100
1000
0001
1000
0010
0100
0001
,
1000
0100
0010
0100
1000
0001
0100
0010
1000
0001
1000
0100
0010
0001
1000
0010
,
0100
0001
0100
0010
1000
0001
0010
0001
0100
0010
1000
0100
1000
0001
0100
0001
,
1000
0100
0010
0001
1000
0010
0100
0001
1000
0100
1000
0001
0100
0010
1000
0001
,
0010
0001
1000
0010
0100
0001
0010
0001
1000
0010
1000
0001
0010
0100
1000
0001
,
0100
0010
1000
0001
1000
0100
0010
0001
1000
0001
0100
0001
1000
0100
0010
0001
,
1000
0010
1000
0001
0010
0100
1000
0001
0100
0010
0100
0001
1000
0001
0010
0100
,
0010
0001
0100
0010
1000
0001
1000
0100
0010
0100
1000
0001
1000
0010
0100
0010
,
1000
0100
0010
0001
1000
0010
0100
0001
1000
0000
0000
0000
0000
0000
0000
0000
,
0001
0010
0100
1000
0001
0100
0010
1000
0001
0010
0001
1000
0010
0100
0001
1000
,
0100
1000
0001
0100
0010
1000
0001
0010
0100
1000
0001
1000
0010
0100
0010
1000
,
0001
0010
0100
1000
0001
0100
0010
1000
0001
0010
0001
1000
0010
1000
0001
0010
,
0100
1000
0001
1000
0010
0100
0001
1000
0100
0010
0001
0100
0001
1000
0100
1000
,
0010
0100
0001
1000
0100
0010
0001
1000
0010
0100
0001
1000
0100
1000
0001
0100
,
0010
1000
0001
0010
0001
1000
0010
0100
0001
1000
0100
1000
0001
1000
0010
0100
,
0001
1000
0001
0010
0100
1000
0001
0100
0010
1000
0100
0010
0001
0100
0010
1000
,
0001
0010
0001
1000
0010
0100
0001
1000
0100
1000
0001
0100
0001
1000
0100
1000
,
0001
0100
0010
1000
0001
0010
0100
1000
0001
0100
0001
1000
0100
0010
0001
1000
,
0010
1000
0001
0010
0100
1000
0001
0100
0001
1000
0001
0010
0100
1000
0001
0100
,
0010
1000
0001
0010
0100
1000
0001
1000
0010
0100
0001
1000
0100
1000
0001
0100
,
0010
1000
0001
0010
0100
1000
0001
0100
0010
1000
0001
0010
0001
1000
0010
0100
,
0001
0010
0100
1000
0001
0100
0010
1000
0001
0010
0001
1000
0010
0100
0001
1000
,
0100
1000
0001
0100
0010
1000
0010
0100
0001
1000
0001
0010
0001
1000
0010
1000
,
0001
0010
0100
1000
0001
0100
0010
1000
0001
1000
0100
1000
0001
0100
0001
1000
,
0100
0010
0001
1000
0010
0100
0001
0100
0010
1000
0001
1000
0100
1000
0001
0100
,
0010
0000
0000
0000
,
0000
0000
0000
0000
,
0000
0000
0000
0000
,
0000
0000
0000
0000
,
0000
0000
0000
0000
,
0000
0000
0000
0000
,
0000
0000
0000
0000
,
0000
0000
0000
0000
,
0000
0000
0000
0000
,
0000
0000
0000
0000
,
0000
0000
0000
0000
,
0000
0000
0000
0000
,
0000
0000
0000
0000
,
0000
0000
0000
0000
,
1000
0000
0000
0000
0100
0000
0000
0000
0010
0000
0001
0000
1000
0010
0100
0001
,
1000
0000
0001
0010
0200
0000
0300
0000
,
1000
0010
1000
0001
0010
0001
1000
0010
1000
0001
0010
0001
1000
0010
0100
0001
,
1000
0100
1000
0001
0100
0001
1000
0100
1000
0001
0100
0001
1000
0100
0010
0001
,
0100
0001
1000
0100
1000
0001
0100
0001
1000
0100
1000
0001
0100
0010
1000
0001
,
0010
0001
1000
0010
1000
0001
0010
0001
1000
0010
0100
0001
1000
0100
0010
0001
,
1000
0010
1000
0001
0010
0001
1000
0100
1000
0001
0100
0001
1000
0100
0010
0001
,
0100
0001
1000
0100
1000
0001
0010
0001
1000
0010
1000
0001
0010
0001
0100
0010
,
1000
0100
0010
0001
1000
0010
0100
0001
1000
0100
0010
0001
1000
0010
0100
0001
,
0010
0001
1000
0010
1000
0001
0100
0001
1000
0100
1000
0001
0100
0010
1000
0001
,
0010
0100
1000
0010
0100
0001
1000
0100
1000
0001
0100
0001
1000
0100
0010
0001
,
0100
0010
1000
0100
0010
0001
1000
0010
1000
0001
0010
0001
1000
0010
0100
0001
,
1000
0100
0010
0001
0100
0010
1000
0001
0010
0001
1000
0010
1000
0001
0010
0100
,
1000
0010
0100
0001
0010
0100
1000
0001
0100
0001
1000
0100
1000
0001
0100
0001
,
0010
0100
1000
0010
0100
0001
0010
0100
1000
0010
0100
0001
1000
0100
0010
0001
,
0100
0010
1000
0100
0010
0001
0100
0010
1000
0100
0010
0001
1000
0010
1000
0001
,
0010
0100
1000
0001
0100
0010
1000
0001
0010
0100
1000
0001
0100
0010
1000
0001
,
1000
0100
0010
0001
1000
0010
0100
0001
1000
0100
1000
0001
0100
0010
1000
0001
,
0010
0100
1000
0001
0100
0001
1000
0100
1000
0001
0100
0001
1000
0100
0010
0001
,
1000
0010
1000
0001
0010
0001
1000
0010
1000
0001
0010
0001
1000
0010
0100
0001
,
0010
0001
1000
0010
1000
0001
0010
0001
1000
0010
1000
0001
0010
0100
1000
0001
,
0100
0001
1000
0100
1000
0001
0100
0001
1000
0100
0010
0001
1000
0010
0100
0001
,
1000
0100
1000
0001
0100
0001
1000
0010
1000
0001
0010
0001
1000
0010
0100
0001
,
0010
0001
1000
0010
1000
0001
0100
0001
1000
0100
1000
0001
0100
0001
0010
0100
,
1000
0010
0100
0001
1000
0100
0010
0001
1000
0010
0100
0001
1000
0100
0010
0001
,
0100
0001
1000
0100
1000
0001
0010
0001
1000
0010
1000
0001
0010
0100
1000
0001
,
0100
0010
1000
0100
0010
0001
1000
0010
1000
0001
0010
0001
1000
0010
0100
0001
,
0010
0100
1000
0010
0100
0001
1000
0100
1000
0001
0100
0001
1000
0100
0010
0001
,
1000
0010
0100
0001
0010
0100
1000
0001
0100
0001
1000
0100
1000
0001
0100
0010
,
1000
0100
0010
0001
0100
0010
1000
0001
0010
0001
1000
0010
1000
0001
0010
0001
,
0100
0010
1000
0100
0010
0001
0100
0010
1000
0100
0010
0001
1000
0010
0100
0001
,
0010
0100
1000
0010
0100
0001
0010
0100
1000
0010
0100
0001
1000
0100
1000
0001
,
0100
0010
1000
0001
0010
0100
1000
0001
0100
0010
1000
0001
0010
0100
1000
0001
,
1000
0010
0100
0001
1000
0100
0010
0001
0100
0001
1000
0001
0010
0100
1000
0001
,
0100
0010
1000
0001
0010
0001
1000
0010
0100
0001
1000
0100
0010
0001
1000
0001
,
0100
0010
1000
0001
0010
0100
0010
0001
1000
0010
1000
0001
1000
0100
0010
0001
,
1000
0001
0100
0010
1000
0001
0010
0001
1000
0010
0100
0001
1000
0100
1000
0001
,
0100
0001
1000
0001
0010
0100
1000
0001
0100
0010
1000
0001
1000
0100
0010
0001
,
1000
0010
1000
0001
0010
0100
1000
0001
0100
0010
0100
0001
1000
0100
0010
0001
,
0100
0001
1000
0100
1000
0010
0100
0001
0100
0010
1000
0001
0010
0001
1000
0010
,
0100
0001
1000
0100
0010
0001
1000
0010
1000
0001
0010
0100
1000
0001
0100
0001
,
1000
0100
1000
0001
0100
0010
1000
0001
0010
0001
1000
0010
0100
0001
1000
0100
,
0010
0001
1000
0001
0100
0010
1000
0001
1000
0100
0010
0100
1000
0001
0100
0010
,
1000
0001
0010
0001
1000
0010
0100
0001
1000
0100
1000
0001
0100
0010
1000
0001
,
0010
0100
1000
0100
0010
0001
1000
0010
0100
0001
1000
0100
1000
0001
0100
0010
,
1000
0001
0010
0001
1000
0010
1000
0001
0010
0001
1000
0010
0100
0001
1000
0100
,
1000
0001
0100
0010
1000
0001
0010
0100
1000
0001
1000
0010
0100
0001
0010
0001
,
0100
0010
1000
0001
0010
0100
1000
0001
0100
0001
1000
0100
0010
0001
1000
0010
,
1000
0001
0010
0100
1000
0001
0100
0010
1000
0001
1000
0100
0010
0001
1000
0010
,
0100
0010
1000
0001
0010
0001
1000
0010
0100
0001
1000
0001
0100
0001
1000
0100
,
0010
0001
1000
0010
1000
0001
0010
0001
1000
0010
0100
0001
1000
0100
0010
0001
,
0100
0001
1000
0100
1000
0001
0100
0010
1000
0001
0010
0100
1000
0001
0100
0001
,
1000
0100
0010
0001
1000
0010
1000
0001
0010
0100
1000
0001
0100
0001
1000
0100
,
0010
0001
1000
0010
1000
0001
0010
0001
1000
0010
0100
0001
1000
0100
0010
0001
,
1000
0010
1000
0001
0010
0001
1000
0010
1000
0001
0010
0100
1000
0001
0100
0010
,
1000
0100
1000
0001
0100
0001
1000
0100
0010
0001
1000
0010
0100
0001
1000
0001
,
0010
0100
1000
0001
0100
0010
1000
0001
0010
0100
1000
0001
0100
0010
1000
0001
,
0010
0001
1000
0010
1000
0001
0010
0001
0100
0010
1000
0001
0010
0100
1000
0001
,
0100
0001
1000
0100
1000
0001
0100
0001
1000
0100
0010
0001
1000
0010
0100
0001
,
0010
0001
1000
0010
1000
0001
0010
0100
1000
0001
0100
0010
1000
0001
0010
0001
,
1000
0010
0100
0001
1000
0100
1000
0001
0100
0010
1000
0001
0010
0001
1000
0010
,
0100
0001
1000
0100
1000
0001
0100
0001
1000
0100
0010
0001
1000
0010
0100
0001
,
1000
0100
1000
0001
0100
0001
1000
0100
1000
0001
0100
0010
1000
0001
0010
0100
,
1000
0010
1000
0001
0010
0001
1000
0010
0100
0001
1000
0100
0010
0001
1000
0001
,
0100
0010
1000
0001
0010
0100
1000
0001
0100
0010
1000
0001
0010
0100
1000
0001
,
1000
0010
0100
0001
1000
0100
0010
0001
1000
0010
1000
0001
0010
0100
1000
0001
,
0200
0000
0000
0000
,
0000
0000
0000
0000
,
0300
0000
0000
0000
,
0000
0000
0000
0000
,
0000
00M0
0000
0000
;
