#TITLE:Macbeth;
#SUBTITLE:;
#ARTIST:Shakespeare;
#TITLETRANSLIT:;
#SUBTITLETRANSLIT:;
#ARTISTTRANSLIT:;
#GENRE:;
#CREDIT:;
#MUSIC:Macbeth.ogg;
#BANNER:macbeth-bn.png;
#BACKGROUND:Macbeth-bg.png;
#CDTITLE:NAOKI_cdtitle.png;
#SAMPLESTART:136.974;
#SAMPLELENGTH:12.000;
#SELECTABLE:YES;
#OFFSET:-1.287;
#BPMS:0.000=191.000
,256.000=95.500
,288.000=191.000
;
#STOPS:;
#BGCHANGES:;
#FGCHANGES:;

//--------------- dance-single - NAOKI ----------------
#NOTES:
     dance-single:
     NAOKI:
     Beginner:
     2:
     0.127,0.221,0.024,0.06,0:
0000
0000
0000
0000
,
0000
0000
0000
0000
,
0000
0000
0000
0000
,
0000
0000
0000
0000
,
0010
0000
0000
0000
,
0010
0000
0000
0000
,
0100
0000
0000
0000
,
0100
0000
0000
0000
,
0001
0000
0000
0000
,
0001
0000
0000
0000
,
1000
0000
0000
0000
,
1000
0000
0000
0000
,
0100
0000
0000
0000
,
0100
0000
0000
0000
,
0010
0000
0000
0000
,
0010
0000
0000
0000
,
0001
0000
0000
0000
,
1000
0000
0000
0000
,
0010
0000
0000
0000
,
0100
0000
0001
0000
,
1000
0000
0000
0000
,
0100
0000
0000
0000
,
0010
0000
0000
0000
,
0001
0000
1000
0000
,
0010
0000
0000
0000
,
0100
0000
0000
0000
,
0001
0000
0000
0000
,
1000
0000
0001
0000
,
0010
0000
0000
0000
,
0100
0000
0000
0000
,
1000
0000
0001
0000
,
1000
0000
0000
0000
,
2002
3003
0000
0000
,
0100
0000
0000
0000
,
0010
0000
0000
0000
,
0001
0000
0000
0000
,
0100
0000
0000
0000
,
0010
0000
0000
0000
,
1000
0000
0000
0000
,
0001
0000
1000
0000
,
0001
0000
0000
0000
,
0010
0000
0000
0000
,
0100
0000
0000
0000
,
1000
0000
0001
0000
,
1000
0000
0000
0000
,
0010
0000
0000
0000
,
0100
0000
0000
0000
,
0001
0000
0000
0000
,
0200
0000
0000
0000
,
0300
0000
0000
0000
,
0020
0000
0000
0000
,
0030
0000
0000
0000
,
2000
0000
0000
0000
,
3000
0000
0000
0000
,
0002
0000
0000
0000
,
0003
0000
0000
0000
,
0010
0000
0000
0000
,
0010
0000
0000
0000
,
0100
0000
0000
0000
,
0100
0000
0000
0000
,
1000
0000
0000
0000
,
1000
0000
0000
0000
,
0001
0000
0000
0000
,
0001
0000
0000
0000
,
0200
0000
0300
0000
,
0020
0000
0030
0000
,
2000
0000
3000
0000
,
0002
0000
0003
0000
,
0010
0000
0100
0000
,
1000
0000
0001
0000
,
0100
0000
0010
0000
,
1000
0000
0001
0000
,
1001
0000
0000
0000
,
0100
0000
0000
0000
,
0010
0000
0000
0000
,
1000
0000
0000
0000
,
0001
0000
0000
0000
,
0010
0000
0000
0000
,
0100
0000
1000
0000
,
0001
0010
0100
1000
,
1001
0000
0000
0000
,
0000
0000
0000
0000
,
0000
0000
0000
0000
,
0000
0000
0000
0000
,
0010
0000
0000
0000
,
0100
0000
0000
0000
,
0001
0000
0000
0000
,
1000
0000
0001
0000
,
0010
0000
0000
0000
,
0100
0000
0000
0000
,
1000
0000
0000
0000
,
0001
0000
1000
0000
,
0010
0000
0000
0000
,
0100
0000
0000
0000
,
0001
0000
0000
0000
,
0010
0000
0100
0000
,
1000
0000
0000
0000
,
0010
0000
0000
0000
,
0100
0000
0000
0000
,
0001
0000
0010
0000
,
0100
0000
0000
0000
,
1000
0000
0000
0000
,
0010
0000
0000
0000
,
0100
0000
0001
0000
,
0010
0000
0000
0000
,
0100
0000
0000
0000
,
1000
0000
0000
0000
,
1000
0000
0100
0000
,
0010
0000
0000
0000
,
0001
0000
0000
0000
,
0001
0000
0000
0000
,
0100
0000
0010
0000
,
0100
0000
0000
0000
,
0010
0000
0100
0000
,
0010
0000
0000
0000
,
1001
0000
0000
0000
,
0010
0000
0000
0000
,
0010
0000
0000
0000
,
0010
0000
0000
0000
,
0010
0000
0000
0000
,
0100
0000
0000
0000
,
0100
0000
0000
0000
,
0100
0000
0000
0000
,
0100
0000
0000
0000
;

//--------------- dance-single - NAOKI ----------------
#NOTES:
     dance-single:
     NAOKI:
     Easy:
     7:
     0.414,0.631,0.203,0.323,0:
0000
0000
0000
0000
,
0000
0000
0000
0000
,
0000
0000
0000
0000
,
0000
0000
0000
0000
,
0010
0000
0010
0000
,
0100
0000
0100
0000
,
0001
0000
0001
0000
,
1000
0000
1000
0000
,
0110
0000
0010
0000
,
0100
0001
0010
0000
,
0100
1000
0010
0000
,
0100
0100
0001
1000
,
0010
0010
0010
0000
,
0100
0100
0100
0000
,
0001
1000
0001
0000
,
0100
0100
0000
0010
,
0010
1000
0100
0010
,
0001
0100
0010
0010
,
1000
0001
0010
0100
,
1000
0010
0100
0100
,
0001
1000
0100
0010
,
0001
0100
1000
1000
,
0100
0001
0010
1000
,
0010
0100
0001
0001
,
0100
1000
0010
0010
,
0100
0001
0010
0010
,
0100
1000
0010
0010
,
1000
0100
1000
0000
,
0010
0100
0001
0001
,
0010
0100
1000
1000
,
0010
0100
0001
1000
,
0010
0010
0100
0100
,
2002
3003
0100
0010
,
1000
0100
0010
0010
,
0001
0100
0010
1000
,
0001
0010
0100
0100
,
1000
0010
0100
0100
,
0001
1000
0010
0010
,
0100
0001
0010
0100
,
1000
0000
0001
0000
,
0100
0001
0010
0000
,
0100
1000
0010
0000
,
0100
0001
0010
0000
,
0100
1000
0010
0100
,
0001
0010
0100
0000
,
1000
0010
0100
0100
,
0001
0000
1000
0000
,
0010
0010
0100
0100
,
2001
0000
3020
0000
,
0230
0000
0302
0000
,
0023
0000
0230
0000
,
2300
0000
3002
0000
,
0203
0000
0320
0000
,
2030
0000
3200
0000
,
0320
0000
0032
0000
,
1003
1000
0001
0001
,
1001
0000
0100
0010
,
1000
0000
0100
0010
,
0001
0000
0100
0010
,
1000
1000
0001
0001
,
0100
0000
0010
1000
,
0100
0000
0010
0001
,
0100
0000
0010
0000
,
0100
0010
0100
0010
,
0120
2030
3002
0023
,
0230
2300
3002
0203
,
0320
2030
3200
0302
,
0203
2300
3020
0130
,
0200
0302
2003
3200
,
0320
0032
0203
0320
,
2030
3002
0203
2300
,
3200
0302
0023
0130
,
1000
1000
0001
0001
,
0100
0100
0010
0010
,
1000
1000
0100
0100
,
0010
0010
0001
0001
,
1001
0100
0100
0100
,
1001
0010
0010
0010
,
1001
0100
0110
0010
,
1001
0110
1001
0220
,
0330
0000
0000
0000
,
0000
0000
0000
0000
,
0000
0000
0000
0000
,
0000
0000
0000
0000
,
0010
1000
0100
0010
,
0001
1000
0010
0010
,
0100
0001
0010
0100
,
1000
0001
0100
0100
,
0010
1000
0100
0001
,
0100
1000
0010
0100
,
0001
0001
1000
1000
,
0010
0200
0310
0200
,
0310
1000
0100
1100
,
0010
0001
0100
0101
,
0010
1000
0001
0011
,
0100
1000
0001
0101
,
0100
0010
1000
1100
,
0010
0001
1000
1010
,
0001
0010
0100
1000
,
1001
0000
0000
0000
,
0100
0010
1000
1000
,
0100
0010
0001
0001
,
1000
0010
0100
0100
,
0001
0010
0100
0100
,
1000
0001
0010
0010
,
0001
1000
0010
0010
,
0100
0001
0010
0100
,
1000
0010
0100
0220
,
0330
0001
1001
0110
,
0100
0010
0110
1001
,
1000
0001
1001
0110
,
0010
0100
0110
1001
,
0001
1000
1001
0110
,
0100
0010
0110
1001
,
1000
0100
0010
0001
,
1001
0000
0000
0000
,
0010
0000
0010
0000
,
0100
0000
0100
0000
,
0001
0000
0001
0000
,
1000
0000
1000
0001
,
0010
0000
0010
0000
,
0100
0000
0100
0000
,
1000
0000
1000
0000
,
0001
1000
0020
0200
,
0330
0000
0000
0000
;

//--------------- dance-single - NAOKI ----------------
#NOTES:
     dance-single:
     NAOKI:
     Medium:
     11:
     0.563,0.668,0.508,0.502,0:
0000
0000
0000
0000
,
0000
0000
0000
0000
,
0000
0000
0000
0000
,
0000
0000
0000
0000
,
0010
0000
0010
0000
,
0100
0000
0100
0000
,
0001
0000
0001
0000
,
1000
0000
1000
0000
,
0110
0000
0010
0000
1000
0001
0010
0000
,
0100
0000
0100
0000
1000
0001
0100
0000
,
0110
0000
0100
0000
0001
1000
0100
0000
,
0010
0000
0010
0000
0001
1000
0010
0000
,
0120
0130
2001
3001
,
0210
0310
1002
1003
,
0120
0130
1010
0101
,
0002
0000
0000
2000
0000
3003
0000
0000
,
0010
2000
0100
3100
,
0010
0000
0001
0000
0100
0001
1000
0100
,
0010
0002
0100
0103
,
0010
0000
1000
0000
0100
0010
0001
1000
,
0100
2000
0010
3010
,
0100
0000
0001
0000
0010
0001
1000
0010
,
0100
0002
0010
0013
,
0100
1000
0010
0000
,
0010
1000
1100
0101
,
0010
0001
0101
1100
,
0010
1000
1010
0011
,
0100
0001
1001
0100
,
2000
3010
0110
1001
,
0002
0013
0110
1001
,
0010
1000
0100
0000
0010
0001
0100
0000
,
0220
0330
0000
0000
,
0010
1002
0013
0100
,
1000
0001
0100
0000
0010
0000
0110
0000
,
0100
2001
3100
0010
,
0001
1000
0010
0000
0100
0001
0010
0000
,
0100
1002
0103
0010
,
1000
0001
0010
0000
0100
0000
0110
0000
,
0010
2001
3010
0100
,
0001
1000
0100
0000
0010
0001
0100
0001
,
0010
2001
3010
0100
,
0001
1000
0100
0000
0010
0000
0110
0000
,
0100
1002
0103
0010
,
1000
0001
0010
0000
0100
1000
0010
0000
,
0100
2001
3100
0010
,
0001
1000
0010
0000
0100
0000
0110
0000
,
0010
1002
0013
0100
,
1000
0001
0100
0000
0010
1000
0100
1000
,
0020
0000
2030
0000
,
3002
0010
0103
0010
,
0200
0000
0302
0000
,
2003
0000
3100
0100
,
0020
0000
0032
0000
,
2003
0010
3100
0010
,
0200
0000
2300
0000
,
3002
0100
0103
0000
,
0010
1000
0100
1100
,
0010
0001
1002
0010
,
0013
0001
0100
0101
,
0010
1000
2001
0100
,
3100
1000
0010
1010
,
0100
0001
1002
0100
,
0103
0001
0010
0100
,
1001
0000
0000
0000
,
0120
2030
3200
0302
,
0203
0000
2300
0000
0001
0001
3001
0000
,
0020
0032
0203
2300
,
3200
0000
0302
0000
1000
1000
1003
0000
,
0120
2030
3200
0320
,
0032
0000
0203
0000
0310
1000
0100
0000
,
0020
0032
0203
0320
,
2030
0000
3200
0000
0310
0001
0100
0000
,
0010
0010
1000
1000
,
0100
0100
0001
0001
,
0100
0100
1000
1000
,
0010
0010
0001
0001
,
0110
0010
1000
0100
,
0110
0010
0001
0100
,
2010
3100
0012
0103
,
0110
1001
0110
2002
,
3003
0000
0000
0000
,
0000
0000
0000
0000
,
0000
0000
0000
0000
,
0000
0000
0000
0000
,
0010
0000
2010
0000
3100
0010
0001
0000
,
0010
0000
0012
0000
0103
0010
1000
0000
,
0100
0000
2100
0000
3010
0100
0001
0000
,
0100
0000
0102
0000
0013
0100
1000
0001
,
0100
0000
0210
0000
0301
1000
0100
0000
,
0010
0000
0120
0000
0031
0100
0010
1000
,
0100
0000
0210
0000
1300
0001
0100
0000
,
0010
0000
0120
0000
1030
0001
2002
0000
,
3003
0000
1100
0000
1000
0010
1000
0010
,
0100
0000
0101
0000
0001
0100
0001
0100
,
0010
0000
1010
0000
1000
0100
1000
0100
,
0010
0000
0011
0000
0001
0010
0001
0010
,
0100
0000
1100
0000
1000
0001
1000
0001
,
0100
0000
0101
0000
0001
1000
0001
1000
,
0010
0000
1010
0000
1000
0001
1000
0001
,
0010
0000
0100
0000
,
1000
0001
0100
0110
,
0001
1000
0100
0000
0010
0001
0100
0000
,
0001
1000
0100
0110
,
1000
0001
0100
0000
0010
1000
0100
0000
,
1000
0001
0010
0110
,
0001
1000
0010
0000
0100
0001
0010
0000
,
0001
1000
0010
0110
,
1000
0001
0010
0000
0100
1000
0020
0000
,
0130
0110
2010
3100
,
0110
0110
0012
0103
,
0110
0110
2010
3100
,
0110
0010
1001
0110
,
0010
1000
0100
0000
1100
0000
0011
0000
,
0010
0001
0100
0000
0101
0000
1010
0000
,
0010
1000
0002
0000
0013
0100
2000
0000
,
3010
1000
0001
0010
,
0100
0000
1000
0000
,
0001
0100
0001
0000
,
0010
0000
0001
0000
,
1000
0100
1000
0010
,
0100
0000
0001
0000
,
1000
0100
1000
0000
,
0010
0000
1000
0000
,
0001
1000
0020
0200
,
0330
0000
0000
0000
;

//--------------- dance-single - NAOKI ----------------
#NOTES:
     dance-single:
     NAOKI:
     Hard:
     14:
     0.814,0.852,0.461,0.491,0.099:
0000
0000
0000
0000
,
0000
0000
0000
0000
,
0000
0000
0000
0000
,
0000
0000
0000
0000
,
0010
0001
0100
0100
0010
1000
0100
0010
,
0001
0100
0010
0010
1000
0001
0100
0100
,
0010
1000
0100
0100
0010
0001
0100
0010
,
1000
0100
0010
0010
0001
1000
0100
0100
,
0010
0001
0100
1000
0100
0001
0010
0100
,
1000
0001
0100
0100
0010
1000
0001
0100
,
0010
1000
0100
0001
0100
1000
0010
0100
,
0001
1000
0100
0100
0010
0001
1000
0100
,
0010
0000
0000
0010
0001
0000
1000
0000
1010
0000
0000
0000
0201
0000
0000
0000
,
0310
0000
0000
0010
1000
0000
0001
0000
0011
0000
0000
0000
1200
0000
0000
0000
,
0310
0000
0000
0010
0001
0000
0100
0000
0010
0000
0000
0010
1000
0000
0100
0000
,
0010
0001
1000
2001
0000
0010
3010
0100
,
0001
0010
0100
1000
0010
0001
0010
1000
,
0100
0001
0100
1000
0020
0100
0130
0001
,
1000
0100
0010
0001
0100
1000
0100
0001
,
0010
1000
0010
0001
0200
0010
0310
1000
,
0001
0100
0010
1000
0100
0001
0100
1000
,
0010
0001
0010
1000
0200
0010
0310
0100
,
1000
0010
0100
0001
0010
1000
0010
0001
,
0200
0000
0000
0010
0000
0000
0310
0000
0000
0000
1000
0000
0000
0022
0000
0000
,
0033
0100
1000
0020
0001
0000
1030
0000
,
1010
0000
0000
1000
0001
0000
0020
0000
1000
0000
0000
0000
0031
0000
0000
0000
,
1100
0000
0000
1000
0001
0000
0200
0000
1000
0000
0000
0000
0301
0000
0000
0000
,
0100
0001
0010
0100
1000
0001
0100
0000
,
0101
0000
0000
0001
1000
0000
0200
0000
0001
0000
0000
0000
1300
0000
0000
0000
,
0011
0000
0000
0001
1000
0000
0020
0000
0001
0000
0000
0000
1030
0000
0000
0000
,
0101
0000
0001
0000
1000
0000
0100
0000
0010
0000
0001
1000
0001
0000
0000
0000
,
1100
1000
0001
0100
0020
0000
0200
0000
,
0330
0000
1001
0000
1000
0001
0101
0000
,
0100
0010
1000
0100
0010
0002
0100
0103
,
0010
1000
0001
0100
0010
1000
1100
0000
,
0100
0010
0001
0100
0010
2000
0100
3100
,
0010
0001
1000
0010
0100
0001
0011
0000
,
0010
0100
1000
0001
0100
0020
0100
0130
,
0010
1000
0001
0010
0100
1000
1010
0000
,
0010
0100
0001
1000
0100
0020
0100
0130
,
0010
0001
1000
0010
0100
0001
0101
0000
,
0100
0010
1000
0001
0010
0200
0010
0310
,
0100
1000
0001
0100
0010
1000
1100
0000
,
0100
0010
0001
1000
0010
0200
0010
0310
,
0100
0001
1000
0100
0010
0001
1001
0000
,
0010
0001
0100
1000
0100
0001
0010
0000
,
0100
1000
0001
0100
0010
1000
1001
0000
,
0010
1000
0100
0001
0100
1000
0010
0100
,
0002
2003
3200
0320
,
0031
0100
0100
0100
0010
1000
0100
0010
,
0002
0000
0203
0000
2300
0000
3100
0001
,
0010
1000
0010
0001
0100
0001
0010
0100
,
2000
3002
0203
0320
,
1030
0100
0100
0100
0010
0001
0100
0010
,
2000
0000
3200
0000
0302
0000
0103
1000
,
0010
0000
0000
0101
0000
0000
1100
0000
0000
0000
0000
0000
0000
0210
0000
0000
,
0310
0001
1000
0010
0100
0001
0010
0100
,
1000
1000
1000
1000
0010
0100
0010
1000
,
0001
0010
0100
0010
0001
1000
0010
0010
,
0001
0100
1000
0100
0001
0010
0010
1000
,
0001
0010
0100
0010
0001
1000
0010
0100
,
0001
0001
0001
0001
0010
0100
1000
0001
,
0100
0000
0010
0000
1000
0000
0100
0000
0010
0000
0001
1000
0001
0000
0000
0000
,
0110
0000
0000
0000
0000
0000
0000
0000
0000
0000
0000
0000
1000
0001
0010
0100
,
2000
3020
0230
0302
,
0023
2030
3002
0203
,
2300
3020
0230
0302
,
0023
0230
2300
3010
,
0120
1000
0230
1000
0302
0010
2003
0010
,
3200
0001
0320
0001
0130
1000
0001
0100
,
0210
0001
0320
0001
2030
0100
3002
0100
,
0023
1000
0230
1000
0310
0001
0110
0000
,
1000
1000
0001
0001
,
0100
0100
0010
0010
,
1000
1000
0100
0100
,
0001
0001
0010
0010
,
1000
0100
0010
0100
1000
0010
0100
0010
,
1000
0001
0010
0100
0010
0001
0100
0010
,
1010
0100
0001
0010
0011
0100
1000
0100
,
1100
0101
1010
0022
,
0033
0000
0000
0000
,
0000
0000
0000
0000
,
0000
0000
0000
0000
,
0000
0000
0000
0000
0000
0001
0100
0010
,
1000
0001
0010
1000
0010
0001
0100
1000
,
0100
0001
0010
0100
1000
0020
0100
0130
,
0001
1000
0100
0001
0100
1000
0010
0001
,
0010
0000
0100
0000
0001
1000
0001
0000
0010
0000
0200
0000
0010
0000
0310
0000
,
0001
1000
0010
0001
0010
1000
0100
0001
,
0100
1000
0010
0100
0001
0020
0100
0130
,
1000
0001
0100
1000
0100
0001
0010
1000
,
0010
0000
0100
0000
1000
0001
1000
0000
0010
0100
0010
0000
0200
0000
0000
0000
,
0310
0000
0000
1000
0001
0000
0100
0000
0110
0000
0000
0000
1010
0000
0000
0000
,
1100
0000
0000
0100
0010
0000
0001
0000
0101
0000
0000
0000
1001
0000
0000
0000
,
1010
0000
0000
1000
0100
0000
0010
0000
0011
0000
0000
0000
0101
0000
0000
0000
,
0110
0000
0000
0010
1000
0000
0001
0000
0012
0000
0000
0000
2003
0000
0000
0000
,
3010
0000
0000
0010
1000
0000
0100
0000
0110
0000
0000
0000
0011
0000
0000
0000
,
0101
0000
0000
0100
0010
0000
1000
0000
1100
0000
0000
0000
1001
0000
0000
0000
,
0011
0001
0100
0010
1010
0000
1100
0000
,
0220
0000
0000
0000
0330
0000
0010
0000
0001
0000
1000
0000
0010
0100
0010
0100
,
0010
1000
0001
0100
0010
1000
1100
0000
,
0100
0010
0001
0100
0010
2000
0100
3100
,
0010
0001
1000
0100
0010
0001
0101
0000
,
0100
0010
1000
0100
0010
0002
0100
0103
,
0010
1000
0001
0010
0100
1000
1010
0000
,
0010
0100
0001
1000
0100
0020
0100
0130
,
0010
0001
1000
0010
0100
0001
0011
0000
,
0010
0100
1000
0001
0100
0010
0120
0000
,
1030
0000
0000
1000
0001
0000
0010
0000
0110
0000
0000
0000
1100
0000
0000
0000
,
1010
0000
0000
0010
0100
0000
0001
0000
0011
0000
0000
0000
1001
0000
0000
0000
,
1100
0000
0000
1000
0010
0000
0100
0000
0101
0000
0000
0000
0011
0000
0000
0000
,
0110
0000
0000
0100
1000
0000
0001
0000
0102
0000
0000
0000
2003
0000
0000
0000
,
3100
0000
0000
0100
1000
0000
0010
0000
0110
0000
0000
0000
0101
0000
0000
0000
,
0011
0000
0000
0010
0100
0000
1000
0000
1010
0000
0000
0000
1001
0000
0000
0000
,
0101
0001
0010
0100
1100
0000
1010
0000
,
0220
0330
0000
0000
,
0001
0100
0010
0000
0010
1000
0100
0000
,
0100
1000
0010
0100
0001
0010
0100
1000
,
0001
0010
0100
0000
0100
1000
0010
0000
,
0010
1000
0100
0010
0001
0100
0100
0001
,
1000
0010
0100
0000
0100
0001
0010
0000
,
0010
0001
0100
0010
1000
0100
0010
0001
,
1000
0100
0010
0000
0010
0001
0100
0000
,
0100
0010
1000
0001
1000
0100
0010
0001
;

//--------------- dance-single - NAOKI ----------------
#NOTES:
     dance-single:
     NAOKI:
     Challenge:
     18:
     1,1,0.7,0.556,0.482:
0000
0000
0000
0000
,
0000
0000
0000
0000
,
0000
0000
0000
0000
,
0000
0000
0000
0000
,
0010
0000
0001
1000
0001
0000
0100
0000
0010
0000
1000
0000
0100
0000
0010
0000
,
0001
0100
0001
0100
0010
0000
1000
0000
0100
0000
0010
0000
0100
0000
1000
0000
,
0010
0000
1000
0001
1000
0000
0100
0000
0010
0000
0001
0000
0100
0000
0010
0000
,
0100
0000
0001
0000
0010
0100
1000
0001
0100
0000
0010
0000
1000
0000
0100
0000
,
0010
0000
0001
1000
0010
0000
0110
0000
0100
0000
0001
0000
0010
0000
0100
0000
,
1000
0010
1000
0010
0100
0000
0010
0000
1000
0000
0001
0000
0100
0000
0100
0000
,
0010
0000
1000
0001
0010
0000
0110
0000
0100
0000
1000
0000
0010
0000
0100
0000
,
0001
0000
1000
0000
0100
0010
0001
1000
0010
0000
0100
0001
1000
0000
0100
0000
,
0210
0000
0000
1300
0001
0000
0100
0000
0101
0000
0000
0000
1010
0000
0000
0000
,
0210
0000
0000
0301
1000
0000
0100
0000
1100
0000
0000
0000
0011
0000
0001
0000
,
0100
0010
1000
0001
0010
0100
1000
0001
0100
0010
1000
0100
0010
0001
0100
0010
,
1000
0100
0010
0002
0000
0100
0103
0010
,
1010
0000
1000
0001
0010
0000
0100
0000
2000
0000
0001
0000
3002
0000
0013
0000
,
0110
0000
0100
1000
0001
0000
0100
0000
0110
0000
0010
1000
0100
0000
0110
0000
,
0010
0000
0001
1000
0010
0000
0100
0000
0001
0000
0010
0000
1000
0000
0010
0000
,
0001
0000
0100
0000
0010
1000
0001
0010
0100
0000
0100
1000
0001
0000
0100
0000
,
0010
0000
1000
0001
0100
0000
0001
0000
0002
0000
1000
0000
2003
0000
3010
0000
,
0110
0000
0100
0001
1000
0000
0100
0000
0110
0000
0010
0001
0100
0000
0110
0000
,
0010
0000
1000
0001
0010
0000
0100
0000
1000
0000
0010
0000
0001
0000
0010
0000
,
1000
0000
0000
1100
0000
0000
0101
0000
0000
0000
0010
0000
0000
0220
0000
0000
,
0330
1000
0001
0010
0011
0000
1010
0000
,
0101
0000
0000
0001
0010
0000
0100
0000
1100
0000
0000
0000
0101
0000
0000
0000
,
1010
0000
0000
1000
0100
0000
0010
0000
0011
0000
0000
0000
1010
0000
0000
0000
,
0101
0100
0001
0011
0000
1010
1000
0100
,
1100
0000
0000
1000
0010
0000
0100
0000
0101
0000
0000
0000
1100
0000
0000
0000
,
0011
0000
0000
0001
0100
0000
0010
0000
1010
0000
0000
0000
0011
0000
0000
0000
,
1100
0000
0100
0000
1000
0000
0010
0000
0100
0000
0001
1000
0001
0000
0000
0000
,
0120
0000
0100
0000
0130
0000
0010
0000
1000
0100
1000
0001
0100
0001
0010
0100
,
1000
0000
0010
1000
0200
0000
0310
0000
0100
1000
0001
0000
0101
0000
0100
0000
,
0010
1000
0001
0010
0100
0000
1000
0000
0010
0000
0100
0000
0001
0000
0010
0000
,
0110
0000
0100
1000
0001
0000
0100
0000
0110
0000
0010
1000
0100
0000
0010
0000
,
0001
0000
1000
0000
0010
0100
0001
0100
0002
0000
0013
0100
2000
0000
3010
0000
,
0110
0000
0100
0001
1000
0000
0100
0000
0110
0000
0010
0001
1000
0000
0010
0000
,
0100
0001
1000
0100
0010
0000
0001
0000
0100
0000
0010
0000
1000
0000
0100
0000
,
0110
0000
0010
0001
1000
0000
0010
0000
0110
0000
0100
0001
1000
0000
0100
0000
,
0010
0000
0001
0000
0100
0010
1000
0010
2000
0000
0001
0000
3002
0000
0013
0000
,
0110
0000
0100
1000
0001
0000
0100
0000
0110
0000
0010
1000
0001
0000
0010
0000
,
0100
1000
0001
0100
0010
0000
1000
0000
0100
0000
0010
0000
0001
0000
0100
0000
,
0110
0000
0010
1000
0001
0000
0010
0000
0110
0000
0100
1000
0001
0000
0100
0000
,
0010
0000
1000
0000
0100
0010
0001
0010
0002
0000
0103
0010
2000
0000
3100
0000
,
0110
0000
0010
0001
1000
0000
0010
0000
0110
0000
0100
0001
1000
0000
0100
0000
,
0010
0001
1000
0010
0100
0000
0001
0000
0010
0000
0100
0000
1000
0000
0010
0000
,
0101
0000
0101
0000
1100
0000
1100
0000
0010
0000
0001
1000
0010
0000
0000
0000
,
0110
0000
0100
0000
0010
1000
0001
0010
0100
0000
1000
0000
0001
0000
0100
0000
,
0020
2030
3200
0320
0032
2003
0010
3010
,
0100
0001
0100
0001
1000
0100
1000
0100
0010
0000
0001
0000
1000
0000
0100
0000
,
0020
0032
0203
0320
2030
3002
0010
0013
,
0100
1000
0010
0001
1000
0100
0001
0010
,
0200
2300
3020
0230
0302
2003
0100
3100
,
0010
0001
1000
0010
0100
0001
1000
0100
0010
0000
0001
0000
1000
0000
0010
0000
,
0200
0302
0023
0230
2300
3020
0100
0130
,
0001
0000
0000
0101
0000
0000
1100
0000
0000
0000
0010
0000
0000
0220
0000
0000
,
0330
1000
0010
0010
0001
0100
0100
1000
,
0001
0100
0010
0100
0001
0100
0010
0100
0001
0000
0010
0000
0100
0000
1000
0000
,
0001
0010
0010
1000
0100
0100
0001
1000
,
0010
0100
0001
0010
0100
2000
0010
3010
,
1000
0100
0100
0001
0010
0010
1000
0001
,
1000
0010
0100
0010
1000
0010
0100
0010
1000
0000
0002
0000
0010
0000
0013
0000
,
0001
0000
0100
0000
0100
0000
1000
0000
0010
0000
0010
0001
1000
0000
0000
0000
,
0110
0000
0000
0000
0000
0000
0000
0000
0000
0000
0000
0000
0010
1000
0100
0010
,
0002
0203
0320
2030
,
3200
0302
2003
3020
,
0032
0203
0320
2030
,
3200
0320
0032
0103
,
0210
0001
0320
0001
2030
0100
3002
0100
,
0023
1000
0230
1000
0310
0001
1000
0010
,
0120
1000
0230
1000
0302
0010
2003
0010
,
3200
0001
0320
0001
0130
1000
0110
0000
,
0001
0001
1000
1000
,
0010
0010
0100
0100
,
0001
0001
0010
0010
,
1000
1000
0100
0100
,
0001
0010
0100
0010
0001
0100
0010
0100
,
1001
0010
0100
0010
1000
0100
0010
0100
,
1000
0010
0100
0010
1000
0001
0010
0100
0010
0001
1000
0001
0100
0010
0100
0001
,
1000
0100
0010
0001
1000
0010
0100
0001
0010
1000
0010
0001
0100
1000
0200
0001
,
0300
0010
0110
1001
,
1000
0000
0000
0000
0001
0000
0000
0000
1001
0000
0000
0000
0110
0000
0000
0100
,
0010
0100
0110
1001
,
0001
0010
0100
2000
0000
0010
3010
0100
,
0101
0000
0001
0000
1000
0000
0100
0000
0010
0000
0001
1000
0010
0000
0100
0000
,
0001
0010
1000
0010
0001
0100
1000
0100
,
0001
0010
0100
1000
0010
0010
0001
1000
,
0100
0000
0100
0000
0001
1000
0001
0000
0010
0000
1000
0000
0001
0000
0100
0000
,
1000
0000
1000
0000
0001
0000
0100
0000
0010
0000
1000
0001
0010
0000
0100
0000
,
1000
0010
0001
0010
1000
0100
0001
0100
,
1000
0010
0100
0001
0010
0010
1000
0001
,
0100
0000
0000
0000
0000
0000
0100
0000
0000
0000
0000
0000
1000
0000
0000
0001
0000
0000
0100
0000
0000
0000
0000
0000
0010
0000
0000
1000
0000
0000
0001
0000
0000
0000
0000
0000
1000
0000
0001
0000
1000
0000
0001
0000
1000
0000
0001
0000
,
2000
0000
0000
0000
0000
0000
0000
0000
0000
3001
0000
0000
0100
0000
0000
0000
0000
0000
0010
0000
0000
0000
0000
0000
1000
0000
0000
0000
0000
0000
0001
0000
0010
0000
0001
0000
1000
0000
0000
0000
0000
0000
0010
0000
0000
0000
0000
0000
,
0102
0000
0000
0013
0100
0000
1000
0000
1010
0000
0100
0000
1001
0000
0100
0000
,
2100
0000
0000
3010
0100
0000
0001
0000
0011
0000
0100
0000
1001
0000
0100
0000
,
0101
0000
0010
1000
0001
0010
0100
0000
1000
0000
0010
0000
0100
0000
0001
0000
,
0012
0000
0000
0000
0000
0000
0000
0000
0000
1003
0000
0000
0010
0000
0000
0000
0000
0000
0100
0000
0000
0000
0000
0000
0001
0000
0000
0000
0000
0000
1000
0000
0100
0000
1000
0000
0001
0000
0000
0000
0000
0000
0100
0000
0000
0000
0000
0000
,
2010
0000
0000
3100
0010
0000
0001
0000
0101
0000
0010
0000
1001
0000
0010
0000
,
0011
0000
0001
0000
0100
0000
0100
0000
0010
0000
1000
0001
1000
0000
0100
0000
,
0220
0000
0000
0000
0330
0000
0010
0000
0001
1000
0010
0100
0010
1000
0001
0010
,
0100
0000
1000
0001
0100
0000
0010
0000
1010
0000
0100
0001
0010
0000
0110
0000
,
0100
1000
0001
0100
0010
0000
1000
0000
0100
0000
0010
0000
0001
0000
0100
0000
,
0101
0000
0010
1000
0100
0000
0010
0000
0011
0000
0100
1000
0010
0000
0110
0000
,
0100
0000
0001
0000
0010
0100
1000
0001
0100
0000
0010
1000
0001
0000
0010
0000
,
0011
0000
0100
1000
0010
0000
0100
0000
0101
0000
0010
1000
0100
0000
0110
0000
,
0010
0001
1000
0010
0100
0000
0001
0000
0010
0000
0100
0000
1000
0000
0010
0000
,
1010
0000
0100
0001
0010
0000
0100
0000
1100
0000
0010
0001
0100
0000
0110
0000
,
0010
0000
0000
0000
0000
0000
0100
0000
0000
0000
0000
0000
0001
0000
0000
1000
0000
0000
0100
0000
0000
0000
0000
0000
0010
0000
0000
0001
0000
0000
1000
0000
0000
0000
0000
0000
0001
0000
1000
0000
0001
0000
1000
0000
0001
0000
1000
0000
,
0002
0000
0000
0103
0010
0000
1000
0000
1100
0000
0100
0000
1001
0000
0100
0000
,
2010
0000
0000
3100
0010
0000
0001
0000
0101
0000
0100
0000
1001
0000
0100
0000
,
0012
0000
0000
0103
0010
0000
1000
0000
1010
0000
0010
0000
1001
0000
0100
0000
,
0110
0000
0010
0000
0100
0001
0010
0000
1000
0000
0010
0001
0100
0000
0010
0000
,
2010
0000
0000
3100
0010
0000
0001
0000
0101
0000
0100
0000
1001
0000
0100
0000
,
0012
0000
0000
0103
0010
0000
1000
0000
1100
0000
0100
0000
1001
0000
0010
0000
,
0110
0000
0100
1000
0010
0000
0001
0000
0010
1000
0100
0000
0010
0000
0001
0000
,
2002
3003
0000
0000
,
1000
0100
0010
0100
1000
0010
0010
0100
,
1000
0010
0010
0100
1000
0020
0100
0130
,
0001
0100
0010
0100
0001
0010
0010
0100
,
0001
0010
0010
0100
0001
0020
0100
0130
,
1000
0010
0100
0010
1000
0100
0100
0010
,
1000
0100
0100
0010
1000
0200
0010
0310
,
0001
0010
0100
0010
0001
0100
0100
0010
,
0001
0100
0100
0010
0001
1000
0010
0100
;
