#TITLE:JOG HYBRID;
#SUBTITLE:;
#ARTIST:TOMOYUKI;
#TITLETRANSLIT:;
#SUBTITLETRANSLIT:;
#ARTISTTRANSLIT:;
#GENRE:;
#CREDIT:;
#MUSIC:JOG HYBRID.ogg;
#BANNER:JOG HYBRID-bn.png;
#BACKGROUND:JOG HYBRID-bg.png;
#CDTITLE:../eternal_tune-cdtitle.png;
#SAMPLESTART:27.753;
#SAMPLELENGTH:16.000;
#SELECTABLE:YES;
#OFFSET:-0.547;
#BPMS:0.000=141.000
,319.000=282.000
,320.000=141.000
;
#STOPS:319.000=0.027
,319.125=0.027
,319.250=0.027
,319.375=0.027
,319.500=0.027
,319.625=0.027
,319.750=0.027
,319.875=0.027
;
#BGCHANGES:;
#FGCHANGES:;

//--------------- dance-single - NAOKI ----------------
#NOTES:
     dance-single:
     NAOKI:
     Beginner:
     2:
     0.216,0.225,0,0.162,0:
0000
0000
0000
0000
,
0000
0000
0000
0000
,
2000
0000
3000
0000
,
0002
0000
0003
0000
,
0100
0000
0100
0000
,
0000
0010
0000
0000
0000
0010
0000
0000
,
2000
0000
3000
0000
,
0002
0000
0003
0000
,
0010
0000
0010
0000
,
0100
1000
0001
0100
,
0010
0000
0010
0000
,
1000
0001
1000
0000
,
0100
0000
0100
0000
,
0010
0001
1000
0010
,
0100
0100
0100
0100
,
0002
0000
1003
0000
,
2000
0000
0200
0000
,
0000
0000
0000
3000
0000
0000
0300
0000
,
0010
0000
0001
0000
,
1000
0000
0010
0100
,
0002
0000
0200
0000
,
0000
0000
0000
0003
0000
0000
0300
0000
,
0010
0000
1000
0000
,
0001
0000
0010
0100
,
2000
0000
0020
0000
,
0000
0000
0000
3000
0000
0000
0030
0000
,
0100
0000
0001
0000
,
1000
0000
0100
0010
,
0002
0000
0020
0000
,
0000
0000
0000
0003
0000
0000
0030
0000
,
0100
0000
1000
0000
,
0010
0010
0100
0100
,
0001
0000
1000
0000
,
0001
0000
0010
0100
,
1000
0000
0001
0000
,
1000
0000
0010
0100
,
0001
0000
1000
0000
,
0001
0000
0100
0010
,
1000
0000
0001
0000
,
1000
0000
0100
0010
,
0001
0000
1000
0000
,
0001
0000
0100
0010
,
1000
0000
0001
0000
,
1000
0000
0100
0010
,
0001
0000
1000
0000
,
0001
0000
0010
0100
,
1000
1000
0001
0001
,
0100
0010
0100
0000
,
0002
0000
0003
0000
,
0000
2000
0000
0000
,
3001
0000
0100
0000
,
0010
1000
0100
0010
,
0001
0000
0000
0000
,
0000
0002
0000
0000
,
1003
0000
0010
0000
,
0100
0001
0010
0100
,
1000
0000
1000
0010
,
0000
0010
0100
0000
,
0100
0000
0001
0010
,
0000
0010
0100
1000
,
0001
0000
0001
0100
,
0000
0100
0010
0000
,
1000
0001
1000
0001
,
0200
0000
0310
0000
,
1000
0100
0000
0100
,
0010
0002
0000
1003
,
0010
0100
0000
0100
,
0001
1000
0100
0010
,
0001
0100
0000
0100
,
0010
2000
0000
3001
,
0010
0100
0000
0100
,
1000
0001
0100
0010
,
1000
0010
0000
0010
,
0100
0002
0000
1003
,
0100
0010
0000
0010
,
0001
1000
0010
0100
,
0001
0010
0000
0010
,
0100
2000
0000
3001
,
0100
0010
0000
0010
,
1000
0001
0010
0100
,
2000
0000
3001
0000
,
0002
0000
1003
0000
,
0200
0000
0310
0000
,
0100
0000
0001
0000
;

//--------------- dance-single - NAOKI ----------------
#NOTES:
     dance-single:
     NAOKI:
     Easy:
     7:
     0.372,0.451,0.439,0.331,0:
0000
0000
0000
0000
,
0000
0000
0000
0000
,
2000
0000
3000
0000
,
0002
0000
0003
0000
,
0200
0010
0310
0000
,
0000
0100
0000
0001
0000
1000
0000
0100
,
0020
0100
0130
0000
,
0200
0000
0300
1001
,
0220
0330
0010
0100
,
0000
0001
0010
0100
,
2000
3001
0100
0110
,
0002
1003
0100
0110
,
0010
0001
1000
0010
,
0000
0010
0100
0001
,
1000
1000
0001
0001
,
0100
0010
0110
0000
,
2000
0200
3000
0001
,
0000
0001
1300
0001
,
0100
0010
1000
0100
,
0010
0001
0101
1100
,
0002
0200
0003
1000
,
0000
1000
0301
1000
,
0100
0010
0001
0100
,
0010
1000
1100
0101
,
2000
0020
3000
0001
,
0000
0001
1030
0001
,
0010
0100
1000
0010
,
0100
0001
0011
1010
,
0002
0020
0003
1000
,
0000
1000
0031
1000
,
0010
0100
0001
0010
,
0100
1000
1010
0011
,
0001
0100
0010
1000
,
0100
0100
0010
0001
,
2020
3030
1001
0010
,
0022
0033
1001
0100
,
1000
0010
0100
0001
,
0010
0010
0100
1000
,
0202
0303
1001
0100
,
2200
3300
1001
0010
,
0001
0010
0100
1000
,
0010
0010
0100
0001
,
2200
3300
1001
0100
,
0202
0303
1001
0010
,
1000
0100
0010
0001
,
0100
0100
0010
1000
,
0011
1100
0011
1010
,
0100
0001
0010
0000
,
0220
0330
0000
0000
,
0000
2000
3001
0100
,
0010
0000
0110
0000
,
0100
0001
1000
0100
,
0010
0000
0000
0000
,
0000
0002
1003
0010
,
0100
0000
0110
0000
,
0010
1000
0001
0010
,
0100
0000
1000
0001
,
0000
0001
0100
0010
,
1000
0000
1000
0001
,
0000
0001
0010
0100
,
1000
0000
0001
1000
,
0000
1000
0010
0100
,
0001
0001
1000
1000
,
0010
0100
0110
0000
,
1010
0012
0103
0110
,
1001
0200
0001
1300
,
0010
0110
2001
0100
,
3001
1001
0120
0130
,
0011
2010
3100
0110
,
1001
0200
1000
0301
,
0010
0110
1002
0100
,
1003
1001
0210
0310
,
1100
0102
0013
0110
,
1001
0020
0001
1030
,
0100
0110
2001
0010
,
3001
1001
0210
0310
,
0101
2100
3010
0110
,
1001
0020
1000
0031
,
0100
0110
1002
0010
,
1003
1001
0120
0130
,
0001
0000
0001
0000
,
1000
0000
1000
0000
,
0010
0000
0010
0000
,
0100
0000
0100
0000
;

//--------------- dance-single - NAOKI ----------------
#NOTES:
     dance-single:
     NAOKI:
     Medium:
     12:
     0.501,0.509,0.176,0.317,0:
0000
0000
0000
0000
,
0000
0000
0000
0000
,
2000
0000
3000
0000
,
0002
0000
0003
0000
,
0200
0000
0310
0000
0100
0010
0000
0000
,
0000
0100
0000
0001
0000
1000
0000
0100
,
0020
0000
0130
0000
0010
0100
0000
0000
,
0010
0001
1000
0220
,
0330
0000
0010
1000
0100
0000
0010
0000
,
0000
0100
1000
0000
0001
0000
0100
0000
,
0010
0000
0000
0100
0001
0000
0010
0000
,
0100
1000
0001
0100
0010
0000
0110
0000
,
1001
0000
0100
0001
0010
0000
0100
0000
,
0000
0010
0001
0000
0100
0000
0010
0000
,
1010
0101
1100
0011
,
0010
0100
1000
0001
0100
0000
0000
0000
,
0010
1000
0200
0000
0001
0000
1000
0000
,
0001
0000
1300
0010
0100
0001
0010
0100
,
2000
0000
3002
0000
0103
0000
0010
1000
,
0100
0000
0010
0001
0200
0000
0320
0000
,
0130
0001
0020
0000
1000
0000
0001
0000
,
1000
0000
0031
0100
0010
1000
0100
0010
,
0002
0000
2003
0000
3010
0000
0100
0001
,
0010
0000
0100
1000
0010
0000
1001
0000
,
0010
0001
0200
0000
1000
0000
0001
0000
,
1000
0000
0301
0010
0100
1000
0010
0100
,
0002
0000
2003
0000
3100
0000
0010
0001
,
0100
0000
0010
1000
0200
0000
0320
0000
,
0130
1000
0020
0000
0001
0000
1000
0000
,
0001
0000
1030
0100
0010
0001
0100
0010
,
2000
0000
3002
0000
0013
0000
0100
1000
,
0010
0000
0100
0001
0010
0100
1000
0000
,
0001
0100
0010
0010
1000
0000
0001
0000
,
1000
0100
0010
0010
0001
0000
0100
0000
,
0010
1000
0100
0010
0010
0000
0100
0000
,
1000
0001
0100
0010
0010
0000
0100
0001
,
1000
0100
0010
0010
0001
0000
1000
0000
,
0001
0100
0010
0010
1000
0000
0100
0000
,
0010
0001
0100
0010
0010
0000
0100
0000
,
0001
1000
0100
0010
0010
0000
0100
1000
,
0001
0010
0100
0100
1000
0000
0001
0000
,
1000
0010
0100
0100
0001
0000
0010
0000
,
0100
1000
0010
0100
0100
0000
0010
0000
,
1000
0001
0010
0100
0100
0000
0010
0001
,
1000
0010
0100
0100
0001
0000
1000
0000
,
0001
0010
0100
0100
1000
0000
0010
0000
,
0100
0001
0010
0010
1000
0100
0010
0010
,
1000
0001
0010
0100
1000
0000
0000
0000
,
0002
0003
0000
0000
,
0000
0001
2000
0000
3010
0100
0000
0100
,
0001
0000
0220
0330
,
1000
0100
1000
0001
0100
0001
0010
0100
,
2000
3000
0000
0000
,
0000
1000
0002
0000
0013
0100
0000
0100
,
1000
0000
0220
0330
,
0001
0100
0001
1000
0100
1000
0010
0100
,
0002
0000
1003
0100
0110
0000
1001
0000
,
0100
0010
2000
0000
3100
0010
0001
0100
,
0010
0000
0000
1000
0200
0000
0310
0000
,
0001
0100
1000
0100
0001
0010
0100
1000
,
0002
0000
1003
0010
0110
0000
1001
0000
,
0010
0100
2000
0000
3010
0100
0001
0010
,
0100
1000
0010
0010
0001
0100
0010
0010
,
0001
1000
0010
0100
0001
0000
0000
0000
,
1100
0000
0102
0000
0013
0100
1000
0010
,
0200
0000
0301
1000
0100
0010
0001
1000
,
0010
0000
0110
0000
0100
0001
0020
0000
,
0130
0000
0000
1000
0000
0000
0001
0000
0000
0100
0000
0000
0010
0000
1000
0000
0010
0000
2000
0000
0000
3000
0000
0000
,
0011
0000
2010
0000
3100
0010
0001
0100
,
0020
0000
1030
0001
0010
0100
1000
0001
,
0100
0000
0110
0000
0010
1000
0200
0000
,
0310
0000
0000
0001
0000
0000
1000
0000
0000
0010
0000
0000
0100
0000
0010
0000
0100
0000
0020
0000
0000
0030
0000
0000
,
0101
0000
2100
0000
3010
0100
0001
0010
,
0200
0000
1300
0001
0100
0010
1000
0001
,
0010
0000
0110
0000
0100
1000
0020
0000
,
0130
0000
0000
0001
0000
0000
1000
0000
0000
0100
0000
0000
0010
0000
0001
0000
0010
0000
0002
0000
0000
0003
0000
0000
,
1010
0000
0012
0000
0103
0010
1000
0100
,
0020
0000
0031
1000
0010
0100
0001
1000
,
0100
0000
0110
0000
0010
0001
0200
0000
,
0310
0000
0000
1000
0000
0000
0001
0000
0000
0010
0000
0000
0100
0000
1000
0000
0100
0000
2000
0000
0000
0000
0000
0000
,
3001
0000
0100
0010
0000
1000
0001
0000
,
1000
0100
0010
0000
0001
0100
0010
0000
,
0010
1000
0000
1000
0001
0010
0100
0000
,
1000
0010
0100
0000
0001
0100
0010
0000
;

//--------------- dance-single - NAOKI ----------------
#NOTES:
     dance-single:
     NAOKI:
     Hard:
     16:
     0.846,1,0.52,0.52,0.604:
0000
0000
0000
0000
,
0000
0000
0000
0000
,
2000
0000
3000
0000
,
0002
0000
0003
0000
,
0200
0010
0310
1000
0100
0100
0000
0000
,
0000
0010
0001
1000
0010
0100
0001
1000
,
0200
0010
0310
0001
0100
0100
0000
0000
,
0010
1000
0010
0100
0001
1000
0010
0100
0010
1000
0001
0100
0020
0000
0030
0000
,
2000
0010
3010
0100
1001
0100
0110
0000
,
0000
1000
0100
0010
0001
1000
0010
0100
,
0002
0010
0013
0100
1001
0100
0110
0000
,
0010
1000
0001
0010
0110
0000
0100
0010
,
0002
0100
0103
0010
1001
0010
0110
0000
,
0000
0001
0010
0100
1000
0001
0100
0010
,
1000
1000
0100
0100
0010
0010
0001
0001
,
0100
0000
0000
0010
0000
0000
1000
0000
0000
0001
0000
0000
0010
0000
0000
0100
0000
0000
1000
0000
0001
0000
1000
0000
0001
0000
0000
0000
0000
0000
0000
0000
0000
0000
0000
0000
0000
0000
0000
0000
0000
0000
0000
0000
0000
0000
0000
0000
,
2001
0000
0000
3010
0000
0000
0200
0000
0000
0301
0000
0000
1000
0010
1000
0010
1000
0010
1000
0010
1000
0010
1000
0010
,
1000
0010
1000
0010
1000
0010
1000
0010
1000
0002
0000
0000
1003
0000
0000
0010
0000
0000
0200
0000
0000
0302
0000
0000
,
0023
0000
0000
0130
0000
0000
1002
0000
0000
0103
0000
0000
0010
1000
0000
0010
1000
0000
0100
0000
0010
0000
0001
0000
,
1000
0100
0000
1000
0100
0000
0010
0000
0001
0000
1000
0000
0020
0000
0000
0130
0000
0000
2010
0000
0000
3001
0000
0000
,
1002
0000
0000
0013
0000
0000
0200
0000
0000
1300
0000
0000
0001
0010
0001
0010
0001
0010
0001
0010
0001
0010
0001
0010
,
0001
0010
0001
0010
0001
0010
0001
0010
0001
2000
0000
0000
3001
0000
0000
0010
0000
0000
0200
0000
0000
2300
0000
0000
,
3020
0000
0000
0130
0000
0000
2001
0000
0000
3100
0000
0000
0010
0001
0000
0010
0001
0000
0100
0000
0010
0000
1000
0000
,
0001
0100
0000
0001
0100
0000
0010
0000
1000
0000
0001
0000
0020
0000
0000
0130
0000
0000
0010
0000
0001
0000
0100
0000
,
2001
0000
0000
3100
0000
0000
0020
0000
0000
0031
0000
0000
1000
0100
1000
0100
1000
0100
1000
0100
1000
0100
1000
0100
,
1000
0100
1000
0100
1000
0100
1000
0100
1000
0002
0000
0000
1003
0000
0000
0010
0000
0000
0100
0000
0000
0001
0000
0000
,
2000
0000
0000
3010
0000
0000
1002
0000
0000
0013
0000
0000
0100
1000
0000
0100
1000
0000
0010
0000
0100
0000
0001
0000
,
1000
0010
0000
1000
0010
0000
0100
0000
0001
0000
1000
0000
0200
0000
0000
0310
0000
0000
2100
0000
0000
3001
0000
0000
,
1002
0000
0000
0103
0000
0000
0020
0000
0000
1030
0000
0000
0001
0100
0001
0100
0001
0100
0001
0100
0001
0100
0001
0100
,
0001
0100
0001
0100
0001
0100
0001
0100
0001
2000
0000
0000
3001
0000
0000
0010
0000
0000
0100
0000
0000
1000
0000
0000
,
0002
0000
0000
0013
0000
0000
2001
0000
0000
3010
0000
0000
0100
0001
0000
0100
0001
0000
0010
0000
0100
0000
1000
0000
,
0001
0000
0010
0000
0000
0000
0001
0000
0010
0000
0000
0000
0100
0000
0000
0000
1000
0000
0000
0000
0001
0000
0000
0000
0200
0000
0000
0000
0000
0000
0310
0000
0000
1000
0000
0000
0100
0000
0000
0010
0000
0000
0001
0000
0000
0000
0000
0000
,
1001
1000
0010
0100
1001
0010
0110
0000
,
0100
0001
0010
0100
1001
0100
0110
0010
,
1002
0000
0013
0100
1100
0010
0011
0000
,
2000
0010
3010
0100
0101
0010
1010
0100
,
0002
0010
0013
0100
1001
0100
0110
0000
,
0010
1000
0100
0010
1001
0010
0110
0100
,
2001
0000
3100
0010
0011
0100
1100
0000
,
0002
0100
0103
0010
1010
0100
0101
0010
,
2000
0100
3100
0010
1001
0010
0110
0000
,
0001
1000
0001
0000
0100
0000
0010
0000
1001
0000
0010
0000
0110
0000
0100
0000
,
1002
0000
0103
0010
1010
0100
0101
0000
,
2000
0100
3100
0010
0011
0100
1100
0010
,
0002
0100
0103
0010
1001
0010
0110
0000
,
1000
0010
1010
0000
0001
0010
0011
0000
,
1000
1000
0010
0010
0100
0100
0001
0001
,
0010
0000
0000
0100
0000
0000
1000
0000
0000
0001
0000
0000
0100
0000
0000
0010
0000
0000
1000
0000
0001
0000
1000
0000
0001
0000
0000
0000
0000
0000
0000
0000
0000
0000
0000
0000
0000
0000
0000
0000
0000
0000
0000
0000
0000
0000
0000
0000
,
0220
0330
0000
0000
,
0000
0010
0002
0100
0103
0010
1000
0100
,
0010
0000
2200
3300
,
1000
0010
0100
0001
0020
0100
0130
1000
,
0001
0100
0000
0000
0000
0000
0000
0000
,
0000
0010
2000
0100
3100
0010
0001
0100
,
0010
0000
0202
0303
,
0001
0010
0100
1000
0020
0100
0130
0001
,
1000
0100
0000
0010
0001
0000
0101
0000
,
1010
1000
0200
0000
0310
0001
0100
0010
,
1000
0100
0001
0100
2000
0010
3010
0000
,
1000
0100
0010
0001
0200
0010
0310
1000
,
0001
0010
0000
0100
1000
0000
1010
0000
,
0101
0001
0020
0000
0130
1000
0010
0100
,
0001
0001
0010
0010
0100
0100
1000
1000
,
0010
0000
0000
0100
0000
0000
0001
0000
0000
1000
0000
0000
0100
0000
0000
0010
0000
0000
0001
0000
1000
0000
0001
0000
1000
0000
0000
0000
0000
0000
0000
0000
0000
0000
0000
0000
0000
0000
0000
0000
0000
0000
0000
0000
0000
0000
0000
0000
,
2002
0000
3003
0000
0110
0000
0010
1000
0100
0000
1000
0001
0010
0000
0110
0000
,
0100
0000
0000
0000
1000
0000
0000
0000
0001
0000
0000
0000
0100
0000
0000
0010
0000
0000
0100
0000
0000
0010
0000
0000
1000
0000
0000
0001
0000
0000
0010
0000
0000
0100
0000
0000
1000
0000
0000
0001
0000
0000
0100
0000
0000
0010
0000
0000
,
1000
0000
0000
0100
0000
0000
0220
0000
0000
0330
0000
0000
0010
0000
0000
0001
1000
0001
2000
0000
0000
3010
0000
0000
,
0110
0000
0000
0000
0000
0000
0100
0000
0000
0001
0000
0000
0000
0000
0000
1000
0000
0000
0100
0000
0000
0000
0000
0000
1100
0000
0000
0000
1000
0000
0000
0000
0001
0000
0000
0000
0102
0000
0000
0000
0000
0000
0100
0000
0000
0000
0000
0000
,
1003
0000
0100
0000
0110
0000
0010
0001
0100
0000
0001
1000
0010
0000
0110
0000
,
0100
0000
0000
0000
0001
0000
0000
0000
1000
0000
0000
0000
0100
0000
0000
0010
0000
0000
0100
0000
0000
0010
0000
0000
0001
0000
0000
1000
0000
0000
0010
0000
0000
0100
0000
0000
0001
0000
0000
1000
0000
0000
0100
0000
0000
0010
0000
0000
,
0001
0000
0000
0100
0000
0000
0220
0000
0000
0330
0000
0000
0010
0000
0000
1000
0001
1000
0002
0000
0000
0013
0000
0000
,
0110
0000
0000
0000
0000
0000
0100
0000
0000
1000
0000
0000
0000
0000
0000
0001
0000
0000
0100
0000
0000
0000
0000
0000
0101
0000
0000
0000
0001
0000
0000
0000
1000
0000
0000
0000
2010
0000
0000
0000
0000
0000
0010
0000
0000
0000
0000
0000
,
3001
0000
0010
0000
0110
0000
0100
1000
0010
0000
1000
0001
0100
0000
0110
0000
,
0010
0000
0000
0000
1000
0000
0000
0000
0001
0000
0000
0000
0010
0000
0000
0100
0000
0000
0010
0000
0000
0100
0000
0000
1000
0000
0000
0001
0000
0000
0100
0000
0000
0010
0000
0000
1000
0000
0000
0001
0000
0000
0010
0000
0000
0100
0000
0000
,
1000
0000
0000
0010
0000
0000
0220
0000
0000
0330
0000
0000
0100
0000
0000
0001
1000
0001
2000
0000
0000
3100
0000
0000
,
0110
0000
0000
0000
0000
0000
0010
0000
0000
0001
0000
0000
0000
0000
0000
1000
0000
0000
0010
0000
0000
0000
0000
0000
1010
0000
0000
0000
1000
0000
0000
0000
0001
0000
0000
0000
0102
0000
0000
0000
0000
0000
0100
0000
0000
0000
0000
0000
,
1003
0000
0100
1000
0010
0000
1010
0000
0100
0001
0010
0000
0011
0000
1200
0000
,
0310
0000
0000
0000
0001
0000
0000
0000
1000
0000
0000
0000
0010
0000
0000
0100
0000
0000
0010
0000
0000
0100
0000
0000
0001
0000
0000
1000
0000
0000
0100
0000
0000
0010
0000
0000
0001
0000
0000
1000
0000
0000
0010
0000
0000
0100
0000
0000
,
0001
0000
0000
0010
0000
0000
0220
0000
0000
0330
0000
0000
0100
0000
0000
1000
0001
1000
0002
0000
0000
0103
0000
0000
,
0010
0000
0000
0100
0000
0000
0001
0000
0000
0100
0000
0000
0010
0000
0000
1000
0000
0000
0001
0000
0000
0010
0000
0000
0100
0000
0000
0000
1000
0000
0000
0000
0001
0000
0000
0000
0200
0000
0000
0000
0000
0000
0000
0000
0000
0000
0000
0000
,
0310
1000
0001
0010
0000
0010
0100
0000
,
0100
1000
0010
0000
0100
0001
0010
0000
,
0100
1000
0001
0100
0000
0010
1000
0001
,
0010
0100
1000
0000
0001
0100
0110
0000
;

//--------------- dance-single - NAOKI ----------------
#NOTES:
     dance-single:
     NAOKI:
     Challenge:
     17:
     0.905,1,0.567,0.594,0.753:
0000
0000
0000
0000
,
0000
0000
0000
0000
,
2000
0000
3000
0000
,
0002
0000
0003
0000
,
0200
0010
0310
1000
0100
0100
0000
0000
,
0000
0010
0001
1000
0010
0100
0001
1000
,
0200
0010
0310
0001
0100
0100
0000
0000
,
0010
1000
0001
0010
0001
1000
0010
0100
0010
1000
0001
0100
0220
0000
0330
0000
,
0002
0010
0013
0100
1001
0100
0110
0000
,
0000
0001
0100
0010
1000
0001
0010
0100
,
2000
0010
3010
0100
1001
0100
0110
0000
,
0010
0001
1000
0010
0110
0000
0100
0001
,
2000
0100
3100
0010
1001
0010
0110
0000
,
0000
1000
0010
0100
0001
1000
0100
0010
,
0011
0001
1010
1000
0101
0001
1100
1000
,
0010
0000
0000
0100
0000
0000
0001
0000
0000
1000
0000
0000
0100
0000
0010
0000
0001
0000
1000
0000
0001
0000
0100
0000
0010
0000
0000
0000
0000
0000
0000
0000
0000
0000
0000
0000
0000
0000
0000
0000
0000
0000
0000
0000
0000
0000
0000
0000
,
2001
0000
0000
3010
0000
0000
0200
0000
0000
0301
0000
0000
1000
0100
0010
0001
1000
0010
0100
0001
1000
0100
1000
0001
,
0100
0000
0010
0000
1000
0000
0001
0000
0010
0000
0100
0000
1000
0000
0001
0000
0100
0000
0040
0030
0100
0000
0001
0000
1000
0000
0100
0000
0010
0000
0001
0000
0100
0000
0010
0000
2000
0000
0000
0000
0000
0000
3002
0000
0000
0000
0000
0000
,
0023
0000
0000
0130
0000
0000
1002
0000
0000
0103
0000
0000
0010
1000
0000
0010
1000
0000
0100
0000
0010
0000
0001
0000
,
1000
0100
0000
1000
0100
0000
0010
0000
0001
0000
1000
0000
0020
0000
0000
0130
0000
0000
2010
0000
0000
3001
0000
0000
,
1002
0000
0000
0013
0000
0000
0200
0000
0000
1300
0000
0000
0001
0100
0010
1000
0001
0010
0100
1000
0001
0100
0001
1000
,
0100
0000
0010
0000
0001
0000
1000
0000
0010
0000
0100
0000
0001
0000
1000
0000
0100
0000
0040
0030
0100
0000
1000
0000
0001
0000
0100
0000
0010
0000
1000
0000
0100
0000
0010
0000
0002
0000
0000
0000
0000
0000
2003
0000
0000
0000
0000
0000
,
3020
0000
0000
0130
0000
0000
2001
0000
0000
3100
0000
0000
0010
0001
0000
0010
0001
0000
1000
0000
0010
0000
1000
0000
,
0001
0100
0000
0001
0100
0000
0010
0000
1000
0000
0001
0000
0020
0000
0000
0130
0000
0000
0010
0000
0001
0000
0100
0000
,
2001
0000
0000
3100
0000
0000
0020
0000
0000
0031
0000
0000
1000
0010
0100
0001
1000
0100
0010
0001
1000
0010
1000
0001
,
0010
0000
0100
0000
1000
0000
0001
0000
0100
0000
0010
0000
1000
0000
0001
0000
0010
0000
0400
0300
0010
0000
0001
0000
1000
0000
0010
0000
0100
0000
0001
0000
0100
0000
0010
0000
2000
0000
0000
0000
0000
0000
3002
0000
0000
0000
0000
0000
,
0203
0000
0000
0310
0000
0000
1002
0000
0000
0013
0000
0000
0100
1000
0000
0100
1000
0000
0001
0000
0100
0000
0001
0000
,
1000
0010
0000
1000
0010
0000
0100
0000
0001
0000
1000
0000
0200
0000
0000
0310
0000
0000
2100
0000
0000
3001
0000
0000
,
1002
0000
0000
0103
0000
0000
0020
0000
0000
1030
0000
0000
0001
0010
0100
1000
0001
0100
0010
1000
0001
0010
0001
1000
,
0010
0000
0100
0000
0001
0000
1000
0000
0100
0000
0010
0000
0001
0000
1000
0000
0010
0000
0400
0300
0010
0000
1000
0000
0001
0000
0010
0000
0100
0000
1000
0000
0010
0000
0100
0000
0002
0000
0000
0000
0000
0000
2003
0000
0000
0000
0000
0000
,
3200
0000
0000
0310
0000
0000
2001
0000
0000
3010
0000
0000
0100
0001
0000
0100
0001
0000
1000
0000
0100
0000
1000
0000
,
0001
0000
0010
0000
0000
0000
0001
0000
0010
0000
0000
0000
0100
0000
0000
0000
1000
0000
0000
0000
0001
0000
0000
0000
0200
0000
0000
0000
0000
0000
0310
0000
0000
1000
0000
0000
0001
0000
0010
0000
0100
0000
1000
0000
0001
0000
0100
0000
,
0010
1000
0100
0010
1001
0010
0110
0000
,
0100
0001
0010
0100
1001
0100
0110
0010
,
1002
0000
0013
0100
1100
0010
0011
0000
,
2000
0010
3010
0100
0101
0010
1010
0100
,
0002
0010
0013
0100
1001
0100
0110
0000
,
0010
1000
0100
0010
1001
0010
0110
0100
,
2001
0000
3100
0010
0011
0100
1100
0000
,
0002
0100
0103
0010
1010
0100
0101
0010
,
2000
0000
0001
0000
3001
0000
0010
0000
0100
1000
0001
0100
0010
0000
0000
0000
,
1000
0001
1000
0000
0100
0000
0010
0000
1001
0000
0010
0000
0110
0000
0100
0000
,
1002
0000
0103
0010
1010
0100
0101
0000
,
2000
0100
3100
0010
0011
0100
1100
0010
,
0002
0000
1000
0000
1003
0000
0010
0000
0100
0001
1000
0100
0010
0000
0000
0000
,
0001
1000
0001
0000
0100
0000
0000
0000
1001
0000
0001
0000
0100
0000
0010
0000
,
1010
1000
0011
0001
1100
1000
0101
0001
,
0100
0000
0000
0010
0000
0000
1000
0000
0000
0001
0000
0000
0010
0000
0100
0000
1000
0000
0001
0000
1000
0000
0010
0000
0100
0000
0000
0000
0000
0000
0000
0000
0000
0000
0000
0000
0000
0000
0000
0000
0000
0000
0000
0000
0000
0000
0000
0000
,
0220
0330
0000
0000
,
0000
0010
2000
0100
3100
0010
0001
0100
,
1000
0000
0202
0303
,
0001
0010
0100
1000
0020
0100
0130
0001
,
1000
0100
0000
0000
0000
0000
0000
0000
,
0000
0010
0002
0100
0103
0010
1000
0100
,
0001
0000
2200
3300
,
1000
0010
0100
0001
0020
0100
0130
1000
,
0001
0100
0000
0010
1000
0100
0010
0000
,
0001
1000
0001
0000
0200
0000
0000
0000
0310
0000
1000
0000
0100
0000
0010
0000
,
0001
0100
1000
0100
0002
0010
0013
0000
,
0001
0100
0010
1000
0200
0010
0310
0001
,
1000
0010
0000
0100
0001
0010
0100
0000
,
1000
0001
1000
0000
0020
0000
0000
0000
0130
0000
0001
0000
0010
0000
0100
0000
,
1100
1000
0101
0001
1010
1000
0011
0001
,
0010
0000
0000
0100
0000
0000
1000
0000
0000
0001
0000
0000
0100
0000
0010
0000
1000
0000
0001
0000
1000
0000
0100
0000
0010
0000
0000
0000
0000
0000
0000
0000
0000
0000
0000
0000
0000
0000
0000
0000
0000
0000
0000
0000
0000
0000
0000
0000
,
2002
0000
3003
0000
0210
0000
0310
1000
0100
0000
1000
0001
0010
0000
0110
0000
,
0100
0000
0000
0000
1000
0000
0000
0000
0001
0000
0000
0000
0100
0000
0000
0010
0000
0000
0001
0000
0000
0010
0000
0000
0100
0000
0000
0001
0000
0000
1000
0000
0000
0100
0000
0000
0010
0000
0000
1000
0000
0000
0010
0000
0000
0100
0000
0000
,
1000
0000
0000
0100
0000
0000
0220
0000
0000
0330
0000
0000
0010
0100
1000
0001
1000
0010
0200
0000
0000
0310
0000
0000
,
0110
0000
0000
0000
0000
0000
0100
0000
0000
0001
0000
0000
0000
0000
0000
1000
0000
0000
0100
0000
0000
0000
0000
0000
1100
0000
0000
0000
1000
0000
0000
0000
0001
0000
0000
0000
0102
0000
0000
0000
0000
0000
0100
0000
0000
0000
0000
0000
,
1003
0000
0100
0000
0210
0000
0310
0001
0100
0000
0001
1000
0010
0000
0110
0000
,
0100
0000
0000
0000
0001
0000
0000
0000
1000
0000
0000
0000
0100
0000
0000
0010
0000
0000
1000
0000
0000
0010
0000
0000
0100
0000
0000
1000
0000
0000
0001
0000
0000
0100
0000
0000
0010
0000
0000
0001
0000
0000
0010
0000
0000
0100
0000
0000
,
0001
0000
0000
0100
0000
0000
0220
0000
0000
0330
0000
0000
0010
0100
0001
1000
0001
0010
0200
0000
0000
0310
0000
0000
,
0110
0000
0000
0000
0000
0000
0100
0000
0000
1000
0000
0000
0000
0000
0000
0001
0000
0000
0100
0000
0000
0000
0000
0000
0101
0000
0000
0000
0001
0000
0000
0000
1000
0000
0000
0000
2100
0000
0000
0000
0000
0000
0100
0000
0000
0000
0000
0000
,
3001
0000
0010
0000
0120
0000
0130
1000
0010
0000
1000
0001
0100
0000
0110
0000
,
0010
0000
0000
0000
1000
0000
0000
0000
0001
0000
0000
0000
0010
0000
0000
0100
0000
0000
0001
0000
0000
0100
0000
0000
0010
0000
0000
0001
0000
0000
1000
0000
0000
0010
0000
0000
0100
0000
0000
1000
0000
0000
0100
0000
0000
0010
0000
0000
,
1000
0000
0000
0010
0000
0000
0220
0000
0000
0330
0000
0000
0100
0010
1000
0001
1000
0100
0020
0000
0000
0130
0000
0000
,
0110
0000
0000
0000
0000
0000
0010
0000
0000
0001
0000
0000
0000
0000
0000
1000
0000
0000
0010
0000
0000
0000
0000
0000
1010
0000
0000
0000
1000
0000
0000
0000
0001
0000
0000
0000
0012
0000
0000
0000
0000
0000
0010
0000
0000
0000
0000
0000
,
1003
0000
0100
1000
0010
0000
1010
0000
0100
0001
0010
0000
0011
0000
1200
0000
,
0310
0000
0000
0000
0001
0000
0000
0000
1000
0000
0000
0000
0010
0000
0000
0100
0000
0000
1000
0000
0000
0100
0000
0000
0010
0000
0000
1000
0000
0000
0001
0000
0000
0010
0000
0000
0100
0000
0000
0001
0000
0000
0100
0000
0000
0010
0000
0000
,
0001
0000
0010
0000
0220
0000
0330
0000
0100
1000
0001
0100
0020
0000
0130
0000
,
0010
0000
0000
1000
0000
0000
0001
0000
0000
0010
0000
0000
0100
0000
0000
0010
0000
0000
0001
0000
0000
1000
0000
0000
0010
0000
0000
0000
0010
0000
0000
0000
0100
0000
0000
0000
0210
0000
0000
0000
0000
0000
0000
0000
0000
0000
0000
0000
,
0310
1000
0001
0010
0000
0010
0100
0000
,
0100
1000
0010
0000
0100
0001
0010
0000
,
0100
1000
0001
0100
0000
0010
1000
0001
,
0010
0100
1000
0000
0001
0100
0110
0000
;

//--------------- dance-double - [FG v1.00] NAOKI ----------------
#NOTES:
     dance-double:
     [FG v1.00] NAOKI:
     Beginner:
     2:
     0.216,0.225,0,0.162,0:
00000000
00000000
00000000
00000000
,
00000000
00000000
00000000
00000000
,
00020000
00000000
00030000
00000000
,
00002000
00000000
00003000
00000000
,
01000000
00000000
01000000
00000000
,
00000000
00010000
00000000
00000000
00000000
00010000
00000000
00000000
,
00200000
00000000
00300000
00000000
,
00002000
00000000
00003000
00000000
,
00010000
00000000
00010000
00000000
,
00000100
00001000
00000001
00000010
,
00000100
00000000
00000100
00000000
,
00001000
00000001
00001000
00000000
,
00000010
00000000
00000010
00000000
,
00010000
00001000
01000000
00010000
,
00100000
00100000
00100000
00100000
,
02000000
00000000
13000000
00000000
,
20000000
00000000
00020000
00000000
,
00000000
00000000
00000000
30000000
00000000
00000000
00030000
00000000
,
01000000
00000000
00001000
00000000
,
00010000
00000000
00000100
00001000
,
00000020
00000000
00002000
00000000
,
00000000
00000000
00000000
00000030
00000000
00000000
00003000
00000000
,
00000100
00000000
00010000
00000000
,
00000010
00000000
00000100
00000001
,
00002000
00000000
00000020
00000000
,
00000000
00000000
00000000
00003000
00000000
00000000
00000030
00000000
,
00010000
00000000
00001000
00000000
,
01000000
00000000
00010000
10000000
,
02000000
00000000
20000000
00000000
,
00000000
00000000
00000000
03000000
00000000
00000000
30000000
00000000
,
00100000
00000000
01000000
00000000
,
00001000
00001000
00010000
00010000
,
00000100
00000000
00001000
00000000
,
00000100
00000000
00010000
00000010
,
00001000
00000000
00000001
00000000
,
00001000
00000000
00000010
00010000
,
00000100
00000000
00001000
00000000
,
00000100
00000000
00010000
00001000
,
01000000
00000000
00100000
00000000
,
01000000
00000000
00001000
00100000
,
00010000
00000000
10000000
00000000
,
00010000
00000000
00100000
00001000
,
00010000
00000000
00000010
00000000
,
00010000
00000000
00001000
01000000
,
00100000
00000000
10000000
00000000
,
00100000
00000000
01000000
00001000
,
00010000
00010000
00000100
00000100
,
00001000
00000010
00001000
00000000
,
00000002
00000000
00000003
00000000
,
00000000
00000200
00000000
00000000
,
00000301
00000000
00000010
00000000
,
00000100
00010000
00001000
00100000
,
01000000
00000000
00000000
00000000
,
00000000
02000000
00000000
00000000
,
13000000
00000000
00010000
00000000
,
01000000
00001000
00010000
00000010
,
00001000
00000000
00001000
00000001
,
00000000
00000001
00000100
00000000
,
00000100
00000000
00000010
00010000
,
00000000
00010000
00001000
00100000
,
00010000
00000000
00010000
10000000
,
00000000
10000000
00100000
00000000
,
01000000
00001000
01000000
00001000
,
00200000
00000000
00310000
00000000
,
01000000
00001000
00000000
00001000
,
00010000
00000200
00000000
00001300
,
00000010
00010000
00000000
00010000
,
00000100
00000010
00000001
00000100
,
00000010
00001000
00000000
00001000
,
00000100
00020000
00000000
00031000
,
00100000
01000000
00000000
01000000
,
10000000
00100000
01000000
00010000
,
10000000
00010000
00000000
00010000
,
00100000
00002000
00000000
00013000
,
00000010
00001000
00000000
00001000
,
00000100
00000010
00000001
00000100
,
00000010
00010000
00000000
00010000
,
00001000
02000000
00000000
03010000
,
10000000
00100000
00000000
00100000
,
01000000
00001000
00010000
00000100
,
00002000
00000000
00003010
00000000
,
00000020
00000000
00001030
00000000
,
00000200
00000000
00000310
00000000
,
00000100
00000000
00000001
00000000
;

//--------------- dance-double - [FG v1.00] NAOKI ----------------
#NOTES:
     dance-double:
     [FG v1.00] NAOKI:
     Easy:
     7:
     0.372,0.451,0.439,0.331,0:
00000000
00000000
00000000
00000000
,
00000000
00000000
00000000
00000000
,
00020000
00000000
00030000
00000000
,
00002000
00000000
00003000
00000000
,
00200000
01000000
01300000
00000000
,
00000000
00100000
00000000
00001000
00000000
00010000
00000000
00000100
,
00002000
00000100
00003100
00000000
,
00000200
00000000
00000300
00010010
,
00002002
00003003
00000001
00001000
,
00000000
00000010
00010000
00001000
,
02000000
03010000
10000000
10100000
,
00020000
01030000
00001000
00011000
,
00010000
00000100
00001000
00000010
,
00000000
00000010
00010000
00001000
,
01000000
01000000
00001000
00001000
,
00100000
00010000
00110000
00000000
,
20000000
02000000
30000000
00010000
,
00000000
00010000
03100000
00001000
,
00010000
00000100
00001000
00000010
,
00000100
00000001
00000011
00001100
,
00000020
00000200
00000030
00001000
,
00000000
00001000
00000310
00010000
,
00001000
01000000
00010000
00100000
,
01000000
10000000
10100000
00110000
,
02000000
00200000
03000000
00010000
,
00000000
00010000
01300000
00001000
,
00010000
00000100
00000010
00000001
,
00001000
00000100
00010100
00001010
,
00000002
00000020
00000003
00001000
,
00000000
00001000
00000130
00010000
,
00001000
01000000
00010000
00100000
,
01000000
10000000
10010000
01001000
,
00001000
00010000
00000010
00001000
,
00000100
00000100
00010000
00000010
,
00202000
00303000
00110000
10000000
,
20020000
30030000
01010000
00100000
,
01000000
00001000
00010000
00000100
,
00001000
00001000
00000001
00000100
,
00020020
00030030
00001010
00000001
,
00002002
00003003
00001100
00010000
,
00000100
00010000
00001000
01000000
,
00010000
00010000
00100000
01000000
,
02002000
03003000
01100000
10000000
,
20200000
30300000
01100000
00010000
,
01000000
00001000
00010000
00000100
,
00000010
00000010
00000001
00001000
,
00010100
00001010
00010100
00000011
,
00001000
00000100
00010000
00000000
,
00022000
00033000
00000000
00000000
,
00000000
00200000
00310000
01000000
,
00001000
00000000
01001000
00000000
,
01000000
00010000
00100000
00001000
,
00010000
00000000
00000000
00000000
,
00000000
00000020
00001030
00000001
,
00000100
00000000
00000101
00000000
,
00000001
00000010
00000100
00010000
,
00001000
00000000
00100000
00010000
,
00000000
00010000
10000000
01000000
,
00100000
00000000
00100000
00001000
,
00000000
00001000
01000000
00010000
,
10000000
00000000
01000000
10000000
,
00000000
10000000
00010000
01000000
,
00001000
00001000
00010000
00010000
,
00000100
00000010
00000110
00000000
,
00010100
00001020
00010030
00011000
,
00001010
00000200
00000001
00001300
,
00000010
00010010
00201000
00010000
,
01300000
01100000
00021000
00031000
,
00010100
00201000
01300000
11000000
,
00110000
02000000
10000000
03010000
,
00100000
00101000
00010200
00001000
,
00000310
00000110
00001002
00001003
,
00000101
00001200
00010300
00011000
,
01010000
00200000
00010000
01300000
,
00001000
00011000
00002010
00000100
,
00003001
00001001
00020100
00030100
,
00010010
02001000
03010000
00110000
,
11000000
00200000
10000000
00310000
,
01000000
01001000
00010020
00001000
,
00000130
00000110
00001200
00001300
,
00000010
00000000
00000010
00000000
,
00010000
00000000
00010000
00000000
,
00001000
00000000
00001000
00000000
,
00100000
00000000
00100000
00000000
;

//--------------- dance-double - [FG v1.00] NAOKI ----------------
#NOTES:
     dance-double:
     [FG v1.00] NAOKI:
     Medium:
     12:
     0.501,0.509,0.176,0.317,0:
00000000
00000000
00000000
00000000
,
00000000
00000000
00000000
00000000
,
00020000
00000000
00030000
00000000
,
00002000
00000000
00003000
00000000
,
00200000
00000000
01300000
00000000
00100000
01000000
00000000
00000000
,
00000000
00100000
00000000
00010000
00000000
01000000
00000000
00001000
,
00020000
00000000
00031000
00000000
00010000
00001000
00000000
00000000
,
00010000
00000010
00000100
00000022
,
00000033
00000000
00000001
00001000
00000100
00000000
00000010
00000000
,
00000000
00000100
00010000
00000000
00000010
00000000
00001000
00000000
,
00000100
00000000
00000000
00001000
00000010
00000000
00010000
00000000
,
00001000
01000000
00010000
10000000
00100000
00000000
10100000
00000000
,
01010000
00000000
10000000
00010000
01000000
00000000
00001000
00000000
,
00000000
01000000
00010000
00000000
00100000
00000000
00001000
00000000
,
00011000
00001100
00000101
00001100
,
00001000
00000001
00000010
00000100
00010000
00000000
00000000
00000000
,
00001000
00100000
02000000
00000000
00010000
00000000
10000000
00000000
,
00010000
00000000
13000000
00010000
01000000
00001000
00100000
00010000
,
02000000
00000000
03002000
00000000
00013000
00000000
00000100
00000010
,
00000001
00000000
00001000
00000010
00020000
00000000
00032000
00000000
,
00013000
00000100
00000020
00000000
00001000
00000000
00000100
00000000
,
00001000
00000000
00000031
00000100
00000010
00010000
00001000
00100000
,
02000000
00000000
23000000
00000000
30100000
00000000
01000000
00001000
,
00010000
00000000
00000100
00001000
00000001
00000000
00001010
00000000
,
00010000
00000010
00000200
00000000
00001000
00000000
00000001
00000000
,
00001000
00000000
00000310
00010000
00001000
01000000
00010000
10000000
,
00200000
00000000
02300000
00000000
03010000
00000000
10000000
00100000
,
01000000
00000000
00010000
00100000
00002000
00000000
00023000
00000000
,
00031000
01000000
00200000
00000000
00010000
00000000
01000000
00000000
,
00010000
00000000
10300000
00010000
00100000
00001000
00010000
00000100
,
00000020
00000000
00000032
00000000
00000103
00000000
00000010
00001000
,
00000100
00000000
00010000
00001000
01000000
00010000
10000000
00000000
,
00100000
01000000
00001000
00001000
00010000
00000000
00000100
00000000
,
00010000
00000010
00000100
00000100
00000001
00000000
00001000
00000000
,
00000010
00010000
00001000
01000000
01000000
00000000
00001000
00000000
,
00010000
00000010
00001000
00000100
00000100
00000000
00001000
00000001
,
00000100
00000010
00010000
00010000
00001000
00000000
00100000
00000000
,
00001000
01000000
00010000
00010000
00100000
00000000
01000000
00000000
,
10000000
00010000
00100000
00001000
00001000
00000000
00100000
00000000
,
01000000
10000000
00010000
01000000
01000000
00000000
00010000
10000000
,
01000000
00100000
00001000
00001000
00010000
00000000
00000100
00000000
,
00010000
00000010
00000100
00000100
00000001
00000000
00001000
00000000
,
00000010
00010000
00001000
00100000
00100000
00000000
00001000
00000000
,
00010000
00000010
00000100
00000001
00000001
00000000
00000100
00000010
,
00010000
00001000
01000000
01000000
00010000
00000000
10000000
00000000
,
00010000
00100000
00001000
00001000
00010000
00000000
00000010
00000000
,
00001000
00000001
00000100
00000100
00001000
00000010
00010000
00010000
,
00100000
00001000
00010000
00000100
00001000
00000000
00000000
00000000
,
00000002
00000003
00000000
00000000
,
00000000
00000001
00002000
00000000
00003010
00010000
00000000
00010000
,
00000100
00000000
00022000
00033000
,
01000000
00100000
01000000
00010000
10000000
00010000
01000000
00100000
,
20000000
30000000
00000000
00000000
,
00000000
10000000
02000000
00000000
03100000
00001000
00000000
00001000
,
01000000
00000000
00022000
00033000
,
00000010
00000100
00000010
00010000
00001000
00010000
00000100
00001000
,
00000002
00000000
00000103
00000010
00001010
00000000
00011000
00000000
,
01000000
00100000
20000000
00000000
31000000
00100000
00001000
01000000
,
00010000
00000000
00000000
00100000
00002000
00000000
00013000
00000000
,
00000010
00000100
00001000
00000100
00000001
00001000
00000100
00010000
,
00002000
00000000
00013000
00000010
00000110
00000000
00011000
00000000
,
01000000
00010000
20000000
00000000
30100000
01000000
00001000
00100000
,
00010000
10000000
00100000
00100000
00001000
01000000
00010000
00010000
,
00000010
00000100
00000001
00001000
00000100
00000000
00000000
00000000
,
00011000
00000000
00002100
00000000
01003000
00001000
00010000
00000010
,
00000200
00000000
00000301
00001000
00000010
00010000
00001000
01000000
,
00010000
00000000
10010000
00000000
10000000
00100000
02000000
00000000
,
03010000
00000000
00000000
10000000
00000000
00000000
00100000
00000000
00000000
01000000
00000000
00000000
00001000
00000000
00010000
00000000
00001000
00000000
00020000
00000000
00000000
00030000
00000000
00000000
,
00001100
00000000
00012000
00000000
00003001
00010000
00000010
00000100
,
00000002
00000000
00000013
00000100
00001000
00000010
00010000
00001000
,
01000000
00000000
01100000
00000000
00100000
10000000
02000000
00000000
,
03100000
00000000
00000000
00010000
00000000
00000000
01000000
00000000
00000000
00001000
00000000
00000000
00010000
00000000
00001000
00000000
00010000
00000000
00002000
00000000
00000000
00003000
00000000
00000000
,
00010100
00000000
00000021
00000000
00000130
00001000
00000010
00010000
,
00000200
00000000
00000310
00000001
00001000
00000100
00010000
00001000
,
01000000
00000000
01100000
00000000
00100000
10000000
00020000
00000000
,
01030000
00000000
00000000
00001000
00000000
00000000
00010000
00000000
00000000
00000010
00000000
00000000
00001000
00000000
00000100
00000000
00001000
00000000
00000200
00000000
00000000
00000300
00000000
00000000
,
00011000
00000000
00001200
00000000
01000300
00001000
00100000
00010000
,
20000000
00000000
30100000
01000000
00001000
00010000
00000010
00000100
,
00000001
00000000
00000011
00000000
00000010
00000100
00020000
00000000
,
00031000
00000000
00000000
01000000
00000000
00000000
00010000
00000000
00000000
10000000
00000000
00000000
00100000
00000000
01000000
00000000
00100000
00000000
02000000
00000000
00000000
00000000
00000000
00000000
,
03010000
00000000
00100000
00001000
00000000
01000000
00010000
00000000
,
01000000
00001000
00010000
00000000
00000010
00000100
00000001
00000000
,
00000001
00001000
00000000
00001000
00000100
00010000
00001000
00000000
,
00100000
00010000
10000000
00000000
01000000
10000000
00010000
00000000
;

//--------------- dance-double - [FG v1.00] NAOKI ----------------
#NOTES:
     dance-double:
     [FG v1.00] NAOKI:
     Hard:
     16:
     0.846,1,0.52,0.52,0.604:
00000000
00000000
00000000
00000000
,
00000000
00000000
00000000
00000000
,
00020000
00000000
00030000
00000000
,
00002000
00000000
00003000
00000000
,
02000000
00100000
03100000
10000000
00010000
00010000
00000000
00000000
,
00000000
01000000
00001000
00010000
00000010
00001000
00000001
00000100
,
00000020
00001000
00001030
00000001
00000100
00000100
00000000
00000000
,
00000010
00001000
00000010
00010000
00001000
01000000
00010000
10000000
00010000
00100000
00001000
00010000
00000200
00000000
00000300
00000000
,
00002000
00000100
00003100
00010000
00001010
00010000
00011000
00000000
,
00000000
01000000
00010000
00100000
01000000
10000000
00100000
01000000
,
00002000
00010000
00013000
00000010
00001100
00010000
00011000
00000000
,
00001000
01000000
00010000
00100000
01100000
00000000
01000000
00100000
,
00002000
00010000
00013000
00000010
00001100
00010000
00011000
00000000
,
00000000
00000100
00010000
00000010
00000100
00000001
00001000
00000010
,
00010000
00010000
00001000
00001000
00100000
00100000
01000000
01000000
,
10000000
00000000
00000000
00010000
00000000
00000000
01000000
00000000
00000000
00100000
00000000
00000000
10000000
00000000
00000000
00010000
00000000
00000000
01000000
00000000
00001000
00000000
01000000
00000000
00001000
00000000
00000000
00000000
00000000
00000000
00000000
00000000
00000000
00000000
00000000
00000000
00000000
00000000
00000000
00000000
00000000
00000000
00000000
00000000
00000000
00000000
00000000
00000000
,
02001000
00000000
00000000
03010000
00000000
00000000
20000000
00000000
00000000
31000000
00000000
00000000
00100000
00001000
00100000
00001000
00100000
00001000
00100000
00001000
00100000
00001000
00100000
00001000
,
00100000
00001000
00100000
00001000
00100000
00001000
00100000
00001000
00100000
00020000
00000000
00000000
00130000
00000000
00000000
00001000
00000000
00000000
00020000
00000000
00000000
00030020
00000000
00000000
,
00000230
00000000
00000000
00000301
00000000
00000000
00010020
00000000
00000000
00001030
00000000
00000000
00000001
00000100
00000000
00000001
00000100
00000000
00000010
00000000
00010000
00000000
00001000
00000000
,
01000000
00010000
00000000
01000000
00010000
00000000
10000000
00000000
01000000
00000000
00100000
00000000
00002000
00000000
00000000
01003000
00000000
00000000
00021000
00000000
00000000
00030100
00000000
00000000
,
00010200
00000000
00000000
00001300
00000000
00000000
00000002
00000000
00000000
00000013
00000000
00000000
00000100
00010000
00000100
00010000
00000100
00010000
00000100
00010000
00000100
00010000
00000100
00010000
,
00000100
00010000
00000100
00010000
00000100
00010000
00000100
00010000
00000100
00002000
00000000
00000000
00003100
00000000
00000000
00000010
00000000
00000000
00000002
00000000
00000000
00002003
00000000
00000000
,
00003020
00000000
00000000
00010030
00000000
00000000
02001000
00000000
00000000
03010000
00000000
00000000
10000000
01000000
00000000
10000000
01000000
00000000
00100000
00000000
00001000
00000000
00010000
00000000
,
00000010
00001000
00000000
00000010
00001000
00000000
00000001
00000000
00000010
00000000
00000100
00000000
00020000
00000000
00000000
00030010
00000000
00000000
00010000
00000000
00001000
00000000
00100000
00000000
,
02001000
00000000
00000000
03010000
00000000
00000000
20000000
00000000
00000000
30100000
00000000
00000000
01000000
00001000
01000000
00001000
01000000
00001000
01000000
00001000
01000000
00001000
01000000
00001000
,
01000000
00001000
01000000
00001000
01000000
00001000
01000000
00001000
01000000
00020000
00000000
00000000
01030000
00000000
00000000
00001000
00000000
00000000
00100000
00000000
00000000
00010000
00000000
00000000
,
20000000
00000000
00000000
30100000
00000000
00000000
10020000
00000000
00000000
00130000
00000000
00000000
00001000
01000000
00000000
00001000
01000000
00000000
00010000
00000000
00100000
00000000
00001000
00000000
,
00010000
00000010
00000000
00010000
00000010
00000000
00001000
00000000
00000100
00000000
00010000
00000000
00002000
00000000
00000000
01003000
00000000
00000000
00021000
00000000
00000000
00030010
00000000
00000000
,
00010020
00000000
00000000
00001030
00000000
00000000
00000002
00000000
00000000
00000013
00000000
00000000
00000100
00010000
00000100
00010000
00000100
00010000
00000100
00010000
00000100
00010000
00000100
00010000
,
00000100
00010000
00000100
00010000
00000100
00010000
00000100
00010000
00000100
00002000
00000000
00000000
00003100
00000000
00000000
00000010
00000000
00000000
00000001
00000000
00000000
00000100
00000000
00000000
,
00000020
00000000
00000000
00001030
00000000
00000000
00000210
00000000
00000000
00000301
00000000
00000000
00001000
00000010
00000000
00001000
00000010
00000000
00010000
00000000
00000100
00000000
00001000
00000000
,
00000010
00000000
00010000
00000000
00000000
00000000
00000010
00000000
00010000
00000000
00000000
00000000
00001000
00000000
00000000
00000000
01000000
00000000
00000000
00000000
00010000
00000000
00000000
00000000
00200000
00000000
00000000
00000000
00000000
00000000
01300000
00000000
00000000
10000000
00000000
00000000
00010000
00000000
00000000
00100000
00000000
00000000
00001000
00000000
00000000
00000000
00000000
00000000
,
01001000
01000000
00100000
10000000
00110000
00001000
00011000
00000000
,
00010000
00000100
00000010
00000001
00001010
00010000
00010100
00000100
,
00000012
00000000
00000103
00000010
00001010
00000100
00000101
00000000
,
00002000
00000100
00003100
00000010
00000011
00000100
00001100
00010000
,
00000020
00000100
00000130
00000001
00001100
00010000
00010010
00000000
,
00000010
00001000
00000001
00000010
00001100
00010000
00011000
00001000
,
00210000
00000000
01300000
10000000
10100000
00010000
00110000
00000000
,
00002000
00010000
00013000
00000010
00001010
00010000
00011000
00000100
,
00000020
00000001
00000031
00000100
00001010
00010000
00011000
00000000
,
00000100
00001000
00000100
00000000
00000010
00000000
00000001
00000000
00001100
00000000
00010000
00000000
00010010
00000000
00000010
00000000
,
01002000
00000000
00013000
00000010
00001010
00000100
00000101
00000000
,
00002000
00000010
00003010
00000100
00000101
00000010
00001010
00010000
,
00000200
00000010
00000310
00000001
00001010
00010000
00011000
00000000
,
00100000
01000000
01100000
00000000
00010000
01000000
01010000
00000000
,
00100000
00100000
00001000
00001000
00010000
00010000
00000010
00000010
,
00000100
00000000
00000000
00000001
00000000
00000000
00001000
00000000
00000000
00000100
00000000
00000000
00010000
00000000
00000000
00001000
00000000
00000000
00100000
00000000
00010000
00000000
00100000
00000000
00010000
00000000
00000000
00000000
00000000
00000000
00000000
00000000
00000000
00000000
00000000
00000000
00000000
00000000
00000000
00000000
00000000
00000000
00000000
00000000
00000000
00000000
00000000
00000000
,
22000000
33000000
00000000
00000000
,
00000000
10000000
00020000
01000000
01030000
00100000
10000000
01000000
,
00100000
00000000
22000000
33000000
,
10000000
00100000
01000000
00001000
00200000
01000000
01300000
10000000
,
00010000
01000000
00000000
00000000
00000000
00000000
00000000
00000000
,
00000000
00001000
00200000
00010000
00310000
01000000
00100000
10000000
,
00010000
00000000
22000000
33000000
,
01000000
00100000
00001000
00010000
00000020
00001000
00001030
00000001
,
00000010
00000100
00000000
00010000
00001000
00000000
00101000
00000000
,
10010000
10000000
02000000
00000000
03100000
00001000
01000000
00010000
,
10000000
01000000
00010000
01000000
20000000
00010000
30010000
00000000
,
10000000
00100000
01000000
00001000
00200000
00010000
00310000
01000000
,
00001000
00010000
00000000
00000010
00001000
00000000
00001100
00000000
,
00000011
00000001
00002000
00000000
00003100
00010000
00001000
01000000
,
00010000
00010000
00100000
00100000
00001000
00001000
01000000
01000000
,
00100000
00000000
00000000
10000000
00000000
00000000
00010000
00000000
00000000
01000000
00000000
00000000
00001000
00000000
00000000
00010000
00000000
00000000
00000100
00000000
00001000
00000000
00000100
00000000
00001000
00000000
00000000
00000000
00000000
00000000
00000000
00000000
00000000
00000000
00000000
00000000
00000000
00000000
00000000
00000000
00000000
00000000
00000000
00000000
00000000
00000000
00000000
00000000
,
00002200
00000000
00003300
00000000
00011000
00000000
00001000
00100000
00010000
00000000
00100000
00001000
00010000
00000000
00010010
00000000
,
00000010
00000000
00000000
00000000
00001000
00000000
00000000
00000000
00000100
00000000
00000000
00000000
00000010
00000000
00000000
00000001
00000000
00000000
00000010
00000000
00000000
00000001
00000000
00000000
00001000
00000000
00000000
00000100
00000000
00000000
00010000
00000000
00000000
00001000
00000000
00000000
01000000
00000000
00000000
00010000
00000000
00000000
10000000
00000000
00000000
01000000
00000000
00000000
,
00100000
00000000
00000000
00001000
00000000
00000000
02002000
00000000
00000000
03003000
00000000
00000000
01000000
00000000
00000000
00010000
00100000
00010000
00200000
00000000
00000000
00301000
00000000
00000000
,
00011000
00000000
00000000
00000000
00000000
00000000
00010000
00000000
00000000
00000100
00000000
00000000
00000000
00000000
00000000
00001000
00000000
00000000
00000001
00000000
00000000
00000000
00000000
00000000
00001001
00000000
00000000
00000000
00001000
00000000
00000000
00000000
00000010
00000000
00000000
00000000
00010020
00000000
00000000
00000000
00000000
00000000
00010000
00000000
00000000
00000000
00000000
00000000
,
00001030
00000000
00000100
00000000
00010100
00000000
00010000
00000010
00001000
00000000
00000010
00000100
00000001
00000000
00001001
00000000
,
00001000
00000000
00000000
00000000
00000010
00000000
00000000
00000000
00000100
00000000
00000000
00000000
00000001
00000000
00000000
00001000
00000000
00000000
00000001
00000000
00000000
00001000
00000000
00000000
00000010
00000000
00000000
00010000
00000000
00000000
00001000
00000000
00000000
00100000
00000000
00000000
00010000
00000000
00000000
10000000
00000000
00000000
00100000
00000000
00000000
01000000
00000000
00000000
,
00010000
00000000
00000000
00100000
00000000
00000000
02200000
00000000
00000000
03300000
00000000
00000000
01000000
00000000
00000000
10000000
00010000
10000000
00020000
00000000
00000000
01030000
00000000
00000000
,
01001000
00000000
00000000
00000000
00000000
00000000
00001000
00000000
00000000
00100000
00000000
00000000
00000000
00000000
00000000
00010000
00000000
00000000
10000000
00000000
00000000
00000000
00000000
00000000
10010000
00000000
00000000
00000000
00010000
00000000
00000000
00000000
01000000
00000000
00000000
00000000
02001000
00000000
00000000
00000000
00000000
00000000
00001000
00000000
00000000
00000000
00000000
00000000
,
03010000
00000000
00100000
00000000
00101000
00000000
00001000
01000000
00010000
00000000
01000000
00100000
10000000
00000000
10010000
00000000
,
00010000
00000000
00000000
00000000
01000000
00000000
00000000
00000000
00100000
00000000
00000000
00000000
10000000
00000000
00000000
00010000
00000000
00000000
10000000
00000000
00000000
00010000
00000000
00000000
01000000
00000000
00000000
00001000
00000000
00000000
00010000
00000000
00000000
00000100
00000000
00000000
00001000
00000000
00000000
00000001
00000000
00000000
00000010
00000000
00000000
00000100
00000000
00000000
,
00001000
00000000
00000000
00000001
00000000
00000000
00000202
00000000
00000000
00000303
00000000
00000000
00000100
00000000
00000000
00000010
00001000
00000010
00002000
00000000
00000000
00003001
00000000
00000000
,
00000101
00000000
00000000
00000000
00000000
00000000
00000100
00000000
00000000
00000010
00000000
00000000
00000000
00000000
00000000
00001000
00000000
00000000
00000001
00000000
00000000
00000000
00000000
00000000
00001001
00000000
00000000
00000000
00001000
00000000
00000000
00000000
00000010
00000000
00000000
00000000
00010020
00000000
00000000
00000000
00000000
00000000
00010000
00000000
00000000
00000000
00000000
00000000
,
00001030
00000000
00000001
00001000
00000010
00000000
00001010
00000000
00010000
00000100
00001000
00000000
00001100
00000000
00010020
00000000
,
00001030
00000000
00000000
00000000
00000100
00000000
00000000
00000000
00000010
00000000
00000000
00000000
00000001
00000000
00000000
00001000
00000000
00000000
00000001
00000000
00000000
00001000
00000000
00000000
00000100
00000000
00000000
00010000
00000000
00000000
00001000
00000000
00000000
00100000
00000000
00000000
00010000
00000000
00000000
10000000
00000000
00000000
01000000
00000000
00000000
00100000
00000000
00000000
,
00010000
00000000
00000000
01000000
00000000
00000000
02002000
00000000
00000000
03003000
00000000
00000000
00001000
00000000
00000000
00100000
00010000
00100000
00020000
00000000
00000000
01030000
00000000
00000000
,
00001000
00000000
00000000
01000000
00000000
00000000
00010000
00000000
00000000
01000000
00000000
00000000
00001000
00000000
00000000
00010000
00000000
00000000
00000010
00000000
00000000
00001000
00000000
00000000
00000001
00000000
00000000
00000000
00000010
00000000
00000000
00000000
00000100
00000000
00000000
00000000
00020000
00000000
00000000
00000000
00000000
00000000
00000000
00000000
00000000
00000000
00000000
00000000
,
00031000
00100000
01000000
10000000
00000000
10000000
00010000
00000000
,
00010000
01000000
00001000
00000000
00100000
00010000
10000000
00000000
,
01000000
00100000
00001000
00010000
00000000
00000010
00001000
00000100
,
00010000
00001000
00100000
00000000
01000000
10000000
10010000
00000000
;

//--------------- dance-double - [FG v1.00] NAOKI ----------------
#NOTES:
     dance-double:
     [FG v1.00] NAOKI:
     Challenge:
     17:
     0.905,1,0.567,0.594,0.753:
00000000
00000000
00000000
00000000
,
00000000
00000000
00000000
00000000
,
00020000
00000000
00030000
00000000
,
00002000
00000000
00003000
00000000
,
02000000
00010000
03010000
00100000
00001000
00001000
00000000
00000000
,
00000000
00010000
00000100
00001000
00000010
00010000
00001000
01000000
,
00200000
10000000
10300000
01000000
00100000
00100000
00000000
00000000
,
00001000
00010000
00000100
00001000
00000100
00010000
00001000
01000000
00001000
00010000
00000100
00001000
00002020
00000000
00003030
00000000
,
00000200
00000010
00000310
00000001
00001010
00010000
00011000
00000000
,
00000000
00000100
00010000
00001000
00100000
01000000
10000000
00010000
,
00200000
01000000
01300000
10000000
01010000
00001000
00011000
00000000
,
00010000
00000010
00000100
00000001
00001001
00000000
00001000
00000100
,
00000020
00000001
00000031
00000100
00001010
00010000
00011000
00000000
,
00000000
01000000
00100000
10000000
00010000
01000000
00001000
00010000
,
00010100
00000100
00011000
00001000
00000101
00000100
00011000
00001000
,
00000010
00000000
00000000
00000100
00000000
00000000
00000001
00000000
00000000
00001000
00000000
00000000
00000010
00000000
00010000
00000000
00001000
00000000
00100000
00000000
00001000
00000000
00010000
00000000
00000100
00000000
00000000
00000000
00000000
00000000
00000000
00000000
00000000
00000000
00000000
00000000
00000000
00000000
00000000
00000000
00000000
00000000
00000000
00000000
00000000
00000000
00000000
00000000
,
00000021
00000000
00000000
00000130
00000000
00000000
00002000
00000000
00000000
00003010
00000000
00000000
00010000
00000100
00001000
00000100
00010000
00001000
00010000
00000010
00001000
00000010
00010000
00001000
,
00010000
00000000
00000010
00000000
00001000
00000000
00000010
00000000
00010000
00000000
00001000
00000000
00010000
00000000
00001000
00000000
01000000
00000000
00040000
00030000
01000000
00000000
00001000
00000000
00010000
00000000
00000010
00000000
00001000
00000000
00000001
00000000
00001000
00000000
00000010
00000000
00020000
00000000
00000000
00000000
00000000
00000000
00032000
00000000
00000000
00000000
00000000
00000000
,
02003000
00000000
00000000
03100000
00000000
00000000
12000000
00000000
00000000
03100000
00000000
00000000
00001000
01000000
00000000
00001000
01000000
00000000
00010000
00000000
00100000
00000000
00001000
00000000
,
01000000
00010000
00000000
01000000
00010000
00000000
10000000
00000000
00100000
00000000
01000000
00000000
00020000
00000000
00000000
10030000
00000000
00000000
00210000
00000000
00000000
01300000
00000000
00000000
,
02100000
00000000
00000000
13000000
00000000
00000000
00200000
00000000
00000000
01300000
00000000
00000000
00001000
00100000
00010000
00100000
00001000
00010000
00001000
00100000
00010000
00100000
00001000
00010000
,
00001000
00000000
01000000
00000000
00010000
00000000
01000000
00000000
00001000
00000000
00010000
00000000
00001000
00000000
00010000
00000000
00000100
00000000
00004000
00003000
00000100
00000000
00010000
00000000
00001000
00000000
00100000
00000000
00010000
00000000
10000000
00000000
00010000
00000000
01000000
00000000
00002000
00000000
00000000
00000000
00000000
00000000
00023000
00000000
00000000
00000000
00000000
00000000
,
00030200
00000000
00000000
00000310
00000000
00000000
00000201
00000000
00000000
00000310
00000000
00000000
00001000
00000100
00000000
00001000
00000100
00000000
00010000
00000000
00000010
00000000
00010000
00000000
,
00000100
00001000
00000000
00000100
00001000
00000000
00000001
00000000
00000100
00000000
00000010
00000000
00002000
00000000
00000000
00003001
00000000
00000000
00001000
00000000
00000100
00000000
00010000
00000000
,
00000120
00000000
00000000
00000031
00000000
00000000
00000200
00000000
00000000
00000310
00000000
00000000
00010000
00000100
00001000
00000100
00010000
00001000
00010000
00000010
00001000
00000010
00010000
00001000
,
00010000
00000000
00000100
00000000
00001000
00000000
00000100
00000000
00010000
00000000
00001000
00000000
00010000
00000000
00001000
00000000
00100000
00000000
00040000
00030000
00100000
00000000
00001000
00000000
00010000
00000000
00000010
00000000
00010000
00000000
00001000
00000000
00100000
00000000
00010000
00000000
20000000
00000000
00000000
00000000
00000000
00000000
30200000
00000000
00000000
00000000
00000000
00000000
,
02300000
00000000
00000000
03010000
00000000
00000000
12000000
00000000
00000000
03100000
00000000
00000000
00010000
01000000
00000000
00010000
01000000
00000000
00001000
00000000
00100000
00000000
00001000
00000000
,
01000000
00010000
00000000
01000000
00010000
00000000
10000000
00000000
00100000
00000000
01000000
00000000
00020000
00000000
00000000
00130000
00000000
00000000
02010000
00000000
00000000
03100000
00000000
00000000
,
01200000
00000000
00000000
10300000
00000000
00000000
02000000
00000000
00000000
03100000
00000000
00000000
00001000
01000000
00010000
01000000
00001000
00010000
00001000
01000000
00010000
01000000
00001000
00010000
,
00001000
00000000
00100000
00000000
00010000
00000000
00100000
00000000
00001000
00000000
00010000
00000000
00001000
00000000
00010000
00000000
00000100
00000000
00004000
00003000
00000100
00000000
00010000
00000000
00001000
00000000
01000000
00000000
00001000
00000000
00010000
00000000
00000010
00000000
00001000
00000000
00000002
00000000
00000000
00000000
00000000
00000000
00000023
00000000
00000000
00000000
00000000
00000000
,
00000230
00000000
00000000
00001300
00000000
00000000
00000021
00000000
00000000
00000130
00000000
00000000
00001000
00000010
00000000
00001000
00000010
00000000
00010000
00000000
00000100
00000000
00010000
00000000
,
00000010
00000000
00001000
00000000
00000000
00000000
00000010
00000000
00001000
00000000
00000000
00000000
00000001
00000000
00000000
00000000
00000010
00000000
00000000
00000000
00000100
00000000
00000000
00000000
00002000
00000000
00000000
00000000
00000000
00000000
00003010
00000000
00000000
00000100
00000000
00000000
00000001
00000000
00001000
00000000
00000100
00000000
00010000
00000000
00001000
00000000
00100000
00000000
,
00010000
01000000
00100000
10000000
01010000
00001000
00011000
00000000
,
00010000
00000100
00000010
00000001
00001100
00010000
00010010
00000010
,
00000102
00000000
00000013
00000100
00001100
00000010
00000011
00000000
,
00002000
00000010
00003010
00000100
00000101
00000010
00001010
00010000
,
00000200
00000010
00000310
00000001
00001100
00010000
00010010
00000000
,
00000010
00001000
00000001
00000010
00001100
00010000
00010010
00000010
,
00201000
00000000
01300000
10000000
10100000
00010000
00110000
00000000
,
00002000
00010000
00013000
00000100
00001100
00010000
00011000
00000010
,
00000200
00000000
00000001
00000000
00000301
00000000
00001000
00000000
00000100
00010000
00001000
00100000
00010000
00000000
00000000
00000000
,
01000000
00100000
01000000
00000000
00001000
00000000
00010000
00000000
00001100
00000000
00010000
00000000
00011000
00000000
00001000
00000000
,
01020000
00000000
00130000
01000000
11000000
00100000
00110000
00000000
,
20000000
00100000
30100000
01000000
01010000
00001000
00011000
00100000
,
02000000
00000000
10000000
00000000
13000000
00000000
00100000
00000000
01000000
00001000
00010000
00000100
00001000
00000000
00000000
00000000
,
00000001
00000010
00000001
00000000
00000100
00000000
00000000
00000000
00000011
00000000
00000001
00000000
00000100
00000000
00000010
00000000
,
00001010
00001000
00000011
00000010
00011000
00001000
00000011
00000010
,
00000100
00000000
00000000
00000001
00000000
00000000
00001000
00000000
00000000
00000100
00000000
00000000
00010000
00000000
00001000
00000000
01000000
00000000
00010000
00000000
01000000
00000000
00001000
00000000
00010000
00000000
00000000
00000000
00000000
00000000
00000000
00000000
00000000
00000000
00000000
00000000
00000000
00000000
00000000
00000000
00000000
00000000
00000000
00000000
00000000
00000000
00000000
00000000
,
00022000
00033000
00000000
00000000
,
00000000
00001000
00200000
01000000
01300000
10000000
00100000
01000000
,
10000000
00000000
02200000
03300000
,
00100000
10000000
00010000
01000000
00200000
10000000
10300000
00010000
,
00100000
01000000
00000000
00000000
00000000
00000000
00000000
00000000
,
00000000
10000000
00020000
01000000
01030000
00100000
10000000
01000000
,
00010000
00000000
22000000
33000000
,
10000000
00010000
00100000
00001000
02000000
00010000
03010000
10000000
,
00100000
01000000
00000000
00001000
00010000
00000100
00000010
00000000
,
00000001
00000100
00000001
00000000
00002000
00000000
00000000
00000000
00003100
00000000
00010000
00000000
00001000
00000000
00100000
00000000
,
00010000
01000000
10000000
01000000
00020000
10000000
10030000
00000000
,
00010000
01000000
00001000
00010000
00000020
00000100
00000130
00000001
,
00001000
00000100
00000000
00010000
00001000
00100000
00010000
00000000
,
01000000
00001000
01000000
00000000
00200000
00000000
00000000
00000000
10300000
00000000
00010000
00000000
00100000
00000000
00001000
00000000
,
01001000
01000000
00011000
00010000
11000000
01000000
00110000
00100000
,
10000000
00000000
00000000
00010000
00000000
00000000
01000000
00000000
00000000
00001000
00000000
00000000
00010000
00000000
00000100
00000000
00001000
00000000
00000001
00000000
00001000
00000000
00000010
00000000
00010000
00000000
00000000
00000000
00000000
00000000
00000000
00000000
00000000
00000000
00000000
00000000
00000000
00000000
00000000
00000000
00000000
00000000
00000000
00000000
00000000
00000000
00000000
00000000
,
00002200
00000000
00003300
00000000
00000201
00000000
00000301
00001000
00000100
00000000
00001000
00000010
00010000
00000000
00010100
00000000
,
00000100
00000000
00000000
00000000
00001000
00000000
00000000
00000000
00000001
00000000
00000000
00000000
00000100
00000000
00000000
00000010
00000000
00000000
00000001
00000000
00000000
00000010
00000000
00000000
00000100
00000000
00000000
00000001
00000000
00000000
00001000
00000000
00000000
00000100
00000000
00000000
00000010
00000000
00000000
00001000
00000000
00000000
00000010
00000000
00000000
00000100
00000000
00000000
,
00001000
00000000
00000000
00000100
00000000
00000000
00020200
00000000
00000000
00030300
00000000
00000000
00010000
00000100
00001000
00000001
00001000
00000010
00020000
00000000
00000000
00030010
00000000
00000000
,
00010010
00000000
00000000
00000000
00000000
00000000
00010000
00000000
00000000
00001000
00000000
00000000
00000000
00000000
00000000
00100000
00000000
00000000
00010000
00000000
00000000
00000000
00000000
00000000
00110000
00000000
00000000
00000000
00100000
00000000
00000000
00000000
01000000
00000000
00000000
00000000
12000000
00000000
00000000
00000000
00000000
00000000
10000000
00000000
00000000
00000000
00000000
00000000
,
03100000
00000000
00010000
00000000
01020000
00000000
01030000
00001000
00010000
00000000
00001000
00100000
00010000
00000000
01010000
00000000
,
01000000
00000000
00000000
00000000
00100000
00000000
00000000
00000000
10000000
00000000
00000000
00000000
01000000
00000000
00000000
00100000
00000000
00000000
10000000
00000000
00000000
00100000
00000000
00000000
01000000
00000000
00000000
10000000
00000000
00000000
00010000
00000000
00000000
01000000
00000000
00000000
00100000
00000000
00000000
00010000
00000000
00000000
00100000
00000000
00000000
01000000
00000000
00000000
,
00010000
00000000
00000000
01000000
00000000
00000000
02002000
00000000
00000000
03003000
00000000
00000000
00001000
01000000
00010000
10000000
00010000
01000000
00002000
00000000
00000000
01003000
00000000
00000000
,
01001000
00000000
00000000
00000000
00000000
00000000
00001000
00000000
00000000
00010000
00000000
00000000
00000000
00000000
00000000
00000100
00000000
00000000
00001000
00000000
00000000
00000000
00000000
00000000
00001100
00000000
00000000
00000000
00000100
00000000
00000000
00000000
00000010
00000000
00000000
00000000
00000021
00000000
00000000
00000000
00000000
00000000
00000001
00000000
00000000
00000000
00000000
00000000
,
00000130
00000000
00010000
00000000
00021000
00000000
00031000
00100000
00010000
00000000
00100000
00001000
00010000
00000000
00010100
00000000
,
00000100
00000000
00000000
00000000
00001000
00000000
00000000
00000000
00000001
00000000
00000000
00000000
00000010
00000000
00000000
00000100
00000000
00000000
00000001
00000000
00000000
00000100
00000000
00000000
00000010
00000000
00000000
00000001
00000000
00000000
00001000
00000000
00000000
00000010
00000000
00000000
00000100
00000000
00000000
00001000
00000000
00000000
00000100
00000000
00000000
00000010
00000000
00000000
,
00001000
00000000
00000000
00000010
00000000
00000000
00020020
00000000
00000000
00030030
00000000
00000000
00010000
00000010
00001000
00000001
00001000
00000100
00020000
00000000
00000000
00030100
00000000
00000000
,
00010100
00000000
00000000
00000000
00000000
00000000
00010000
00000000
00000000
00000010
00000000
00000000
00000000
00000000
00000000
00001000
00000000
00000000
00000001
00000000
00000000
00000000
00000000
00000000
00001001
00000000
00000000
00000000
00001000
00000000
00000000
00000000
00000100
00000000
00000000
00000000
00010200
00000000
00000000
00000000
00000000
00000000
00010000
00000000
00000000
00000000
00000000
00000000
,
00001300
00000000
00000001
00001000
00000010
00000000
00001010
00000000
00010000
00000100
00001000
00000000
00001100
00000000
00010020
00000000
,
00001030
00000000
00000000
00000000
00000100
00000000
00000000
00000000
00010000
00000000
00000000
00000000
00000010
00000000
00000000
00000100
00000000
00000000
00001000
00000000
00000000
00000100
00000000
00000000
00000010
00000000
00000000
00001000
00000000
00000000
00000001
00000000
00000000
00000010
00000000
00000000
00000100
00000000
00000000
00000001
00000000
00000000
00000100
00000000
00000000
00000010
00000000
00000000
,
00000001
00000000
00000010
00000000
00000220
00000000
00000330
00000000
00000100
00010000
00001000
00100000
00020000
00000000
00130000
00000000
,
00010000
00000000
00000000
01000000
00000000
00000000
00001000
00000000
00000000
00010000
00000000
00000000
00000100
00000000
00000000
00010000
00000000
00000000
00001000
00000000
00000000
01000000
00000000
00000000
00010000
00000000
00000000
00000000
00010000
00000000
00000000
00000000
00100000
00000000
00000000
00000000
00210000
00000000
00000000
00000000
00000000
00000000
00000000
00000000
00000000
00000000
00000000
00000000
,
00310000
10000000
01000000
00100000
00000000
00100000
00010000
00000000
,
00010000
01000000
00001000
00000000
00100000
01000000
10000000
00000000
,
00100000
01000000
00001000
00100000
00000000
01000000
10000000
00010000
,
01000000
00100000
10000000
00000000
00010000
01000000
01100000
00000000
;
