#TITLE:Invisible;
#SUBTITLE:;
#ARTIST:CHiNTOMO;
#TITLETRANSLIT:;
#SUBTITLETRANSLIT:;
#ARTISTTRANSLIT:;
#GENRE:;
#CREDIT:;
#BANNER:Invisible-bn.png;
#BACKGROUND:Invisible-bg.png;
#CDTITLE:NAOKI_cdtitle.png;
#MUSIC:Invisible.ogg;
#OFFSET:-0.035;
#SAMPLESTART:89.507000;
#SAMPLELENGTH:12.000000;
#SELECTABLE:YES;
#BPMS:0.000=118.000;
#STOPS:;
#BGCHANGES:;
#FGCHANGES:;

//---------------dance-single - NAOKI----------------
#NOTES:
     dance-single:
     NAOKI:
     Beginner:
     2:
     0.096179,0.160235,0.006733,0.000000,0.000000,100.000000,99.000000,1.000000,0.000000,0.000000,0.000000,0.096179,0.160235,0.006733,0.000000,0.000000,100.000000,99.000000,1.000000,0.000000,0.000000,0.000000:
0000
0000
0000
0000
,
0000
0000
0000
0000
,
0000
0000
0000
0000
,
0000
0000
0000
0000
,
0000
0000
0000
0000
,
0000
0000
0000
0000
,
0000
0000
0000
0000
,
0000
0000
0000
0000
,
0000
0000
0000
0000
,
0010
0000
0010
0000
,
0100
0000
0100
0000
,
0001
0000
1000
0000
,
0100
0000
0000
0000
,
0010
0000
0010
0000
,
0100
0000
0100
0000
,
1000
0000
0001
0000
,
0100
0000
0000
0000
,
0100
0000
0100
0000
,
0010
0000
0010
0000
,
1000
0000
0001
0000
,
0010
0000
0000
0000
,
0100
0000
0100
0000
,
0010
0000
0010
0000
,
0001
0000
1000
0000
,
0010
0000
0000
0000
,
1001
0000
0000
0000
,
0100
0000
0000
0000
,
0001
0000
0000
0000
,
1000
0000
0000
0000
,
0100
0000
0000
0000
,
0010
0000
0000
0000
,
0001
0000
0000
0000
,
1000
0000
0000
0000
,
0010
0000
0100
0000
,
0001
0001
0001
0000
,
0010
0000
0100
0000
,
1000
1000
1000
0000
,
0100
0000
0010
0000
,
0001
0001
0001
0000
,
0100
0000
0010
0000
,
1000
1000
1000
0000
,
0000
0000
0000
0000
,
0010
0000
0000
0000
,
0000
0000
0000
0000
,
1000
0000
1000
0000
,
0100
0000
0010
0000
,
0001
0000
0001
0000
,
0100
0000
0010
0000
,
1000
0000
1000
0000
,
0010
0000
0100
0000
,
0001
0000
0001
0000
,
1000
0000
0000
0000
,
0001
0000
0001
0000
,
0010
0000
0100
0000
,
1000
0000
1000
0000
,
0001
0010
0100
1000
,
0001
0000
0001
0000
,
0100
0000
0010
0000
,
1000
0000
1000
0000
,
0100
0000
0010
0000
,
0001
0000
0000
0000
,
0100
0000
0000
0000
,
0010
0000
0000
0000
,
1000
0000
0000
0000
,
0100
0000
0000
0000
,
0010
0000
0000
0000
,
0001
0000
0000
0000
,
0100
0000
0000
0000
,
0010
0000
0000
0000
;

//---------------dance-single - NAOKI----------------
#NOTES:
     dance-single:
     NAOKI:
     Easy:
     6:
     0.192359,0.228907,0.033663,0.000000,0.000000,200.000000,195.000000,5.000000,0.000000,0.000000,0.000000,0.192359,0.228907,0.033663,0.000000,0.000000,200.000000,195.000000,5.000000,0.000000,0.000000,0.000000:
0000
0000
0000
0000
,
0000
0000
0000
0000
,
0000
0000
0000
0000
,
0000
0000
0000
0000
,
0000
0000
0000
0000
,
0000
0000
0000
0000
,
0000
0000
0000
0000
,
0000
0000
0000
0000
,
0000
0000
0000
0000
,
0010
0010
1000
0100
,
0010
0010
0001
0100
,
1000
1000
0100
0001
,
0010
0000
0100
0000
,
0010
0010
0001
0100
,
0010
0010
1000
0100
,
0001
0001
0100
1000
,
0001
0000
1000
0000
,
0100
0100
1000
0010
,
0100
0100
0001
0010
,
1000
1000
0010
0001
,
0100
0000
0010
0000
,
0100
0100
0001
0010
,
0100
0100
1000
0010
,
0001
0001
0010
1000
,
0001
0000
1000
0100
,
0110
0000
0010
0000
,
0001
0000
0100
0000
,
0010
0000
1000
0000
,
0100
0000
0010
0001
,
0100
0000
0010
0000
,
1000
0000
0100
0000
,
0010
0000
0001
0000
,
0100
0000
0010
1000
,
0001
0001
0010
0100
,
1000
1000
0010
0100
,
0001
0001
0100
0010
,
1000
1000
0100
0010
,
0001
0001
1000
0010
,
0100
0100
0001
1000
,
0010
0010
0100
0001
,
1000
0010
0100
0001
,
1001
0000
0000
0000
,
1000
0100
0010
0001
,
0000
0000
0000
0000
,
1001
1000
0010
0100
,
0001
0001
0010
0100
,
1000
0010
0001
0010
,
1000
0100
0010
0001
,
1000
0001
0100
0010
,
1000
1000
0100
0010
,
0001
0100
1000
0100
,
0001
0010
0100
1000
,
1001
0001
0010
0100
,
1000
1000
0010
0100
,
0001
0010
1000
0010
,
0001
0100
0010
1000
,
0001
1000
0100
0010
,
0001
0001
0100
0010
,
1000
0100
0001
0100
,
1000
0010
0100
0001
,
1000
0000
1000
0000
,
0001
0000
0001
0000
,
0010
0000
0010
0000
,
0100
0000
0100
0000
,
1000
0000
1000
0000
,
0001
0000
0001
0000
,
0100
0000
0010
0000
,
1000
0100
0010
0001
,
1001
0000
0000
0000
;

//---------------dance-single - NAOKI----------------
#NOTES:
     dance-single:
     NAOKI:
     Medium:
     10:
     0.288538,0.320470,0.006733,0.000000,0.000000,300.000000,299.000000,1.000000,0.000000,0.000000,0.000000,0.288538,0.320470,0.006733,0.000000,0.000000,300.000000,299.000000,1.000000,0.000000,0.000000,0.000000:
0000
0000
0000
0000
,
0000
0000
0000
0000
,
0000
0000
0000
0000
,
0000
0000
0000
0000
,
0000
0000
0000
0000
,
0000
0000
0000
0000
,
0000
0000
0000
0000
,
0000
0000
0000
0000
,
0000
0000
0000
0000
,
1000
0100
0010
0000
0001
0000
1000
0000
,
0001
0100
0010
0000
1000
0000
0001
0000
,
0010
0100
1000
0000
0001
0000
1000
0000
,
0010
0100
0001
0000
1000
0100
0010
0000
,
0001
0100
0010
0000
1000
0000
0001
0000
,
1000
0100
0010
0000
0001
0000
1000
0000
,
0010
0100
0001
0000
1000
0000
0001
0000
,
0010
0100
1000
0001
0100
0010
0100
0001
,
1000
0010
0100
0000
0001
0000
1000
0000
,
0001
0010
0100
0000
1000
0000
0001
0000
,
0100
0010
1000
0000
0001
0000
1000
0000
,
0100
0010
0001
0000
1000
0010
0100
0000
,
0001
0010
0100
0000
1000
0000
0001
0000
,
1000
0010
0100
0000
0001
0000
1000
0000
,
0100
0010
0001
0000
1000
0000
0001
0000
,
0100
0010
1000
0001
0010
0100
0010
0001
,
1000
0000
0100
0000
,
0010
0000
0001
1000
,
0001
0000
0100
0000
,
0010
0000
0000
0000
1000
0100
0010
0100
,
1000
0000
0010
0000
,
0100
0000
0001
1000
,
0001
0000
0010
0000
,
0100
0000
0000
0000
1000
0010
0100
0010
,
1000
0100
0001
0100
,
1000
0010
0100
0001
0010
0100
1000
0000
,
0001
0100
1000
0100
,
0001
0010
0100
1000
0001
0100
0010
1000
,
0001
0010
1000
0010
,
0001
0100
0010
1000
0100
0010
0001
0000
,
1000
0010
0001
0010
,
1000
0100
0010
0001
1000
0010
0100
0001
,
0000
0000
0000
0000
,
0001
0100
0010
1000
0001
0010
0100
1000
,
0000
0000
0000
0000
,
1001
0000
0001
0100
0010
0000
1000
0000
,
0100
0010
0001
0000
1000
0010
0100
0010
,
1000
0000
0001
0010
0100
0000
1000
0000
,
0001
0100
0010
1000
0001
0010
0100
1000
,
0001
0000
1000
0100
0010
0000
0001
0000
,
0100
0010
1000
0000
0001
0010
0100
0010
,
0001
0000
1000
0010
0100
0000
0001
0000
,
1000
0100
0010
0001
1000
0010
0100
0001
,
1000
0000
1000
0010
0100
0000
0001
0000
,
0010
0100
1000
0000
0001
0100
0010
0100
,
0001
0000
1000
0100
0010
0000
0001
0000
,
1000
0010
0100
0001
1000
0100
0010
0001
,
1000
0000
0001
0010
0100
0000
1000
0000
,
0010
0100
0001
0000
1000
0100
0010
0100
,
1000
0000
0001
0100
0010
0000
1000
0000
,
0001
0010
0100
1000
0001
0100
0010
1000
,
0001
0001
0100
0100
,
0010
1000
0100
0010
,
0001
0100
0010
0010
,
1000
0100
0010
0001
,
1000
1000
0100
0100
,
0010
0001
0100
0100
,
0010
1000
0100
0010
,
0001
0100
0010
1000
,
0100
0000
0000
0000
;

//---------------dance-single - NAOKI----------------
#NOTES:
     dance-single:
     NAOKI:
     Hard:
     12:
     0.441463,0.480704,0.040395,0.000000,0.087523,459.000000,453.000000,6.000000,0.000000,0.000000,0.000000,0.441463,0.480704,0.040395,0.000000,0.087523,459.000000,453.000000,6.000000,0.000000,0.000000,0.000000:
0000
0000
0000
0000
,
0000
0000
0000
0000
,
0000
0000
0000
0000
,
0000
0000
0000
0000
,
0000
0000
0000
0000
,
0000
0000
0000
0000
,
0000
0000
0000
0000
,
0000
0000
0000
0000
,
0000
0000
0000
0000
,
1000
0010
0100
0000
0001
0010
0100
1000
,
0001
0100
0010
0000
1000
0100
0010
0001
,
0100
0001
1000
0100
0010
0001
1000
0010
,
0100
0001
1000
0001
0100
0010
1000
0001
,
1000
0100
0010
0000
0001
0100
0010
1000
,
0001
0010
0100
0000
1000
0010
0100
0001
,
0010
0001
1000
0010
0100
0001
0010
0100
,
1000
0001
0100
0010
0010
0100
0010
1000
,
0001
0010
0100
0000
1000
0010
0100
0001
,
1000
0100
0010
0000
0001
0100
0010
1000
,
0100
1000
0001
0100
0010
1000
0001
0010
,
0100
1000
0001
1000
0100
0010
0001
1000
,
0001
0100
0010
0000
1000
0100
0010
0001
,
1000
0010
0100
0000
0001
0010
0100
1000
,
0010
1000
0001
0010
0100
1000
0001
0100
,
0010
1000
0001
0010
0001
1000
0010
1000
,
1010
0000
1000
0100
0000
0100
0010
0000
,
0011
0000
0000
0000
1100
0000
0001
0100
,
0010
0000
1000
0100
0000
0100
0010
0001
,
1000
0000
0010
0000
1000
0100
0010
0001
,
0011
0000
0001
0100
0000
0100
0010
0000
,
1010
0000
0000
0000
0101
0000
1000
0100
,
0010
0000
0001
0100
0000
0100
0010
1000
,
0001
0000
0100
0000
0001
0010
0100
1000
,
0010
0010
1000
0001
0010
0010
0001
1000
,
0010
0100
0001
0010
0100
1000
0010
0010
,
0100
0100
0001
1000
0100
0100
1000
0001
,
0100
0010
1000
0100
0010
0001
0100
0100
,
0001
0001
0010
0100
1000
1000
0010
0100
,
0001
0010
0100
1000
0001
1000
0010
0010
,
0100
0001
1000
0100
1000
0001
0100
0001
,
1000
0010
0100
0001
1000
0000
0001
0000
1000
0000
0100
0000
0010
0000
0001
0000
,
0000
0000
0000
0000
,
0100
0001
0010
0100
1000
0001
0100
0010
,
0000
0000
0000
0000
,
1000
0100
0010
0001
0100
0000
0010
0000
1000
0000
0001
0000
0010
0000
0010
0000
,
0100
0000
1000
0000
0001
0100
0010
0100
0001
0000
1000
0000
0001
0000
0001
0000
,
0010
0100
1000
0001
0100
0000
0010
0000
1000
0000
0100
0000
0010
0000
0001
0000
,
1000
1000
0010
0010
0100
0100
0001
1000
,
0001
0100
0010
1000
0100
0000
0010
0000
0001
0000
1000
0000
0010
0000
0010
0000
,
0100
0000
0001
0000
1000
0100
0010
0100
1000
0000
0001
0000
1000
0000
1000
0000
,
0010
0100
0001
1000
0100
0000
0010
0000
0001
0000
0100
0000
0010
0000
1000
0000
,
0001
0010
0100
1000
0001
0100
0010
1000
,
0001
0010
0100
1000
0010
0000
0100
0000
0001
0000
1000
0000
0100
0000
0100
0000
,
0010
0000
0001
0000
1000
0010
0100
0010
1000
0000
0001
0000
1000
0000
1000
0000
,
0100
0010
0001
1000
0010
0000
0100
0000
0001
0000
0010
0000
0100
0000
1000
0000
,
0001
0001
0100
0100
0010
0010
1000
0001
,
1000
0010
0100
0001
0010
0000
0100
0000
1000
0000
0001
0000
0100
0000
0100
0000
,
0010
0000
1000
0000
0001
0010
0100
0010
0001
0000
1000
0000
0001
0000
0001
0000
,
0100
0010
1000
0001
0010
0000
0100
0000
1000
0000
0010
0000
0100
0000
0001
0000
,
1000
0100
0010
0001
1000
0010
0100
0001
,
1000
0100
0010
0001
1000
0010
0100
0100
,
0001
1000
0100
0100
0010
0001
1000
0010
,
0100
0100
0010
1000
0001
0010
0100
0100
,
1000
1000
0001
0001
0100
0100
0010
1000
,
0001
0010
0100
1000
0001
0100
0010
0010
,
1000
0001
0010
0010
0100
1000
0001
0100
,
0010
0010
0100
0001
1000
0100
0010
0010
,
0001
0100
0010
1000
0001
0010
0100
1000
,
0010
0000
0000
0000
;

//---------------dance-single - NAOKI----------------
#NOTES:
     dance-single:
     NAOKI:
     Challenge:
     14:
     0.577076,0.732502,0.242372,0.000000,0.437616,600.000000,564.000000,36.000000,0.000000,0.000000,0.000000,0.577076,0.732502,0.242372,0.000000,0.437616,600.000000,564.000000,36.000000,0.000000,0.000000,0.000000:
0000
0000
0000
0000
,
0000
0000
0000
0000
,
0000
0000
0000
0000
,
0000
0000
0000
0000
,
0000
0000
0000
0000
,
0000
0000
0000
0000
,
0000
0000
0000
0000
,
0000
0000
0000
0000
,
0000
0000
0000
0000
,
1000
0000
0010
0000
0010
0000
0100
0001
0000
0001
0010
0000
0100
0000
1000
0000
,
0001
0000
0100
0000
0100
0000
0010
1000
0000
1000
0100
0000
0010
0001
1000
0010
,
0100
0000
0001
0000
1000
0000
0100
0010
0000
0010
0001
0000
1000
0000
0010
0000
,
0100
0001
0010
0100
1000
0000
0001
0100
0000
0100
0010
0000
1000
0000
0001
0000
,
1000
0000
0100
0000
0100
0000
0010
0001
0000
0001
0100
0000
0010
0000
1000
0000
,
0001
0000
0010
0000
0010
0000
0100
1000
0000
1000
0010
0000
0100
0001
1000
0100
,
0010
0000
0001
0000
1000
0000
0010
0100
0000
0100
0001
0000
0010
0000
0100
0000
,
1000
0000
0001
0000
0100
0000
0100
0010
0000
0010
0100
0000
0010
0000
1000
0000
,
0001
0000
0010
0000
0010
0000
0100
1000
0000
1000
0010
0000
0100
0000
0001
0000
,
1000
0000
0100
0000
0100
0000
0010
0001
0000
0001
0100
0000
0010
1000
0001
0010
,
0100
0000
1000
0000
0001
0000
0100
0010
0000
0010
1000
0000
0001
0000
0010
0000
,
0100
1000
0010
0100
0001
0000
1000
0100
0000
0100
0010
0000
0001
0000
1000
0000
,
0001
0000
0100
0000
0100
0000
0010
1000
0000
1000
0100
0000
0010
0000
0001
0000
,
1000
0000
0010
0000
0010
0000
0100
0001
0000
0001
0010
0000
0100
1000
0001
0100
,
0010
0000
1000
0000
0001
0000
0010
0100
0000
0100
1000
0000
0001
0000
0100
0000
,
0010
1000
0001
0010
0100
1000
0001
0100
0001
1000
0100
0010
0001
1000
0010
0000
,
0110
0000
0100
0001
1000
0100
0100
0000
,
1100
0010
0001
0000
0011
0100
1000
0001
,
0100
0010
0001
0010
1000
0100
0001
0100
,
0010
0001
0100
0000
0010
1000
0001
0010
,
0110
0000
0100
1000
0001
0100
0100
0000
,
0101
0010
1000
0000
1010
0100
0001
1000
,
0100
0010
1000
0010
0001
0100
1000
0100
,
0010
1000
0100
0000
0010
0001
1000
0010
,
0100
0100
0001
1000
0100
0100
0010
0001
,
1000
0010
0100
0001
0010
0000
0100
0000
1000
0000
0001
0000
0100
0000
0100
0000
,
0010
0010
1000
0001
0010
0010
0100
1000
,
0001
0100
0010
1000
0100
0000
0010
0000
0001
0000
0100
0000
0010
0000
0010
0000
,
1000
1000
0100
0010
0001
0001
0100
0010
,
1000
0100
0010
0100
1000
0000
0010
0000
0100
0000
0001
0000
0010
0000
0010
0000
,
0100
1000
0001
0100
0010
0100
0001
1000
0100
0010
0100
1000
0001
1000
0010
0100
,
0010
1000
0001
0010
0100
0010
0001
1000
0010
0100
0010
1000
0100
1000
0001
0100
,
0000
0000
0000
0000
,
0100
0010
1000
0001
0010
0000
0100
0000
1000
0000
0001
0000
0100
0000
0010
0000
,
0000
0000
0000
0000
,
1000
0100
0010
0001
0100
0000
0010
0000
1000
0000
0100
0000
0011
0000
1010
0000
,
0100
0000
0001
0000
1000
0100
0010
0100
1000
0000
0010
0000
0100
0000
0001
0000
,
0010
0100
1000
0001
0100
0000
0010
0000
1000
0000
0100
0000
0010
0000
0001
0000
,
0101
1100
0011
1010
1100
0101
1010
0011
,
0001
0100
0010
1000
0100
0000
0010
0000
0001
0000
0100
0000
1010
0000
0011
0000
,
0100
0000
1000
0000
0001
0100
0010
0100
0001
0000
0010
0000
0100
0000
1000
0000
,
0010
0100
0001
1000
0100
0000
0010
0000
0001
0000
0100
0000
0010
0000
1000
0000
,
0001
0010
0100
1000
0001
0100
0010
1000
0001
1000
0100
0010
0001
1000
0010
0100
,
0001
0010
0100
1000
0010
0000
0100
0000
0001
0000
0010
0000
1100
0000
0101
0000
,
0010
0000
1000
0000
0001
0010
0100
0010
0001
0000
0100
0000
0010
0000
1000
0000
,
0100
0010
0001
1000
0010
0000
0100
0000
0001
0000
0010
0000
0100
0000
1000
0000
,
1010
0011
1100
0101
0011
1010
0101
1100
,
1000
0010
0100
0001
0010
0000
0100
0000
1000
0000
0010
0000
0101
0000
1100
0000
,
0010
0000
0001
0000
1000
0010
0100
0010
1000
0000
0100
0000
0010
0000
0001
0000
,
0100
0010
1000
0001
0010
0000
0100
0000
1000
0000
0010
0000
0100
0000
0001
0000
,
1000
0100
0010
0001
1000
0010
0100
0001
1000
0001
0010
0100
1000
0001
0100
0010
,
1000
0100
0010
0001
1000
0010
0100
0100
,
0001
0000
0010
0000
0100
1000
0001
1000
0010
0000
0100
0000
0001
0000
1000
0000
,
0100
0010
0001
1000
0010
0000
0100
0000
0001
0000
0010
0000
0100
0000
0100
0000
,
1000
1010
0001
0011
1100
0101
1010
0011
,
0001
0100
0010
1000
0100
0000
0010
0000
0001
0000
0100
0000
0010
0000
0010
0000
,
1000
0000
0100
0000
0010
0001
1000
0001
0100
0000
0010
0000
1000
0000
0001
0000
,
0010
0100
1000
0001
0100
0000
0010
0000
1000
0000
0100
0000
0010
0000
0010
0000
,
0001
0100
0010
1000
0001
0010
0100
1000
0001
1000
0010
0100
0001
1000
0100
0010
,
0001
0000
0000
0000
;

//---------------dance-double - [FG v1.00] NAOKI----------------
#NOTES:
     dance-double:
     [FG v1.00] NAOKI:
     Beginner:
     2:
     0.096179,0.160235,0.006733,0.000000,0.000000,100.000000,99.000000,1.000000,0.000000,0.000000,0.000000,0.096179,0.160235,0.006733,0.000000,0.000000,100.000000,99.000000,1.000000,0.000000,0.000000,0.000000:
00000000
00000000
00000000
00000000
,
00000000
00000000
00000000
00000000
,
00000000
00000000
00000000
00000000
,
00000000
00000000
00000000
00000000
,
00000000
00000000
00000000
00000000
,
00000000
00000000
00000000
00000000
,
00000000
00000000
00000000
00000000
,
00000000
00000000
00000000
00000000
,
00000000
00000000
00000000
00000000
,
00000100
00000000
00000100
00000000
,
00001000
00000000
00001000
00000000
,
00000001
00000000
00000100
00000000
,
00000010
00000000
00000000
00000000
,
00010000
00000000
00010000
00000000
,
00000010
00000000
00000010
00000000
,
00001000
00000000
00000100
00000000
,
00010000
00000000
00000000
00000000
,
00010000
00000000
00010000
00000000
,
00001000
00000000
00001000
00000000
,
01000000
00000000
00100000
00000000
,
10000000
00000000
00000000
00000000
,
01000000
00000000
01000000
00000000
,
10000000
00000000
10000000
00000000
,
00010000
00000000
00100000
00000000
,
00001000
00000000
00000000
00000000
,
00110000
00000000
00000000
00000000
,
01000000
00000000
00000000
00000000
,
00010000
00000000
00000000
00000000
,
10000000
00000000
00000000
00000000
,
01000000
00000000
00000000
00000000
,
00100000
00000000
00000000
00000000
,
00001000
00000000
00000000
00000000
,
00010000
00000000
00000000
00000000
,
00000010
00000000
00001000
00000000
,
00000001
00000001
00000001
00000000
,
00000100
00000000
00000010
00000000
,
00001000
00001000
00001000
00000000
,
00000010
00000000
00010000
00000000
,
00000100
00000100
00000100
00000000
,
00001000
00000000
00000010
00000000
,
00010000
00010000
00010000
00000000
,
00000000
00000000
00000000
00000000
,
00000010
00000000
00000000
00000000
,
00000000
00000000
00000000
00000000
,
00010000
00000000
00010000
00000000
,
00001000
00000000
01000000
00000000
,
00100000
00000000
00100000
00000000
,
10000000
00000000
00010000
00000000
,
01000000
00000000
01000000
00000000
,
00010000
00000000
00100000
00000000
,
00001000
00000000
00001000
00000000
,
01000000
00000000
00000000
00000000
,
00001000
00000000
00001000
00000000
,
00100000
00000000
00010000
00000000
,
01000000
00000000
01000000
00000000
,
00001000
00010000
00000100
00000010
,
00000001
00000000
00000001
00000000
,
00000100
00000000
00000010
00000000
,
00001000
00000000
00001000
00000000
,
00000100
00000000
00010000
00000000
,
00001000
00000000
00000000
00000000
,
00100000
00000000
00000000
00000000
,
00010000
00000000
00000000
00000000
,
10000000
00000000
00000000
00000000
,
01000000
00000000
00000000
00000000
,
00100000
00000000
00000000
00000000
,
00001000
00000000
00000000
00000000
,
00010000
00000000
00000000
00000000
,
00000100
00000000
00000000
00000000
;

//---------------dance-double - [FG v1.00] NAOKI----------------
#NOTES:
     dance-double:
     [FG v1.00] NAOKI:
     Easy:
     6:
     0.192359,0.228907,0.033663,0.000000,0.000000,200.000000,195.000000,5.000000,0.000000,0.000000,0.000000,0.192359,0.228907,0.033663,0.000000,0.000000,200.000000,195.000000,5.000000,0.000000,0.000000,0.000000:
00000000
00000000
00000000
00000000
,
00000000
00000000
00000000
00000000
,
00000000
00000000
00000000
00000000
,
00000000
00000000
00000000
00000000
,
00000000
00000000
00000000
00000000
,
00000000
00000000
00000000
00000000
,
00000000
00000000
00000000
00000000
,
00000000
00000000
00000000
00000000
,
00000000
00000000
00000000
00000000
,
00000100
00000100
00010000
00000010
,
00001000
00001000
00000001
00000100
,
00001000
00001000
00000100
00000010
,
00010000
00000000
00000100
00000000
,
00010000
00010000
00001000
01000000
,
00100000
00100000
10000000
01000000
,
00010000
00010000
01000000
00100000
,
00010000
00000000
00100000
00000000
,
00001000
00001000
00100000
00010000
,
01000000
01000000
00001000
00010000
,
01000000
01000000
00010000
00001000
,
01000000
00000000
00100000
00000000
,
01000000
01000000
00001000
00010000
,
00000100
00000100
00001000
00000010
,
00000001
00000001
00000010
00001000
,
00000001
00000000
00001000
00000010
,
00010010
00000000
00010000
00000000
,
00000100
00000000
00001000
00000000
,
00000010
00000000
00010000
00000000
,
00001000
00000000
00100000
00010000
,
10000000
00000000
01000000
00000000
,
00100000
00000000
00001000
00000000
,
00010000
00000000
00000100
00000000
,
00001000
00000000
00000010
00000100
,
00000001
00000001
00001000
00000100
,
00010000
00010000
00001000
00100000
,
00010000
00010000
00100000
01000000
,
10000000
10000000
00010000
00100000
,
00001000
00001000
00010000
00000010
,
00001000
00001000
00000100
00000010
,
00000001
00000001
00000100
00000010
,
00010000
00001000
01000000
00010000
,
10010000
00000000
00000000
00000000
,
10000000
01000000
00100000
00001000
,
00000000
00000000
00000000
00000000
,
00011000
00010000
00000010
00001000
,
00000100
00000100
00010000
00001000
,
01000000
00100000
00010000
00100000
,
10000000
01000000
00100000
00001000
,
01000000
00001000
00010000
00000100
,
00000010
00000010
00000001
00001000
,
00000010
00000100
00001000
00000100
,
00000001
00001000
00000100
00010000
,
00011000
00001000
01000000
00010000
,
10000000
10000000
00100000
01000000
,
00010000
00100000
10000000
00100000
,
00010000
01000000
00001000
00010000
,
00000010
00010000
00000100
00001000
,
00000010
00000010
00010000
00001000
,
00100000
01000000
00010000
01000000
,
00100000
00001000
00010000
00000100
,
00001000
00000000
00001000
00000000
,
00000100
00000000
00000100
00000000
,
00000010
00000000
00000010
00000000
,
00000001
00000000
00000001
00000000
,
00001000
00000000
00001000
00000000
,
00000100
00000000
00000100
00000000
,
00010000
00000000
00001000
00000000
,
01000000
00100000
10000000
00010000
,
01010000
00000000
00000000
00000000
;

//---------------dance-double - [FG v1.00] NAOKI----------------
#NOTES:
     dance-double:
     [FG v1.00] NAOKI:
     Medium:
     10:
     0.288538,0.320470,0.006733,0.000000,0.000000,300.000000,299.000000,1.000000,0.000000,0.000000,0.000000,0.288538,0.320470,0.006733,0.000000,0.000000,300.000000,299.000000,1.000000,0.000000,0.000000,0.000000:
00000000
00000000
00000000
00000000
,
00000000
00000000
00000000
00000000
,
00000000
00000000
00000000
00000000
,
00000000
00000000
00000000
00000000
,
00000000
00000000
00000000
00000000
,
00000000
00000000
00000000
00000000
,
00000000
00000000
00000000
00000000
,
00000000
00000000
00000000
00000000
,
00000000
00000000
00000000
00000000
,
00010000
00000100
00001000
00000000
00000010
00000000
00000100
00000000
,
00000010
00010000
00001000
00000000
01000000
00000000
00100000
00000000
,
10000000
00010000
01000000
00000000
00001000
00000000
01000000
00000000
,
00010000
00100000
00001000
00000000
00010000
00000100
00001000
00000000
,
00000001
00000010
00000100
00000000
00001000
00000000
00000001
00000000
,
00001000
00000010
00010000
00000000
00001000
00000000
00100000
00000000
,
01000000
10000000
00010000
00000000
00100000
00000000
00010000
00000000
,
01000000
00001000
00010000
00000100
00001000
00000001
00001000
00000010
,
00010000
00001000
01000000
00000000
00010000
00000000
00100000
00000000
,
00010000
10000000
00100000
00000000
01000000
00000000
00001000
00000000
,
00010000
00000010
00000100
00000000
00000001
00000000
00000100
00000000
,
00000010
00001000
00000100
00000000
00010000
00001000
01000000
00000000
,
00010000
10000000
01000000
00000000
00100000
00000000
00010000
00000000
,
00100000
00001000
00010000
00000000
00000100
00000000
00001000
00000000
,
00000001
00000100
00000010
00000000
00001000
00000000
00000010
00000000
,
00010000
00001000
01000000
00010000
10000000
00100000
10000000
00010000
,
01000000
00000000
00001000
00000000
,
00010000
00000000
00000100
00000010
,
00000100
00000000
00001000
00000000
,
00000001
00000000
00000000
00000000
00000010
00000100
00001000
00000100
,
00010000
00000000
00001000
00000000
,
00100000
00000000
00010000
01000000
,
00010000
00000000
10000000
00000000
,
00100000
00000000
00000000
00000000
01000000
00001000
00010000
00001000
,
00100000
01000000
00010000
01000000
,
10000000
00010000
00100000
00001000
00010000
00000010
00001000
00000000
,
00000001
00000100
00001000
00000100
,
00000001
00000010
00000100
00001000
00000010
00010000
00001000
01000000
,
00010000
00100000
10000000
00100000
,
00010000
01000000
00001000
00010000
00000010
00001000
00000001
00000000
,
00000100
00000010
00000001
00000010
,
00001000
00000100
00010000
00001000
00100000
00010000
01000000
00001000
,
00000000
00000000
00000000
00000000
,
00001000
01000000
00010000
10000000
00100000
01000000
00001000
00010000
,
00000000
00000000
00000000
00000000
,
00010100
00000000
00000100
00001000
00000001
00000000
00000010
00000000
,
00000100
00010000
00001000
00000000
01000000
00010000
10000000
00010000
,
00100000
00000000
00001000
01000000
00010000
00000000
00100000
00000000
,
00001000
00010000
00000100
00001000
00000010
00010000
00001000
01000000
,
00100000
00000000
01000000
00010000
10000000
00000000
01000000
00000000
,
00100000
00001000
00010000
00000000
00000010
00000100
00000001
00000100
,
00000010
00000000
00001000
00000100
00010000
00000000
00001000
00000000
,
01000000
00100000
10000000
00010000
01000000
00001000
00010000
00000010
,
00001000
00000000
00001000
00000001
00000100
00000000
00000010
00000000
,
00010000
00001000
00100000
00000000
00010000
10000000
01000000
10000000
,
00010000
00000000
00100000
00001000
00010000
00000000
00000100
00000000
,
00001000
00000001
00000100
00000010
00010000
00001000
01000000
00010000
,
00100000
00000000
00010000
01000000
00001000
00000000
00010000
00000000
,
00000100
00001000
00000010
00000000
00000100
00000001
00001000
00000001
,
00000010
00000000
00000100
00010000
00001000
00000000
00100000
00000000
,
01000000
10000000
00010000
01000000
00001000
00010000
00000100
00001000
,
00000010
00000010
00010000
00010000
,
00001000
01000000
00100000
10000000
,
01000000
00100000
00001000
00001000
,
01000000
00010000
00100000
00001000
,
00010000
00010000
00000100
00000100
,
00001000
00000001
00000010
00000010
,
00000100
00001000
00000010
00010000
,
00001000
00100000
01000000
10000000
,
00010000
00000000
00000000
00000000
;

//---------------dance-double - [FG v1.00] NAOKI----------------
#NOTES:
     dance-double:
     [FG v1.00] NAOKI:
     Hard:
     12:
     0.441463,0.480704,0.040395,0.000000,0.087523,459.000000,453.000000,6.000000,0.000000,0.000000,0.000000,0.441463,0.480704,0.040395,0.000000,0.087523,459.000000,453.000000,6.000000,0.000000,0.000000,0.000000:
00000000
00000000
00000000
00000000
,
00000000
00000000
00000000
00000000
,
00000000
00000000
00000000
00000000
,
00000000
00000000
00000000
00000000
,
00000000
00000000
00000000
00000000
,
00000000
00000000
00000000
00000000
,
00000000
00000000
00000000
00000000
,
00000000
00000000
00000000
00000000
,
00000000
00000000
00000000
00000000
,
00010000
00000100
00001000
00000000
00000001
00000010
00000100
00010000
,
00001000
00100000
01000000
00000000
10000000
00100000
01000000
00010000
,
10000000
00010000
01000000
00001000
00010000
00000010
00001000
00000001
,
00000010
00000100
00001000
00000100
00010000
00001000
00100000
00010000
,
00100000
00001000
00010000
00000000
00000010
00001000
00000100
00010000
,
00001000
01000000
00010000
00000000
10000000
01000000
00100000
00001000
,
01000000
00001000
00010000
00000010
00000100
00000001
00001000
00000100
,
00010000
00001000
01000000
00010000
00010000
01000000
00010000
00100000
,
00001000
00010000
00000100
00000000
00000010
00000001
00000100
00000010
,
00001000
00000100
00010000
00000000
00001000
00100000
01000000
10000000
,
00100000
10000000
01000000
00100000
00001000
00010000
00000010
00000100
,
00000001
00001000
00000010
00001000
00000100
00010000
00001000
01000000
,
00001000
00100000
00010000
00000000
01000000
00001000
00010000
00000010
,
00000100
00000001
00000010
00000000
00000100
00010000
00001000
01000000
,
00010000
01000000
00100000
10000000
00010000
00100000
00001000
00010000
,
00000010
00001000
00000100
00010000
00000100
00001000
00000001
00001000
,
00001001
00000000
00001000
00000010
00000000
00000010
00010000
00000000
,
00011000
00000000
00000000
00000000
01010000
00000000
00001000
00100000
,
00010000
00000000
10000000
01000000
00000000
01000000
00100000
00010000
,
10000000
00000000
00100000
00000000
10000000
00010000
01000000
00001000
,
01001000
00000000
00001000
00010000
00000000
00010000
00000100
00000000
,
00001100
00000000
00000000
00000000
00000011
00000000
00000100
00000010
,
00001000
00000000
00000100
00010000
00000000
00010000
00001000
01000000
,
00100000
00000000
10000000
00000000
00100000
01000000
00001000
00010000
,
00000010
00000010
00010000
00001000
00100000
00100000
00001000
00010000
,
00000100
00001000
00000001
00000100
00000010
00010000
00001000
00001000
,
01000000
01000000
00010000
10000000
00100000
00100000
10000000
00010000
,
01000000
00001000
00010000
00000100
00000010
00000001
00000100
00000100
,
00000001
00000001
00001000
00000010
00010000
00010000
00000100
00001000
,
00000010
00010000
00001000
01000000
00010000
01000000
00001000
00001000
,
00100000
00010000
10000000
01000000
10000000
00010000
00100000
00010000
,
10000000
01000000
00100000
00001000
00010000
00000000
00001000
00000000
00010000
00000000
00000100
00000000
00000010
00000000
00000001
00000000
,
00000000
00000000
00000000
00000000
,
00001000
00000001
00000100
00000010
00001000
00000100
00010000
00000010
,
00000000
00000000
00000000
00000000
,
00001000
00000100
00010000
00001000
01000000
00000000
00010000
00000000
00100000
00000000
00001000
00000000
01000000
00000000
01000000
00000000
,
00010000
00000000
00100000
00000000
00001000
00010000
00000100
00010000
00000010
00000000
00001000
00000000
00000010
00000000
00000010
00000000
,
00000100
00000001
00001000
00000100
00010000
00000000
00001000
00000000
01000000
00000000
00010000
00000000
00100000
00000000
01000000
00000000
,
10000000
10000000
00010000
00010000
00100000
00100000
00001000
01000000
,
00001000
00010000
00000100
00001000
00000010
00000000
00000100
00000000
00000001
00000000
00001000
00000000
00000010
00000000
00000010
00000000
,
00010000
00000000
00001000
00000000
01000000
00010000
10000000
00010000
00100000
00000000
00001000
00000000
00100000
00000000
00100000
00000000
,
01000000
10000000
00010000
01000000
00001000
00000000
00010000
00000000
00000100
00000000
00001000
00000000
00000001
00000000
00000100
00000000
,
00000010
00001000
00000001
00000010
00000100
00010000
00001000
01000000
,
00010000
10000000
00100000
01000000
00001000
00000000
00010000
00000000
00000100
00000000
00001000
00000000
00000001
00000000
00000001
00000000
,
00000010
00000000
00000100
00000000
00010000
00001000
01000000
00001000
00010000
00000000
00000100
00000000
00010000
00000000
00010000
00000000
,
00001000
01000000
00100000
10000000
00010000
00000000
01000000
00000000
00001000
00000000
00100000
00000000
00010000
00000000
01000000
00000000
,
00001000
00001000
00010000
00010000
00000100
00000100
00001000
00000010
,
00001000
00000001
00000010
00000100
00010000
00000000
00001000
00000000
00100000
00000000
01000000
00000000
10000000
00000000
10000000
00000000
,
00010000
00000000
00100000
00000000
00001000
00010000
00000010
00010000
00000100
00000000
00001000
00000000
00000100
00000000
00000100
00000000
,
00000010
00000001
00001000
00000010
00010000
00000000
00001000
00000000
00100000
00000000
01000000
00000000
10000000
00000000
00010000
00000000
,
01000000
00001000
00100000
00010000
01000000
00001000
00100000
00010000
,
01000000
00001000
00010000
00000010
00001000
00000001
00000100
00000100
,
00000010
00010000
00001000
00001000
01000000
00100000
10000000
00010000
,
00100000
00100000
00010000
01000000
00001000
00010000
00000100
00000100
,
00000010
00000010
00000001
00000001
00001000
00001000
00000100
00010000
,
00001000
01000000
00010000
00100000
01000000
10000000
00010000
00010000
,
01000000
00001000
00010000
00010000
00000100
00000010
00000001
00001000
,
00000100
00000100
00001000
00000010
00010000
00001000
01000000
01000000
,
00100000
10000000
00010000
00100000
00001000
00010000
00000010
00001000
,
00000001
00000000
00000000
00000000
;

//---------------dance-double - [FG v1.00] NAOKI----------------
#NOTES:
     dance-double:
     [FG v1.00] NAOKI:
     Challenge:
     14:
     0.577076,0.732502,0.242372,0.000000,0.437616,600.000000,564.000000,36.000000,0.000000,0.000000,0.000000,0.577076,0.732502,0.242372,0.000000,0.437616,600.000000,564.000000,36.000000,0.000000,0.000000,0.000000:
00000000
00000000
00000000
00000000
,
00000000
00000000
00000000
00000000
,
00000000
00000000
00000000
00000000
,
00000000
00000000
00000000
00000000
,
00000000
00000000
00000000
00000000
,
00000000
00000000
00000000
00000000
,
00000000
00000000
00000000
00000000
,
00000000
00000000
00000000
00000000
,
00000000
00000000
00000000
00000000
,
00010000
00000000
00000100
00000000
00000100
00000000
00001000
00000010
00000000
00000010
00010000
00000000
00001000
00000000
01000000
00000000
,
00010000
00000000
10000000
00000000
10000000
00000000
00100000
01000000
00000000
01000000
00001000
00000000
00100000
00010000
01000000
00001000
,
00010000
00000000
00000010
00000000
00000100
00000000
00000001
00001000
00000000
00001000
00000100
00000000
00010000
00000000
00001000
00000000
,
00100000
00010000
10000000
01000000
00100000
00000000
00001000
00010000
00000000
00010000
00000010
00000000
00001000
00000000
00000100
00000000
,
00001000
00000000
00000001
00000000
00000001
00000000
00000100
00000010
00000000
00000010
00010000
00000000
00001000
00000000
00100000
00000000
,
00010000
00000000
01000000
00000000
01000000
00000000
00001000
00100000
00000000
00100000
00010000
00000000
01000000
00001000
00010000
00000100
,
00001000
00000000
00000001
00000000
00000100
00000000
00000010
00010000
00000000
00010000
00000100
00000000
00001000
00000000
00000001
00000000
,
00000010
00000000
00000100
00000000
00010000
00000000
00010000
00001000
00000000
00001000
00010000
00000000
00001000
00000000
01000000
00000000
,
00100000
00000000
10000000
00000000
10000000
00000000
00010000
01000000
00000000
01000000
00001000
00000000
00100000
00000000
01000000
00000000
,
10000000
00000000
00010000
00000000
00010000
00000000
00100000
00001000
00000000
00001000
00010000
00000000
00000100
00001000
00000010
00000100
,
00000001
00000000
00001000
00000000
00000010
00000000
00010000
00000100
00000000
00000100
00001000
00000000
00000010
00000000
00010000
00000000
,
00001000
00100000
01000000
10000000
00010000
00000000
01000000
00001000
00000000
00001000
00100000
00000000
00010000
00000000
10000000
00000000
,
00010000
00000000
01000000
00000000
01000000
00000000
00001000
00010000
00000000
00010000
00000100
00000000
00000010
00000000
00000001
00000000
,
00001000
00000000
00000100
00000000
00000100
00000000
00000010
00000001
00000000
00000001
00001000
00000000
00000010
00010000
00001000
00100000
,
00010000
00000000
10000000
00000000
00100000
00000000
01000000
00010000
00000000
00010000
00100000
00000000
00001000
00000000
00010000
00000000
,
00000010
00001000
00000100
00010000
00001000
00100000
01000000
10000000
01000000
00100000
00001000
00010000
00000010
00001000
00000001
00000000
,
00000101
00000000
00000100
00000010
00010000
00001000
00001000
00000000
,
00011000
01000000
00010000
00000000
01010000
00001000
00100000
01000000
,
10000000
00100000
00010000
00100000
10000000
01000000
00010000
01000000
,
00100000
00001000
00010000
00000000
00000010
00000100
00000001
00001000
,
00001100
00000000
00000100
00010000
00000010
00001000
00001000
00000000
,
00001010
00000100
00000010
00000000
00000110
00010000
00001000
01000000
,
00010000
00100000
10000000
00100000
00010000
01000000
10000000
01000000
,
00010000
00100000
00001000
00000000
00010000
00000100
00001000
00000010
,
00010000
00010000
00000100
00001000
00000001
00000001
00000100
00000010
,
00001000
00000100
00010000
00001000
01000000
00000000
00100000
00000000
10000000
00000000
00010000
00000000
01000000
00000000
01000000
00000000
,
00001000
00001000
00010000
00000100
00001000
00001000
00000010
00010000
,
00000100
00000010
00000001
00001000
00000100
00000000
00010000
00000000
00001000
00000000
01000000
00000000
00010000
00000000
00010000
00000000
,
00100000
00100000
01000000
10000000
00010000
00010000
01000000
00001000
,
00010000
00000010
00001000
00000010
00000100
00000000
00000001
00000000
00001000
00000000
00000100
00000000
00010000
00000000
00010000
00000000
,
00001000
00100000
01000000
10000000
00100000
10000000
01000000
00100000
00001000
01000000
00001000
00010000
00000010
00010000
00000100
00001000
,
00000100
00010000
00000010
00001000
00000001
00001000
00000010
00010000
00000100
00000010
00000100
00001000
00000001
00001000
00000100
00010000
,
00000000
00000000
00000000
00000000
,
00010000
00001000
00100000
01000000
10000000
00000000
00010000
00000000
01000000
00000000
00001000
00000000
00100000
00000000
00010000
00000000
,
00000000
00000000
00000000
00000000
,
10000000
01000000
00100000
00001000
00010000
00000000
00000010
00000000
00001000
00000000
00000001
00000000
00010100
00000000
00000011
00000000
,
00001000
00000000
00000100
00000000
00010000
00001000
01000000
00001000
00100000
00000000
00010000
00000000
01000000
00000000
00001000
00000000
,
00010000
00000010
00000100
00000001
00000010
00000000
00000100
00000000
00010000
00000000
00001000
00000000
01000000
00000000
00010000
00000000
,
00110000
11000000
00101000
10010000
11000000
00101000
00010010
00000101
,
00000001
00001000
00000100
00010000
00001000
00000000
01000000
00000000
00010000
00000000
00100000
00000000
01001000
00000000
00110000
00000000
,
00001000
00000000
00010000
00000000
00000100
00001000
00000010
00001000
00000001
00000000
00000010
00000000
00000100
00000000
00010000
00000000
,
00001000
01000000
00010000
10000000
01000000
00000000
00100000
00000000
00010000
00000000
01000000
00000000
00001000
00000000
00010000
00000000
,
00000100
00000010
00000001
00001000
00000100
00010000
00000010
00001000
00000100
00001000
00000010
00010000
00001000
00100000
00010000
10000000
,
01000000
00100000
00010000
10000000
00100000
00000000
01000000
00000000
00001000
00000000
00010000
00000000
00001100
00000000
00000011
00000000
,
00000100
00000000
00010000
00000000
00000010
00001000
00000001
00001000
00000100
00000000
00010000
00000000
00001000
00000000
00100000
00000000
,
00010000
01000000
00001000
00100000
01000000
00000000
10000000
00000000
00010000
00000000
01000000
00000000
00001000
00000000
00010000
00000000
,
00010100
01001000
00010010
00001100
00000110
00001001
00010010
00101000
,
00100000
00010000
01000000
00100000
10000000
00000000
00010000
00000000
01000000
00000000
00001000
00000000
00010100
00000000
00001010
00000000
,
00010000
00000000
00000100
00000000
00001000
00000001
00000010
00000001
00001000
00000000
00000100
00000000
00010000
00000000
00001000
00000000
,
01000000
00010000
10000000
00100000
01000000
00000000
00010000
00000000
10000000
00000000
00100000
00000000
01000000
00000000
00001000
00000000
,
00010000
00000100
00000010
00000001
00001000
00000010
00010000
00000100
00001000
00000100
00010000
00001000
01000000
00100000
10000000
00010000
,
01000000
00001000
00010000
00000010
00001000
00000100
00010000
00010000
,
00001000
00000000
00100000
00000000
01000000
10000000
00010000
10000000
00100000
00000000
01000000
00000000
00001000
00000000
00010000
00000000
,
00000010
00001000
00000001
00000100
00000010
00000000
00001000
00000000
00000100
00000000
00010000
00000000
00001000
00000000
00001000
00000000
,
01000000
01100000
00010000
00110000
01001000
00010100
00001010
00000101
,
00000001
00001000
00000010
00010000
00001000
00000000
00100000
00000000
00010000
00000000
10000000
00000000
00100000
00000000
00100000
00000000
,
01000000
00000000
00001000
00000000
00010000
00000010
00000100
00000010
00001000
00000000
00000100
00000000
00010000
00000000
00001000
00000000
,
00100000
01000000
10000000
00010000
01000000
00000000
00001000
00000000
00010000
00000000
00000100
00000000
00001000
00000000
00001000
00000000
,
00000001
00000010
00000100
00010000
00001000
01000000
00010000
10000000
00100000
10000000
00010000
01000000
00001000
00010000
00000010
00000100
,
00000001
00000000
00000000
00000000
;
