#TITLE:Block Gate;
#SUBTITLE:;
#ARTIST:TOMOYUKI;
#TITLETRANSLIT:;
#SUBTITLETRANSLIT:;
#ARTISTTRANSLIT:;
#CREDIT:;
#BANNER:block_gate-bn.png;
#BACKGROUND:block_gate-bg.png;
#LYRICSPATH:Block_Gate.lrc;
#CDTITLE:NAOKI_cdtitle.png;
#MUSIC:Block Gate.mp3;
#OFFSET:-0.524;
#SAMPLESTART:62.864;
#SAMPLELENGTH:12.000;
#SELECTABLE:YES;
#BPMS:0.000=127.000;
#STOPS:;
#BGCHANGES:;

//---------------dance-single - ----------------
#NOTES:
     dance-single:
     :
     Hard:
     13:
     0.665,0.677,0.246,0.263,0.474:
0000
0000
0000
0000
,
1000
0100
0010
0100
0001
0100
0010
0001
,
0100
1000
0100
0010
0100
0001
0010
0100
,
1000
0010
0100
0010
0001
0010
0100
0001
,
0010
1000
0010
0100
0010
0001
1000
1000
,
0001
0100
0010
0100
1000
0100
0010
1000
,
0100
0001
0100
0010
0100
1000
0010
0100
,
0001
0010
0100
0010
1000
0010
0100
1000
,
0000
0001
0000
0010
0000
0120
0000
0130
,
1000
0010
0000
0100
0001
0000
1000
0100
0000
0010
0000
0001
0100
0000
0010
0000
,
1000
0100
0000
0010
0001
0000
1000
0010
0000
0100
0000
0001
0010
0000
0100
0000
,
1000
0010
0100
0002
0000
0013
0100
2000
,
0000
3001
0100
0010
0000
1000
0100
0100
,
0001
0010
0000
0100
1000
0000
0001
0100
0000
0010
0000
1000
0100
0000
0010
0000
,
0001
0100
0000
0010
1000
0000
0001
0010
0000
0100
0000
1000
0010
0000
0100
0000
,
0001
0010
0100
2000
0000
3010
0100
0002
,
0000
0000
0013
0000
0100
0000
1000
0001
0000
0000
0210
0000
0000
0000
0310
0000
,
1000
0100
0000
0100
0010
0000
0010
0001
0000
0100
0000
0010
1000
0000
0100
0000
,
0001
0100
1000
0001
0110
0000
1001
0000
,
1100
0000
0000
1000
0010
0000
0010
0100
0000
0001
0000
0010
0100
0000
1000
0000
,
0010
0001
0010
1000
0200
0010
0310
0000
,
0001
0100
0000
0100
0010
0000
0010
1000
0000
0100
0000
0010
0001
0000
0100
0000
,
1000
0100
0001
1000
0110
0000
1001
0000
,
0101
0000
0000
0001
0010
0000
0010
0100
0000
1000
0000
0010
0100
0000
0001
0000
,
0010
1000
0010
0001
0200
0010
0310
0000
,
1002
0000
0103
0000
0010
0000
1000
0100
0000
0110
0000
0010
0001
0000
0100
0000
,
0010
1000
0100
0000
0010
0100
0010
0000
0001
0100
0000
0100
0020
0000
0001
0000
,
1030
0000
0100
0000
0010
0000
0001
0100
0000
0110
0000
0010
1000
0000
0100
0000
,
0010
0001
0100
0000
0010
0100
0010
0000
1000
0100
0000
0100
0010
0000
0011
0000
,
2001
0000
3010
0000
0100
0000
0001
0010
0000
0110
0000
0100
1000
0000
0010
0000
,
0100
0001
0010
0000
0100
0010
0100
0000
1000
0010
0000
0010
0200
0000
1000
0000
,
0301
0000
0010
0000
0100
0000
1000
0010
0000
0110
0000
0100
0001
0000
0010
0000
,
2100
0000
3010
0000
0102
0000
0013
0000
2010
0000
3100
0010
0002
0000
0103
0010
,
1000
0000
0100
0000
0010
0000
0100
1000
0000
0001
0000
0100
0010
0000
1000
0000
,
0100
0000
0010
0000
0001
0000
0100
0010
0000
0010
1000
0001
0010
0000
0100
0000
,
1000
0000
0010
0000
0100
0000
0010
1000
0000
0001
0000
0010
0100
0000
1000
0000
,
0010
0000
0100
0000
0001
0000
0010
0100
0000
0100
1000
0001
0100
0000
0110
0000
,
0001
0000
0010
0000
0100
0000
0010
0001
0000
1000
0000
0010
0100
0000
0001
0000
,
0010
0000
0100
0000
1000
0000
0010
0100
0000
0100
0001
1000
0100
0000
0010
0000
,
0001
0000
0100
0000
0010
0000
0100
0001
0000
1000
0000
0100
0010
0000
0001
0000
,
0100
0000
0010
0000
1000
0000
0001
0010
0100
0000
1000
0001
0100
0000
0110
0000
,
2001
0000
3100
0000
0010
0000
0001
0100
0000
0110
0000
0010
1000
0000
0100
0000
,
0020
0000
1000
0000
0031
0000
0100
0010
0000
0010
1000
0100
0010
0000
0001
0000
,
0200
0000
0010
0000
0301
0000
0010
0100
0000
1100
0000
1000
0010
0000
0100
0000
,
0002
0000
1000
0000
0013
0000
0100
0010
0000
0010
0001
0100
0010
0000
1000
0000
,
0200
0000
0010
0000
1300
0000
0010
0100
0000
0101
0000
0001
0010
0000
0100
0000
,
2000
0000
0001
0000
3010
0000
0100
0010
0000
0010
1000
0001
0010
0000
0100
0000
,
1000
0000
2000
0000
0001
0000
3002
0000
0010
0003
0010
0100
2000
0000
3010
0100
,
0002
1000
0013
0100
2000
0001
3020
0000
,
0130
0001
0010
1100
0000
0010
0001
0100
,
0000
1000
0100
0001
0000
0010
0001
0100
,
0010
1000
0100
0011
0000
0100
1000
0010
,
0000
0001
0010
1000
0000
0010
1000
0100
,
0010
0001
0100
1010
0000
0100
0001
0010
,
0000
1000
0010
0001
0000
0100
0001
0010
,
0100
1000
0010
0101
0000
0010
1000
0100
,
0000
0001
0100
1000
0010
0100
0002
2000
,
0003
3000
0000
0000
0000
0000
0000
0000
;

//---------------dance-single - ----------------
#NOTES:
     dance-single:
     :
     Beginner:
     2:
     0.168,0.175,0.009,0.070,0.000:
0000
0000
0000
0000
,
0010
0000
0010
0000
,
0100
0000
0100
0000
,
0001
0000
0001
0000
,
1000
0000
1000
0000
,
0100
0000
0100
0000
,
0010
0000
0010
0000
,
0001
0000
0001
0000
,
0100
0000
0000
0000
,
0010
0010
0010
0000
,
1000
1000
1000
0000
,
0100
0000
0100
0000
,
1000
0000
0001
0000
,
0010
0010
0010
0000
,
0001
0001
0001
0000
,
0100
0000
0100
0000
,
0001
0000
1000
0000
,
0200
0000
0300
0000
,
0020
0000
0030
0000
,
0002
0000
0003
0000
,
2000
0000
3000
0000
,
0020
0000
0030
0000
,
0200
0000
0300
0000
,
0002
0000
0003
0000
,
2000
0000
3000
0000
,
0010
0100
0010
0000
,
1000
0001
1000
0000
,
0100
0010
0100
0000
,
1000
0000
0001
0000
,
0010
0100
0010
0000
,
0001
1000
0001
0000
,
0100
0010
0100
0000
,
0001
0010
0100
1000
,
0010
0000
0100
0000
,
0001
0000
1000
0100
,
0010
0000
0100
0000
,
1000
0000
0001
0010
,
0100
0000
0010
0000
,
0001
0000
1000
0010
,
0100
0000
0010
0000
,
1000
0000
0001
0010
,
0100
0000
1000
0000
,
0010
0000
0100
0001
,
0010
0000
0001
0000
,
0100
0000
0010
0100
,
0010
0000
1000
0000
,
0100
0000
0010
0001
,
0100
0000
0010
0000
,
1000
0100
0010
0001
,
0100
0000
0100
0000
,
0010
0000
0010
0000
,
1000
0000
1000
0000
,
0001
0000
0001
0000
,
0010
0000
0010
0000
,
0100
0000
0100
0000
,
1000
0000
1000
0000
,
0001
0000
0001
0000
,
0110
0000
0000
0000
;

//---------------maniax-single - ----------------
#NOTES:
     maniax-single:
     :
     Hard:
     13:
     0.665,0.677,0.246,0.263,0.474:
0000
0000
0000
0000
,
1000
0100
0010
0100
0001
0100
0010
0001
,
0100
1000
0100
0010
0100
0001
0010
0100
,
1000
0010
0100
0010
0001
0010
0100
0001
,
0010
1000
0010
0100
0010
0001
1000
1000
,
0001
0100
0010
0100
1000
0100
0010
1000
,
0100
0001
0100
0010
0100
1000
0010
0100
,
0001
0010
0100
0010
1000
0010
0100
1000
,
0000
0001
0000
0010
0000
0120
0000
0130
,
1000
0010
0000
0100
0001
0000
1000
0100
0000
0010
0000
0001
0100
0000
0010
0000
,
1000
0100
0000
0010
0001
0000
1000
0010
0000
0100
0000
0001
0010
0000
0100
0000
,
1000
0010
0100
0002
0000
0013
0100
2000
,
0000
3001
0100
0010
0000
1000
0100
0100
,
0001
0010
0000
0100
1000
0000
0001
0100
0000
0010
0000
1000
0100
0000
0010
0000
,
0001
0100
0000
0010
1000
0000
0001
0010
0000
0100
0000
1000
0010
0000
0100
0000
,
0001
0010
0100
2000
0000
3010
0100
0002
,
0000
0000
0013
0000
0100
0000
1000
0001
0000
0000
0210
0000
0000
0000
0310
0000
,
1000
0100
0000
0100
0010
0000
0010
0001
0000
0100
0000
0010
1000
0000
0100
0000
,
0001
0100
1000
0001
0110
0000
1001
0000
,
1100
0000
0000
1000
0010
0000
0010
0100
0000
0001
0000
0010
0100
0000
1000
0000
,
0010
0001
0010
1000
0200
0010
0310
0000
,
0001
0100
0000
0100
0010
0000
0010
1000
0000
0100
0000
0010
0001
0000
0100
0000
,
1000
0100
0001
1000
0110
0000
1001
0000
,
0101
0000
0000
0001
0010
0000
0010
0100
0000
1000
0000
0010
0100
0000
0001
0000
,
0010
1000
0010
0001
0200
0010
0310
0000
,
1002
0000
0103
0000
0010
0000
1000
0100
0000
0110
0000
0010
0001
0000
0100
0000
,
0010
1000
0100
0000
0010
0100
0010
0000
0001
0100
0000
0100
0020
0000
0001
0000
,
1030
0000
0100
0000
0010
0000
0001
0100
0000
0110
0000
0010
1000
0000
0100
0000
,
0010
0001
0100
0000
0010
0100
0010
0000
1000
0100
0000
0100
0010
0000
0011
0000
,
2001
0000
3010
0000
0100
0000
0001
0010
0000
0110
0000
0100
1000
0000
0010
0000
,
0100
0001
0010
0000
0100
0010
0100
0000
1000
0010
0000
0010
0200
0000
1000
0000
,
0301
0000
0010
0000
0100
0000
1000
0010
0000
0110
0000
0100
0001
0000
0010
0000
,
2100
0000
3010
0000
0102
0000
0013
0000
2010
0000
3100
0010
0002
0000
0103
0010
,
1000
0000
0100
0000
0010
0000
0100
1000
0000
0001
0000
0100
0010
0000
1000
0000
,
0100
0000
0010
0000
0001
0000
0100
0010
0000
0010
1000
0001
0010
0000
0100
0000
,
1000
0000
0010
0000
0100
0000
0010
1000
0000
0001
0000
0010
0100
0000
1000
0000
,
0010
0000
0100
0000
0001
0000
0010
0100
0000
0100
1000
0010
0100
0000
0110
0000
,
0001
0000
0010
0000
0100
0000
0010
0001
0000
1000
0000
0010
0100
0000
0001
0000
,
0010
0000
0100
0000
1000
0000
0010
0100
0000
0100
0001
1000
0100
0000
0010
0000
,
0001
0000
0100
0000
0010
0000
0100
0001
0000
1000
0000
0100
0010
0000
0001
0000
,
0100
0000
0010
0000
1000
0000
0001
0010
0100
0000
1000
0001
0100
0000
0110
0000
,
2001
0000
3100
0000
0010
0000
0001
0100
0000
0110
0000
0010
1000
0000
0100
0000
,
0020
0000
1000
0000
0031
0000
0100
0010
0000
0010
1000
0100
0010
0000
0001
0000
,
0200
0000
0010
0000
0301
0000
0010
0100
0000
1100
0000
1000
0010
0000
0100
0000
,
0002
0000
1000
0000
0013
0000
0100
0010
0000
0010
0001
0100
0010
0000
1000
0000
,
0200
0000
0010
0000
1300
0000
0010
0100
0000
0101
0000
0001
0010
0000
0100
0000
,
2000
0000
0001
0000
3010
0000
0100
0010
0000
0010
1000
0001
0010
0000
0100
0000
,
1000
0000
2000
0000
0001
0000
3002
0000
0010
0003
0010
0100
2000
0000
3010
0100
,
0002
1000
0013
0100
2000
0001
3020
0000
,
0130
0001
0010
1100
0000
0010
0001
0100
,
0000
1000
0100
0001
0000
0010
0001
0100
,
0010
1000
0100
0011
0000
0100
1000
0010
,
0000
0001
0010
1000
0000
0010
1000
0100
,
0010
0001
0100
1010
0000
0100
0001
0010
,
0000
1000
0010
0001
0000
0100
0001
0010
,
0100
1000
0010
0101
0000
0010
1000
0100
,
0000
0001
0100
1000
0010
0100
0002
2000
,
0003
3000
0000
0000
0000
0000
0000
0000
;

//---------------maniax-single - ----------------
#NOTES:
     maniax-single:
     :
     Beginner:
     2:
     0.168,0.175,0.009,0.070,0.000:
0000
0000
0000
0000
,
0010
0000
0010
0000
,
0100
0000
0100
0000
,
0001
0000
0001
0000
,
1000
0000
1000
0000
,
0100
0000
0100
0000
,
0010
0000
0010
0000
,
0001
0000
0001
0000
,
0100
0000
0000
0000
,
0010
0010
0010
0000
,
1000
1000
1000
0000
,
0100
0000
0100
0000
,
1000
0000
0001
0000
,
0010
0010
0010
0000
,
0001
0001
0001
0000
,
0100
0000
0100
0000
,
0001
0000
1000
0000
,
0200
0000
0300
0000
,
0020
0000
0030
0000
,
0002
0000
0003
0000
,
2000
0000
3000
0000
,
0020
0000
0030
0000
,
0200
0000
0300
0000
,
0002
0000
0003
0000
,
2000
0000
3000
0000
,
0010
0100
0010
0000
,
1000
0001
1000
0000
,
0100
0010
0100
0000
,
1000
0000
0001
0000
,
0010
0100
0010
0000
,
0001
1000
0001
0000
,
0100
0010
0100
0000
,
0001
0010
0100
1000
,
0010
0000
0100
0000
,
0001
0000
1000
0100
,
0010
0000
0100
0000
,
1000
0000
0001
0010
,
0100
0000
0010
0000
,
0001
0000
1000
0010
,
0100
0000
0010
0000
,
1000
0000
0001
0010
,
0100
0000
1000
0000
,
0010
0000
0100
0001
,
0010
0000
0001
0000
,
0100
0000
0010
0100
,
0010
0000
1000
0000
,
0100
0000
0010
0001
,
0100
0000
0010
0000
,
1000
0100
0010
0001
,
0100
0000
0100
0000
,
0010
0000
0010
0000
,
1000
0000
1000
0000
,
0001
0000
0001
0000
,
0010
0000
0010
0000
,
0100
0000
0100
0000
,
1000
0000
1000
0000
,
0001
0000
0001
0000
,
0110
0000
0000
0000
;

//---------------techno-single4 - ----------------
#NOTES:
     techno-single4:
     :
     Hard:
     13:
     0.665,0.677,0.246,0.263,0.474:
0000
0000
0000
0000
,
1000
0100
0010
0100
0001
0100
0010
0001
,
0100
1000
0100
0010
0100
0001
0010
0100
,
1000
0010
0100
0010
0001
0010
0100
0001
,
0010
1000
0010
0100
0010
0001
1000
1000
,
0001
0100
0010
0100
1000
0100
0010
1000
,
0100
0001
0100
0010
0100
1000
0010
0100
,
0001
0010
0100
0010
1000
0010
0100
1000
,
0000
0001
0000
0010
0000
0120
0000
0130
,
1000
0010
0000
0100
0001
0000
1000
0100
0000
0010
0000
0001
0100
0000
0010
0000
,
1000
0100
0000
0010
0001
0000
1000
0010
0000
0100
0000
0001
0010
0000
0100
0000
,
1000
0010
0100
0002
0000
0013
0100
2000
,
0000
3001
0100
0010
0000
1000
0100
0100
,
0001
0010
0000
0100
1000
0000
0001
0100
0000
0010
0000
1000
0100
0000
0010
0000
,
0001
0100
0000
0010
1000
0000
0001
0010
0000
0100
0000
1000
0010
0000
0100
0000
,
0001
0010
0100
2000
0000
3010
0100
0002
,
0000
0000
0013
0000
0100
0000
1000
0001
0000
0000
0210
0000
0000
0000
0310
0000
,
1000
0100
0000
0100
0010
0000
0010
0001
0000
0100
0000
0010
1000
0000
0100
0000
,
0001
0100
1000
0001
0110
0000
1001
0000
,
1100
0000
0000
1000
0010
0000
0010
0100
0000
0001
0000
0010
0100
0000
1000
0000
,
0010
0001
0010
1000
0200
0010
0310
0000
,
0001
0100
0000
0100
0010
0000
0010
1000
0000
0100
0000
0010
0001
0000
0100
0000
,
1000
0100
0001
1000
0110
0000
1001
0000
,
0101
0000
0000
0001
0010
0000
0010
0100
0000
1000
0000
0010
0100
0000
0001
0000
,
0010
1000
0010
0001
0200
0010
0310
0000
,
1002
0000
0103
0000
0010
0000
1000
0100
0000
0110
0000
0010
0001
0000
0100
0000
,
0010
1000
0100
0000
0010
0100
0010
0000
0001
0100
0000
0100
0020
0000
0001
0000
,
1030
0000
0100
0000
0010
0000
0001
0100
0000
0110
0000
0010
1000
0000
0100
0000
,
0010
0001
0100
0000
0010
0100
0010
0000
1000
0100
0000
0100
0010
0000
0011
0000
,
2001
0000
3010
0000
0100
0000
0001
0010
0000
0110
0000
0100
1000
0000
0010
0000
,
0100
0001
0010
0000
0100
0010
0100
0000
1000
0010
0000
0010
0200
0000
1000
0000
,
0301
0000
0010
0000
0100
0000
1000
0010
0000
0110
0000
0100
0001
0000
0010
0000
,
2100
0000
3010
0000
0102
0000
0013
0000
2010
0000
3100
0010
0002
0000
0103
0010
,
1000
0000
0100
0000
0010
0000
0100
1000
0000
0001
0000
0100
0010
0000
1000
0000
,
0100
0000
0010
0000
0001
0000
0100
0010
0000
0010
1000
0001
0010
0000
0100
0000
,
1000
0000
0010
0000
0100
0000
0010
1000
0000
0001
0000
0010
0100
0000
1000
0000
,
0010
0000
0100
0000
0001
0000
0010
0100
0000
0100
1000
0010
0100
0000
0110
0000
,
0001
0000
0010
0000
0100
0000
0010
0001
0000
1000
0000
0010
0100
0000
0001
0000
,
0010
0000
0100
0000
1000
0000
0010
0100
0000
0100
0001
1000
0100
0000
0010
0000
,
0001
0000
0100
0000
0010
0000
0100
0001
0000
1000
0000
0100
0010
0000
0001
0000
,
0100
0000
0010
0000
1000
0000
0001
0010
0100
0000
1000
0001
0100
0000
0110
0000
,
2001
0000
3100
0000
0010
0000
0001
0100
0000
0110
0000
0010
1000
0000
0100
0000
,
0020
0000
1000
0000
0031
0000
0100
0010
0000
0010
1000
0100
0010
0000
0001
0000
,
0200
0000
0010
0000
0301
0000
0010
0100
0000
1100
0000
1000
0010
0000
0100
0000
,
0002
0000
1000
0000
0013
0000
0100
0010
0000
0010
0001
0100
0010
0000
1000
0000
,
0200
0000
0010
0000
1300
0000
0010
0100
0000
0101
0000
0001
0010
0000
0100
0000
,
2000
0000
0001
0000
3010
0000
0100
0010
0000
0010
1000
0001
0010
0000
0100
0000
,
1000
0000
2000
0000
0001
0000
3002
0000
0010
0003
0010
0100
2000
0000
3010
0100
,
0002
1000
0013
0100
2000
0001
3020
0000
,
0130
0001
0010
1100
0000
0010
0001
0100
,
0000
1000
0100
0001
0000
0010
0001
0100
,
0010
1000
0100
0011
0000
0100
1000
0010
,
0000
0001
0010
1000
0000
0010
1000
0100
,
0010
0001
0100
1010
0000
0100
0001
0010
,
0000
1000
0010
0001
0000
0100
0001
0010
,
0100
1000
0010
0101
0000
0010
1000
0100
,
0000
0001
0100
1000
0010
0100
0002
2000
,
0003
3000
0000
0000
0000
0000
0000
0000
;

//---------------techno-single4 - ----------------
#NOTES:
     techno-single4:
     :
     Beginner:
     2:
     0.168,0.175,0.009,0.070,0.000:
0000
0000
0000
0000
,
0010
0000
0010
0000
,
0100
0000
0100
0000
,
0001
0000
0001
0000
,
1000
0000
1000
0000
,
0100
0000
0100
0000
,
0010
0000
0010
0000
,
0001
0000
0001
0000
,
0100
0000
0000
0000
,
0010
0010
0010
0000
,
1000
1000
1000
0000
,
0100
0000
0100
0000
,
1000
0000
0001
0000
,
0010
0010
0010
0000
,
0001
0001
0001
0000
,
0100
0000
0100
0000
,
0001
0000
1000
0000
,
0200
0000
0300
0000
,
0020
0000
0030
0000
,
0002
0000
0003
0000
,
2000
0000
3000
0000
,
0020
0000
0030
0000
,
0200
0000
0300
0000
,
0002
0000
0003
0000
,
2000
0000
3000
0000
,
0010
0100
0010
0000
,
1000
0001
1000
0000
,
0100
0010
0100
0000
,
1000
0000
0001
0000
,
0010
0100
0010
0000
,
0001
1000
0001
0000
,
0100
0010
0100
0000
,
0001
0010
0100
1000
,
0010
0000
0100
0000
,
0001
0000
1000
0100
,
0010
0000
0100
0000
,
1000
0000
0001
0010
,
0100
0000
0010
0000
,
0001
0000
1000
0010
,
0100
0000
0010
0000
,
1000
0000
0001
0010
,
0100
0000
1000
0000
,
0010
0000
0100
0001
,
0010
0000
0001
0000
,
0100
0000
0010
0100
,
0010
0000
1000
0000
,
0100
0000
0010
0001
,
0100
0000
0010
0000
,
1000
0100
0010
0001
,
0100
0000
0100
0000
,
0010
0000
0010
0000
,
1000
0000
1000
0000
,
0001
0000
0001
0000
,
0010
0000
0010
0000
,
0100
0000
0100
0000
,
1000
0000
1000
0000
,
0001
0000
0001
0000
,
0110
0000
0000
0000
;

//---------------dance-single - ----------------
#NOTES:
     dance-single:
     :
     Easy:
     5:
     0.286,0.325,0.114,0.105,0.000:
0000
0000
0000
0000
,
1000
1000
0100
0100
,
0010
0010
0001
0001
,
1000
0010
0100
0001
,
1000
1000
0010
0010
,
0100
0100
0001
0001
,
1000
0100
0010
0001
,
1000
0010
0100
0001
,
0010
0000
0000
0000
,
0100
1000
0010
0010
,
0100
0001
0010
0010
,
0100
1000
0001
0100
,
0010
0110
1001
0000
,
0100
0001
0010
0010
,
0100
1000
0010
0010
,
0100
0001
1000
0100
,
0010
0110
1001
0000
,
0120
0000
2030
0000
,
3200
0000
0310
0000
,
0020
0000
0032
0000
,
0203
0000
0310
1000
,
0200
0000
2300
0000
,
3020
0000
0130
0000
,
0200
0000
0302
0000
,
0023
0000
0130
0000
,
0010
1000
0100
0100
,
0010
0001
0100
0100
,
0010
1000
0001
0010
,
0100
1000
1100
0101
,
0010
0001
0100
0100
,
0010
1000
0100
0100
,
0010
0001
1000
0010
,
0101
1100
0011
1010
,
0100
0001
1000
0100
,
0010
0000
0100
0000
1000
0001
0100
0000
,
0010
1000
0001
0010
,
0100
0000
0010
0000
0001
1000
0001
1000
,
0100
1000
0001
0100
,
0010
0000
0100
0000
0001
1000
0100
0000
,
0010
0001
1000
0010
,
0100
0000
0010
0000
1000
0001
1000
0001
,
0100
0001
0010
0010
,
0100
0000
0100
0000
1000
0001
0100
0000
,
0010
1000
0100
0100
,
0010
0000
0010
0000
0001
1000
0100
0000
,
0010
0001
0100
0100
,
0010
0000
0010
0000
1000
0001
0010
0000
,
0100
1000
0010
0100
,
0110
0001
0010
0100
,
1000
0000
0010
0000
,
0100
0001
0010
0000
,
0100
0000
0100
0000
,
0010
0001
0100
0000
,
0010
0000
0100
0000
,
0010
1000
0100
0000
,
0010
0000
0010
0000
,
0100
1000
0010
0100
,
1001
0000
0000
0000
;

//---------------dance-single - ----------------
#NOTES:
     dance-single:
     :
     Medium:
     10:
     0.404,0.400,0.158,0.176,0.000:
0000
0000
0000
0000
,
1000
0100
0001
0000
0100
1000
0010
0000
,
0001
0010
1000
0000
0100
0000
0010
0000
,
0001
0100
1000
0000
0100
0001
0010
0000
,
1000
0010
0001
0000
0100
0000
0010
0000
,
1000
0010
0001
0000
0010
1000
0100
0000
,
0001
0100
1000
0000
0010
0000
0100
0000
,
0001
0010
1000
0000
0010
0001
0100
0000
,
1000
0100
0002
0000
,
0013
0000
0100
0000
1000
0001
0100
0000
,
0010
0000
0100
0000
0001
1000
0100
0000
,
0020
0100
0032
1000
,
0203
0000
0010
0000
0301
0010
0100
1000
,
0010
0000
0100
0000
0001
1000
0100
0000
,
0010
0000
0100
0000
1000
0001
0100
0000
,
0020
0100
2030
0001
,
3200
0000
0000
0000
0000
0000
0000
0300
0000
0000
1000
0000
0000
0000
0001
0000
,
0200
0000
0301
1000
,
0100
0010
0000
0010
0100
0000
1000
0000
,
0020
0000
1030
0001
,
0010
0100
0000
0100
0010
0000
0001
0000
,
0020
0000
0031
1000
,
0010
0100
0000
0100
0010
0000
1000
0000
,
0200
0000
1300
0001
,
0100
0010
0000
0010
0100
0000
0001
0000
,
1000
0010
0001
0000
0010
1000
0100
0000
,
0001
0100
1000
0000
0010
0000
0100
0000
,
0001
0010
1000
0000
0010
0001
0100
0000
,
1000
0100
0001
0000
0010
0000
0100
0000
,
1000
0100
0001
0000
0100
1000
0010
0000
,
0001
0010
1000
0000
0100
0000
0010
0000
,
0001
0100
1000
0000
0100
0001
0010
0000
,
1100
0101
1010
0011
,
0100
1000
0010
0000
0100
0001
1000
0100
,
0010
0001
0100
0000
0010
1000
0001
0100
,
0010
1000
0100
0000
0010
0001
1000
0010
,
0100
0001
0010
0000
0100
1000
0010
0010
,
0100
0001
0010
0000
0100
1000
0001
0100
,
0010
1000
0100
0000
0010
0001
1000
0100
,
0010
0001
0100
0000
0010
1000
0001
0010
,
0100
1000
0010
0000
0100
0001
0010
0010
,
0100
1000
0010
0000
0101
0000
1100
0000
,
0010
0001
0100
0000
0110
0000
1001
0000
,
0100
0001
0010
0000
1100
0000
0101
0000
,
0010
1000
0100
0000
0110
0000
1001
0000
,
0010
0001
0100
0000
1010
0000
0011
0000
,
0100
1000
0010
0000
0110
0000
1001
0000
,
0010
1000
0100
0010
0001
0100
1000
0000
,
0100
0001
0010
0000
0110
0000
1001
0000
,
0020
0000
0130
0001
,
0020
0000
1000
0000
0031
0000
1000
0100
,
0020
0000
0130
1000
,
0020
0000
0001
0000
1030
0000
0001
0010
,
0200
0000
0310
0001
,
0200
0000
1000
0000
0301
0000
1000
0010
,
0200
0000
0310
1000
,
0200
0000
0001
0000
1300
0000
0020
0100
,
0030
0000
0000
0000
;

//---------------dance-single - Copied from----------------
#NOTES:
     dance-single:
     Copied from:
     Challenge:
     15:
     0.880,0.827,0.395,0.316,0.961: // measure 1
0000
0000
0000
0000
,  // measure 2
1000
0100
0010
0100
1000
0001
0100
0001
1000
0100
0010
0001
0010
0100
1000
0001
,  // measure 3
0100
0010
0100
0001
1000
0100
1000
0001
0100
0010
1000
0010
0100
0001
0010
0100
,  // measure 4
1000
0010
0100
0010
1000
0001
0010
0001
1000
0010
0100
0001
0100
0010
1000
0001
,  // measure 5
0010
0100
0010
0001
1000
0010
1000
0001
0010
0100
1000
0010
0100
0001
0010
0000
,  // measure 6
0001
0010
0100
0010
0001
1000
0010
1000
0001
0010
0100
1000
0100
0010
0001
1000
,  // measure 7
0010
0100
0010
1000
0001
0010
0001
1000
0010
0100
0001
0100
0010
1000
0100
0010
,  // measure 8
0001
0100
0010
0100
0001
1000
0100
1000
0001
0100
0010
1000
0010
0100
0001
1000
,  // measure 9
0100
0010
0100
1000
0001
0100
0010
0110
,  // measure 10
1000
0200
0000
0310
0002
0000
0103
0010
1000
0001
0010
0100
1000
0000
1001
0000
,  // measure 11
0001
0200
0000
0310
2000
0000
3100
0010
0001
1000
0010
0100
0001
0000
1001
0000
,  // measure 12
1000
0100
0010
0100
1000
0000
2010
0000
3001
0100
0010
0100
0001
0000
0012
0000
,  // measure 13
0013
0100
1000
0020
0100
0130
0010
0110
,  // measure 14
1000
0020
0000
0130
0002
0000
0013
0100
1000
0001
0100
0010
1000
0000
1001
0000
,  // measure 15
0001
0020
0000
0130
2000
0000
3010
0100
0001
1000
0100
0010
0001
0000
1001
0000
,  // measure 16
1000
0010
0100
0010
1000
0000
2100
0000
3001
0010
0100
0010
0001
0000
0102
0000
,  // measure 17
0103
0000
0010
0000
1000
0000
0001
0100
0000
0000
0210
0000
0000
0000
0310
0000
,  // measure 18
2000
0100
0000
3100
0010
0000
0010
0001
0000
0100
0000
0010
1000
0000
0100
0000
,  // measure 19
0001
0100
1000
0010
0101
0000
1100
0000
,  // measure 20
0011
0000
0010
0001
1000
0000
0010
0100
0000
0001
0000
0010
0100
0000
1000
0000
,  // measure 21
0010
0001
0010
1000
0200
0010
0310
0000
,  // measure 22
0001
0100
0000
0100
0010
0000
0010
1000
0000
0100
0000
0010
0001
0000
0100
0000
,  // measure 23
1000
0100
0001
0010
1100
0000
0101
0000
,  // measure 24
1010
0000
0010
1000
0001
0000
0010
0100
0000
1000
0000
0010
0100
0000
0001
0000
,  // measure 25
0010
0000
1000
0000
0010
0000
0001
0000
1000
0010
1000
0001
0010
0001
0100
0010
,  // measure 26
2000
0000
3100
0010
0001
0000
1000
0010
0000
0110
0000
0100
0001
0000
0010
0000
,  // measure 27
0100
1000
0001
0000
0100
0010
0100
0000
0010
1000
0001
0010
0200
0000
0001
0000
,  // measure 28
1300
0000
0010
0100
0001
0000
1000
0100
0000
0110
0000
0010
0001
0000
0100
0000
,  // measure 29
0010
1000
0001
0000
0010
0100
0010
0000
0100
1000
0001
0100
0010
0000
1010
0000
,  // measure 30
1002
0000
0013
0100
1000
0000
0001
0100
0000
0110
0000
0010
1000
0000
0100
0000
,  // measure 31
0010
0001
1000
0000
0010
0100
0010
0000
0100
0001
1000
0100
0020
0000
1000
0000
,  // measure 32
0031
0000
0100
0010
1000
0000
0001
0010
0000
0110
0000
0100
1000
0000
0001
0000
,  // measure 33
0102
0000
1003
0000
2010
0000
3001
0000
0012
0000
0103
0010
2000
0000
3100
0010
,  // measure 34
0001
0100
0001
1000
0100
0000
0010
0001
1000
0010
1000
0001
0010
0100
1000
0000
,  // measure 35
0010
1000
0001
1000
0100
0000
0010
0001
0100
0010
0100
0010
2000
0000
3001
0000
,  // measure 36
1000
0100
1000
0001
0100
0000
0010
1000
0001
0010
0001
1000
0010
0100
0001
0000
,  // measure 37
0010
0001
1000
0001
0100
0000
0010
1000
0100
0010
0100
0010
0002
0000
2003
0000
,  // measure 38
3001
0010
0001
1000
0010
0000
0100
0001
1000
0100
1000
0001
0100
0010
1000
0000
,  // measure 39
0100
1000
0001
1000
0010
0000
0100
0001
0010
0100
0010
0100
1000
0000
0001
0000
,  // measure 40
1000
0010
1000
0001
0010
0000
0100
1000
0001
0100
0001
1000
0100
0010
0001
0000
,  // measure 41
0100
0001
1000
0001
0010
0000
0100
1000
0010
0000
0100
0001
0010
0000
0011
0000
,  // measure 42
2001
0000
3010
0100
0001
0000
1000
0100
0000
0110
0000
0010
0001
1000
0010
0000
,  // measure 43
1000
0100
0100
0001
0010
0000
0100
1000
0001
1000
0010
0100
0002
0000
1003
0000
,  // measure 44
0010
1000
0001
1000
0100
0000
1000
0010
0000
0110
0000
0100
0001
1000
0100
0000
,  // measure 45
1000
0010
0010
0001
0100
0000
0010
1000
0001
1000
0100
0010
0001
1000
0010
0000
,  // measure 46
0100
0001
1000
0001
0010
0000
0001
0100
0000
0110
0000
0010
1000
0001
0010
0000
,  // measure 47
0001
0100
0100
1000
0010
0000
0100
0001
1000
0001
0010
0100
1000
0001
1000
0001
,  // measure 48
0100
0000
0200
0000
0010
0000
0310
0000
1002
0000
0013
0100
2000
0000
3010
0100
,  // measure 49
0002
0000
1003
0000
0100
0000
0010
0001
1000
0001
1000
0010
0200
0000
0310
0000
,  // measure 50
0110
1000
0100
0011
0000
0001
0100
1010
,  // measure 51
0000
0001
0010
1100
0000
0100
1000
0010
,  // measure 52
0100
0001
0010
1100
0000
1000
0010
0101
,  // measure 53
0000
0001
0100
1010
0000
0100
0001
0010
,  // measure 54
0100
1000
0010
0101
0000
0001
0010
1100
,  // measure 55
0000
0001
0100
1010
0000
0010
1000
0100
,  // measure 56
0010
0001
0100
1010
0000
1000
0100
0011
,  // measure 57
0000
0010
0100
1001
0100
0010
2000
0002
,  // measure 58
3000
0003
0000
0000
0000
0000
0000
0000
;
