#TITLE:ARIGA THESIS;
#SUBTITLE:;
#ARTIST:MYUKKE.;
#TITLETRANSLIT:;
#SUBTITLETRANSLIT:;
#ARTISTTRANSLIT:;
#GENRE:;
#CREDIT:NAOKI;
#MUSIC:MYUKKE. - ARIGA THESIS.ogg;
#BANNER:ARIGA_THESIS-bn.png;
#BACKGROUND:ARIGA_THESIS-bg.png;
#CDTITLE:naokicdtitle.png;
#SAMPLESTART:78.901;
#SAMPLELENGTH:13.286;
#SELECTABLE:YES;
#OFFSET:-0.044;
#BPMS:0.000=140.000;
#STOPS:;
#BGCHANGES:;
#FGCHANGES:;

//--------------- dance-single - NAOKI BR FS DS XO ----------------
#NOTES:
     dance-single:
     NAOKI BR FS DS XO:
     Challenge:
     11:
     0,0,0,0,0:
0000
0000
0000
0000
,
0000
0000
0000
0000
0000
0000
2002
3003
,
0001
0000
1000
0000
0010
0000
0100
0000
0001
0000
0010
0000
0100
0000
1000
0010
,
1000
0000
0100
0000
0010
0000
0001
0000
0100
0000
0010
1000
0001
0000
0010
0000
,
0001
0000
0000
0000
0000
0000
0001
0000
0000
0000
0000
0000
1000
0000
0000
0000
0000
0000
1000
0000
0000
0000
0000
0000
0001
0000
0000
0100
0000
0000
0010
0000
0000
1000
0000
0000
0001
0000
0010
0000
0001
0000
1000
0000
0000
0010
0000
0000
,
0100
0000
0010
1000
0100
0000
0010
0001
0100
0000
0010
1000
0200
0000
0000
0000
,
0310
0000
0001
0000
1000
0000
0010
0100
0001
0000
1000
0000
0200
0000
0300
0000
,
0010
0010
0100
0100
2000
0100
3002
0103
,
0010
0000
1000
0000
0001
0000
0010
0100
1000
0000
0001
0000
0200
0000
0300
0000
,
0010
0000
0010
0000
0100
0000
0100
0000
0001
0000
1000
0000
0100
0010
0001
1000
,
0020
0000
0000
0000
0000
0000
0130
0000
0000
0001
0000
0000
1000
0000
0000
0000
0000
0000
0001
0000
0010
0000
0100
0000
1000
0000
0000
0000
0000
0000
0001
0000
0000
0000
0000
0000
1100
0000
0000
0000
0000
0000
0001
0000
0000
0000
0000
0000
,
0020
0000
0000
0000
0000
0000
0130
0000
0000
0000
0000
0000
1000
0000
0000
0000
0000
0000
0001
0000
0000
0100
0000
0000
0010
0000
0000
0000
0000
0000
1000
0000
0100
0000
0010
0000
0001
0000
0000
0000
0000
0000
1000
0000
0000
0000
0000
0000
,
0010
0000
0000
0000
0000
0000
0010
0000
0000
0000
0000
0000
0100
0000
0000
0000
0000
0000
0100
0000
0000
0000
0000
0000
0001
0000
0000
0100
0000
0000
0010
0000
0000
1000
0000
0000
0001
0000
0010
0000
0001
0000
1000
0000
0000
0000
0000
0000
,
1010
0000
0001
0000
0011
0000
1000
0001
0020
0000
0130
1000
0011
0000
1000
0000
,
0100
0000
0000
0100
0010
0000
0001
0000
0100
0010
1000
0001
1010
0000
0101
0000
,
1000
0000
0010
0000
0100
0000
0001
0000
0020
0000
0030
0000
0200
0000
0300
0000
1000
0000
0001
0000
0100
00M0
0100
0000
1000
0000
0000
0000
0020
0000
0000
0000
,
0130
0000
0000
0100
0011
0000
1100
0000
0010
0100
0001
1000
0101
0000
1010
0000
,
0200
0000
0302
0000
0203
0000
2300
0000
3020
0000
0130
0001
1000
0100
0010
0000
,
0001
0100
0000
0010
1000
0001
0010
0001
1000
0010
0100
0001
1010
0000
0001
0010
,
0001
1000
0010
0100
0001
1000
0100
1000
0001
0100
0010
1000
0200
0000
0310
0000
,
0001
0100
01M0
1000
0011
0000
1100
0000
0001
0100
0001
1000
0100
1000
0001
0100
,
0010
0000
1000
0000
0001
0010
0001
1000
0010
0000
0100
0001
1010
0000
0001
1000
,
0020
0000
0100
0000
2030
0000
0100
0000
3002
0000
0103
0010
2000
0000
3002
0000
,
0013
0000
0000
0100
0000
0000
1000
0000
0000
0001
0000
0000
0100
0000
0000
0001
0000
0000
1000
0000
0000
0100
0000
0000
0010
0000
0000
0001
0000
0000
1000
0000
0010
0000
0100
0000
0002
0000
0000
0000
0000
0000
2103
0000
0000
0000
0000
0000
,
3002
0000
0010
0000
1003
0000
0010
0000
0100
0001
1000
0100
0010
0000
0001
0000
,
0200
0000
0000
0000
0310
0000
1000
0001
1000
0000
0000
0000
0001
0000
0010
0000
0100
0000
1000
0000
0001
0000
0100
0000
0010
0000
1000
0000
0100
0000
0010
0000
,
0002
0000
0100
0000
2003
0000
0100
0000
3020
0000
0130
0001
2000
0000
3002
0000
,
0013
0000
0000
0000
0000
0000
0110
0000
0000
0000
0000
0000
0100
0000
0000
0000
0000
0000
1000
0000
0000
0001
0000
0000
0100
0000
0000
0000
0000
0000
0010
0000
1000
0000
0001
0000
0010
0000
0000
0000
0000
0000
0100
0000
0000
1000
0000
0000
,
0001
0000
0100
0001
1000
0000
0100
0010
0001
0000
0100
0000
0010
0000
1000
0000
,
0100
0000
0010
0001
0100
0000
0010
1000
0100
0000
1000
0010
0001
0000
0000
0000
,
0020
0000
0000
0000
0000
0000
0000
0000
0000
0000
0000
0000
0230
0000
0000
0000
0000
0000
0000
0000
0000
0000
0000
0000
0302
0000
0000
0000
0000
0000
0000
0000
1003
0000
0000
0000
0000
0000
0000
0000
0100
0000
0000
0000
0000
0000
0000
0000
0020
0030
0000
0000
0000
0000
0000
0000
0100
0000
0000
0000
1000
0000
0000
0000
,
0002
0000
0100
0003
2000
0000
0100
3000
0001
0000
1000
0000
0101
0000
0000
0000
,
0020
0000
0000
0000
0000
0000
0000
0000
0000
0000
0000
0000
0230
0000
0000
0000
0000
0000
0000
0000
0000
0000
0000
0000
2300
0000
0000
0000
0000
0000
0000
0000
3001
0000
0000
0000
0000
0000
0000
0000
0100
0000
0000
0000
0000
0000
0000
0000
0020
0030
0000
0000
0000
0000
0000
0000
0100
0000
0000
0000
0001
0000
0000
0000
,
2000
0000
0100
3000
0002
0000
0100
0003
1000
0000
0001
0000
0100
0010
1000
0000
,
0002
0000
0000
0000
0000
0000
0000
0000
0023
0000
0030
0000
0000
0M00
0000
0000
0020
0000
0030
0000
1000
0000
0000
0000
1001
0000
0000
0000
0001
0000
0000
0000
,
0010
0100
1100
1000
0010
0010
0101
0100
,
0010
1000
1001
0001
0010
0100
1100
0010
,
0002
0000
0000
0000
2003
0000
0000
0000
3010
0000
0100
0001
1000
0000
0000
0000
,
0001
0010
1000
0010
0001
0100
0010
0010
,
1000
0000
0100
0000
0001
0000
0100
0000
0010
0000
0001
0100
0001
0000
1000
0100
,
1000
0010
0001
0010
1000
0100
0010
0010
,
0001
0000
0100
0000
1000
0000
0100
0000
0010
0000
1000
0000
0100
0000
0010
0001
,
2000
0000
3002
0000
0203
0000
0310
1000
0000
0001
0010
0000
0200
0000
0320
0000
,
0032
0000
2003
0000
3020
0000
0130
0001
0000
1000
0100
0000
0020
0000
0030
0000
,
0100
0000
0000
0000
0000
0000
1000
0000
0000
0001
0000
0000
0100
0000
0000
0000
0000
0000
0010
0000
0000
1000
0000
0000
0001
0000
0000
0010
0000
0000
0100
0000
0000
1000
0000
0000
0001
0000
0100
0000
0001
0000
1000
0000
0000
0000
0000
0000
,
0022
0033
0000
0000
0000
0000
0000
0000
1000
0000
0000
0000
0000
0000
0000
0000
0202
0303
0000
0000
1000
0000
0000
0000
0000
0000
0000
0000
0001
0000
0000
0000
0200
0000
0000
0000
0000
0000
0000
0000
0010
0000
0000
0000
0000
0000
0000
0000
0304
0000
0000
0000
0000
0003
0000
0000
0010
0000
0000
0000
0100
0000
0000
0000
,
2000
0000
0010
0000
3002
0000
0013
1000
0000
0010
0001
1000
0010
0100
0001
0000
,
2000
0000
0000
0000
0000
0000
0000
0000
0200
0300
0000
0000
0000
0000
0000
0000
3001
0000
0000
0000
0100
0000
0000
0000
0010
0000
0000
0000
1000
0000
0000
0000
0001
0000
0000
0000
0010
0000
0000
0000
0200
0000
0000
0000
0000
0000
0000
0000
1300
0000
0000
0000
0001
0000
0000
0000
0100
0000
0000
0000
0010
0000
0000
0000
,
2000
0000
3100
01M0
0002
0000
0103
0010
0000
1000
0100
0010
0001
1000
0010
0000
,
0100
0000
0001
1000
0100
0000
0010
0001
1000
0010
0100
0001
1010
0000
0001
0000
,
1002
0000
0010
0000
0203
0000
0310
0001
0000
0010
0100
0001
1000
0100
0010
0000
,
0002
0000
0000
0000
0000
0000
0000
0000
0200
0300
0000
0000
0000
0000
0000
0000
1003
0000
0000
0000
0100
0000
0000
0000
0010
0000
0000
0000
0001
0000
0000
0000
1000
0000
0000
0000
0010
0000
0000
0000
0200
0000
0000
0000
0000
0000
0000
0000
0310
0000
0000
0000
1000
0000
0000
0000
0001
0000
0000
0000
0010
0000
0000
0000
,
0200
0300
1000
0100
0002
0003
0100
1000
0001
0100
0010
1000
0101
0000
1010
0001
,
0200
0000
0310
0000
1000
0001
0010
0100
1000
0000
1000
0000
0011
0000
0000
0000
,
0100
0001
1000
0100
1000
0001
0100
0010
0100
0002
1003
0100
,
0010
0001
0100
0011
1000
0001
0010
0100
1000
0011
1000
0100
,
0010
0001
1000
0011
0100
0001
0010
0100
1000
0020
0000
0130
,
0001
0000
1000
0000
0100
0000
1010
0000
0001
0000
1000
0000
0010
0000
0100
0000
0001
0000
1010
0000
0100
00M0
0100
0000
,
0010
1000
0001
1010
0100
1000
0001
0100
0010
2000
0001
3001
,
0100
0001
0010
0101
1000
0001
0100
0010
1000
0101
1000
0010
,
0100
0001
1000
0101
0010
0001
1000
0010
0100
0002
0000
0013
,
0100
0000
1000
0000
0010
0000
1100
0000
0001
0000
1000
0000
0200
0000
0000
0000
0000
0000
0310
0000
0000
0001
0000
0000
,
1100
0000
0000
0001
0100
0000
0010
0000
1000
0100
1000
0001
0200
0000
0310
0000
,
0100
0001
0000
1000
0101
0000
1010
0000
0100
0010
0001
0100
0010
1000
0001
0010
,
0101
0000
0000
1000
0011
0000
1100
0000
0001
0100
0001
1000
0200
0000
0310
0000
,
0002
0000
0203
0000
0320
0000
1030
0001
0020
0000
0230
0000
1310
0000
0001
1000
,
0020
0000
0000
0000
0000
0000
0130
0000
0000
0001
0000
0000
2000
0000
0000
0000
0000
0000
3001
0000
0010
0000
0001
0000
1000
0000
0000
0000
0000
0000
0010
0000
0000
0000
0000
0000
0200
0000
0000
0000
0000
0000
0301
0000
0000
0000
0000
0000
,
0010
0000
0000
0100
0000
0000
1000
0000
0000
0001
0000
0000
0200
0000
0000
0000
0000
0000
0310
0000
0000
1000
0000
0000
0001
0000
0000
0000
0000
0000
1000
0000
0100
0000
0010
0000
0001
0000
0000
0000
0000
0000
0100
0000
0000
0000
0000
0000
,
0010
0000
0000
1000
0000
0000
0001
0000
0000
0010
0000
0000
0100
0000
0000
1000
0000
0000
0001
0000
0000
0100
0000
0000
0010
0000
0000
0000
0000
0000
1000
0000
0001
0000
0100
0000
0020
0000
0000
0000
0000
0000
0030
0000
0000
0000
0000
0000
,
2202
3303
0000
0000
0000
0000
0000
0000
0010
0000
0000
0000
0000
0000
0000
0000
2002
3003
0000
0000
0000
0000
0000
0000
0100
0000
0000
0000
0000
0000
0000
0000
0020
0030
0000
0000
0000
0000
0000
0000
0100
0000
0000
0000
0000
0000
0000
0000
0001
0000
0000
0000
1000
0000
0000
0000
0001
0000
0000
0000
1000
0000
0000
0000
,
0200
0000
0320
0000
0032
0000
0103
0010
2000
0000
3200
0000
0302
0000
0203
0000
,
0320
0000
0000
0000
0000
0000
0000
0000
0032
0000
0000
0000
0000
0000
0000
0000
2003
0000
0000
0000
0000
0000
0000
0000
3010
0000
0000
0000
0100
0000
0000
0000
0002
0000
0000
0000
0000
0000
0000
0000
0023
0000
0000
0000
0000
0000
0000
0000
2030
3000
0000
0000
0000
0000
0000
0000
0010
0000
0000
0000
0100
0000
0000
0000
,
1000
0000
0000
0000
0000
0000
1000
0000
0000
0000
0000
0000
0001
0000
0000
0000
0000
0000
0001
0000
0000
0000
0000
0000
1000
0000
0000
0010
0000
0000
0100
0000
0000
0001
0000
0000
1000
0000
0100
0000
1000
0000
0001
0000
0000
0000
0000
0000
,
0100
0000
0010
1000
0100
0000
0010
0001
0100
0000
0001
0010
1000
0000
0000
0000
,
0010
0001
1000
0010
0200
0000
0304
0003
;
