#TITLE:A transitory oath;
#SUBTITLE:;
#ARTIST:TOMOYUKI;
#TITLETRANSLIT:;
#SUBTITLETRANSLIT:;
#ARTISTTRANSLIT:;
#CREDIT:;
#BANNER:A_transitory_oath-bn.png;
#BACKGROUND:A_transitory_oath-bg.png;
#LYRICSPATH:A_transitory_oath.lrc;
#CDTITLE:NAOKI_cdtitle.png;
#MUSIC:A transitory oath.mp3;
#OFFSET:-0.388;
#SAMPLESTART:81.239;
#SAMPLELENGTH:12.000;
#SELECTABLE:YES;
#BPMS:0.000=190.000;
#STOPS:;
#BGCHANGES:;

//---------------dance-single - NAOKI----------------
#NOTES:
     dance-single:
     NAOKI:
     Hard:
     16:
     0.976,1.000,0.511,0.211,0.242: // measure 1
0010
1000
0001
0010
0010
0100
0001
0010
,  // measure 2
0100
1000
0001
0100
0100
0010
0001
0100
,  // measure 3
0010
1000
0100
0010
0010
1000
0001
0010
,  // measure 4
0100
1000
0010
0100
0100
1000
0001
0100
,  // measure 5
0010
1000
0001
0010
0010
1000
0001
0010
,  // measure 6
0100
1000
0001
0100
0100
1000
0010
0100
,  // measure 7
0001
1000
0100
0010
0010
1000
0100
0010
,  // measure 8
0001
1000
0010
0100
0100
1000
0001
0100
,  // measure 9
0110
0001
1000
0010
0010
0100
1000
0010
,  // measure 10
0100
0001
1000
0100
0100
0010
1000
0100
,  // measure 11
0010
0001
0100
0010
0010
0001
1000
0010
,  // measure 12
0100
0001
0010
0100
0100
0001
1000
0100
,  // measure 13
0010
0001
1000
0010
0010
0001
1000
0010
,  // measure 14
0100
0001
1000
0100
0100
0001
0010
0100
,  // measure 15
1000
0001
0100
0010
0010
0001
1000
0010
,  // measure 16
0100
0001
1000
0100
0100
0001
1000
0100
,  // measure 17
0210
0000
0310
0001
1000
0010
0100
0000
,  // measure 18
0100
0001
1000
0100
0010
0000
0011
0000
,  // measure 19
1002
0000
0103
0010
1000
0001
0010
0000
,  // measure 20
0100
1000
0001
0100
0010
0000
1010
0000
,  // measure 21
0201
0000
0310
1000
0001
0010
0100
0000
,  // measure 22
0100
1000
0001
0100
0010
1000
0100
0010
,  // measure 23
2001
0000
3010
0100
0001
1000
0200
0000
,  // measure 24
0310
0001
1000
0010
0100
0000
0110
0010
,  // measure 25
1000
0001
0010
0200
1300
0001
0200
0000
,  // measure 26
0310
1000
0001
0010
1100
0000
0101
0000
,  // measure 27
0001
1000
0010
0200
0301
1000
0200
0000
,  // measure 28
0310
0001
1000
0010
0101
0000
1100
0000
,  // measure 29
1000
0001
0100
0020
1030
0001
0020
0000
,  // measure 30
0130
1000
0001
0100
0010
1000
0100
0010
,  // measure 31
0001
1000
0010
0200
0301
1000
0200
0000
,  // measure 32
0310
0001
1000
0010
0110
0000
0100
0010
,  // measure 33
1000
0001
1000
0100
0000
0010
0001
0000
,  // measure 34
1000
1100
0000
0001
0101
0000
0110
0000
,  // measure 35
0010
1000
0001
0010
0000
0100
1000
0000
,  // measure 36
0001
0101
0000
1000
1100
0000
0110
0000
,  // measure 37
0010
0001
1000
0010
0000
0100
0001
0000
,  // measure 38
1000
1010
0000
0001
0011
0000
0110
0000
,  // measure 39
0100
1000
0001
0100
0000
0010
0100
0000
,  // measure 40
0010
0100
0010
0000
0100
0000
0001
1000
0001
0000
0010
0000
0100
0000
1000
0000
,  // measure 41
1001
0001
0100
0010
0000
0110
0100
0001
,  // measure 42
1002
0000
0013
0100
1000
0001
0100
0000
,  // measure 43
0110
0010
1000
0100
0000
0110
0010
0001
,  // measure 44
1002
0000
0103
0010
1000
0001
0010
0000
,  // measure 45
0100
1000
0001
0100
0000
0110
0010
1000
,  // measure 46
2001
0000
3100
0010
0001
0100
0010
1000
,  // measure 47
1001
0001
0010
0100
0000
0100
0010
0001
,  // measure 48
0010
0100
0010
0000
0100
0000
1000
0001
1000
0000
0001
0000
0100
0000
0010
0000
,  // measure 49
1000
0100
0010
0001
0100
0010
0100
0001
,  // measure 50
0010
0000
1100
0000
0011
0100
1000
0010
,  // measure 51
0100
0010
1000
0001
0010
0100
0010
0001
,  // measure 52
0100
0000
1010
0000
0011
0100
1000
0010
,  // measure 53
0110
0100
0001
1000
0100
0010
0100
1000
,  // measure 54
0010
0000
0101
0000
1010
0100
0001
0010
,  // measure 55
0100
0010
0001
1000
0010
0100
0010
1000
,  // measure 56
0100
0000
0011
0000
1100
0010
0001
1000
,  // measure 57
1001
0001
0100
1000
0100
0010
1000
0001
,  // measure 58
0010
0000
0011
0000
1100
0010
0001
0100
,  // measure 59
1000
0100
0001
1000
0100
0010
0001
1000
,  // measure 60
0010
0000
1010
0000
0011
0100
1000
0010
,  // measure 61
0001
0010
1000
0001
0010
0100
1000
0001
,  // measure 62
0100
0000
0101
0000
1010
0100
0001
0010
,  // measure 63
1000
0010
0001
1000
0010
0100
0001
1000
,  // measure 64
0100
0010
0100
0000
0010
0000
0001
1000
0001
0000
1000
0000
0010
0000
0100
0000
,  // measure 65
0001
0000
1000
0001
1000
0000
0010
0000
1000
0001
1000
0000
0100
0000
1000
0001
,  // measure 66
1000
0000
0010
0000
0100
0001
0100
0000
0010
0000
1000
0000
0001
0000
0010
0000
,  // measure 67
0100
0000
1000
0001
1000
0000
0100
0000
1000
0001
1000
0000
0010
0000
1000
0001
,  // measure 68
1000
0000
0100
0000
0010
0000
0001
0000
1000
0000
0010
0100
0001
0100
0010
0000
,  // measure 69
0100
0000
0001
1000
0001
0000
0010
0000
0001
1000
0001
0000
0100
0000
0001
1000
,  // measure 70
0001
0000
0010
0000
0100
0000
1000
0000
0100
0000
0010
0001
0010
0000
0100
0000
,  // measure 71
1000
0000
0001
1000
0001
0000
0100
0000
0001
1000
0001
0000
0010
0000
0001
1000
,  // measure 72
0001
0000
0100
0000
0010
1000
0010
0000
0100
0000
0001
0100
0010
0100
0001
0000
,  // measure 73
1001
0000
1000
0010
0100
0000
0110
0000
0010
1000
0001
0000
1001
0000
1000
0100
,  // measure 74
0010
0000
0110
0000
0100
1000
0001
0000
0010
0000
0100
0000
1000
0000
0100
0000
,  // measure 75
0010
0000
0001
0010
0100
0000
0110
0000
0010
0001
1000
0000
1001
0000
0001
0100
,  // measure 76
0010
0000
0110
0000
0100
0000
0001
0000
1000
0000
0010
0100
0001
1000
0100
0000
,  // measure 77
0110
0000
0010
0001
1000
0000
1001
0000
0001
0100
0010
0000
0110
0000
0100
0001
,  // measure 78
1000
0000
0100
0000
0010
0000
0001
0000
1001
0000
1000
0010
0100
0000
0010
0000
,  // measure 79
0110
0000
0100
0001
1000
0000
1001
0000
0001
0010
0100
0000
0110
0000
0010
0001
,  // measure 80
1000
0000
0001
0010
0100
0010
0001
0000
1000
0010
0100
0010
1000
0001
0010
0100
,  // measure 81
2000
0100
3100
0010
0001
1000
0020
0100
,  // measure 82
0130
0001
0010
0100
1000
0100
0010
0001
,  // measure 83
2000
0010
3010
0100
0001
1000
0200
0010
,  // measure 84
0310
0000
0001
0000
0100
0000
0010
0000
1000
0000
0001
1000
0001
0000
0010
0000
,  // measure 85
0002
0100
0103
0010
1000
0001
0020
0100
,  // measure 86
0130
1000
0010
0100
0001
0100
0010
1000
,  // measure 87
0002
0010
0013
0100
1000
0001
0200
0010
,  // measure 88
0310
0000
1000
0001
1000
0000
0100
0000
0010
0000
0001
0000
0010
0000
0100
0000
,  // measure 89
2000
0001
3001
0100
0010
1000
0002
0010
,  // measure 90
0013
0100
1000
0001
0100
0010
1000
0001
,  // measure 91
0020
0100
0130
1000
0001
0100
0010
0100
,  // measure 92
0001
1000
0100
0010
0001
0010
0100
1000
,  // measure 93
0001
1000
0001
0100
0010
0000
1000
0001
1000
0010
0100
0000
0010
1000
0001
0010
,  // measure 94
0100
1000
0010
0100
0001
0100
0010
1000
,  // measure 95
0001
1000
0001
0010
0100
0000
1000
0001
1000
0100
0010
0000
0100
1000
0001
0100
,  // measure 96
0020
0000
1030
0001
0010
0000
0200
0000
1300
0001
0100
0010
0100
0001
1000
0010
,  // measure 97
0100
0001
0010
0010
1000
0001
0010
0100
,  // measure 98
1100
0000
0101
0000
1010
0100
0001
0010
,  // measure 99
0100
1000
0010
0010
0001
1000
0100
0010
,  // measure 100
0011
0000
1100
0000
0101
0010
1000
0100
,  // measure 101
0010
0001
0100
0100
1000
0001
0100
0010
,  // measure 102
1010
0000
0011
0000
1100
0010
0001
0100
,  // measure 103
0010
1000
0100
0100
0001
1000
0010
0100
,  // measure 104
0101
0000
1010
0000
0011
0100
1000
0010
,  // measure 105
0110
1000
0001
0100
0100
0010
0001
0100
,  // measure 106
0010
1000
0001
0010
0010
0100
0001
0010
,  // measure 107
0100
1000
0010
0100
0100
1000
0001
0100
,  // measure 108
0010
1000
0100
0010
0010
1000
0001
0010
,  // measure 109
0100
1000
0001
0100
0100
1000
0001
0100
,  // measure 110
0010
1000
0001
0010
0010
1000
0100
0010
,  // measure 111
0001
1000
0010
0100
0100
1000
0001
0100
,  // measure 112
0001
0010
0001
0000
1000
0010
1000
0000
0001
0100
0010
1000
0001
0100
0010
0000
,  // measure 113
0220
0000
0330
0000
;

//---------------dance-single - NAOKI----------------
#NOTES:
     dance-single:
     NAOKI:
     Easy:
     7:
     0.408,0.459,0.238,0.327,0.000:
0001
0000
1000
0000
,
0001
0100
0010
0000
,
1000
0000
0001
0000
,
1000
0010
0100
0000
,
0001
0000
1000
0000
,
0001
0010
0100
0000
,
1000
0000
0001
0000
,
1000
0100
0010
0001
,
1000
0000
0001
0000
,
1000
0010
0100
0000
,
0001
0000
1000
0000
,
0001
0100
0010
0000
,
1000
0000
0001
0000
,
1000
0100
0010
0000
,
0001
0000
1000
0000
,
0001
0010
0100
1000
,
2001
3010
0000
1002
,
0013
0000
0100
0000
,
2001
3100
0000
1002
,
0103
0000
0010
0000
,
2010
3100
0000
0012
,
0103
0000
0010
0000
,
0102
0013
0000
2100
,
3010
0000
0100
0001
,
1002
0013
0000
2001
,
3010
0000
0100
0000
,
1002
0103
0000
2001
,
3100
0000
0010
0000
,
0012
0103
0000
2010
,
3100
0000
0010
0000
,
2100
3010
0000
0102
,
0013
0000
0100
0000
,
1001
0010
0000
0010
,
1000
0100
0000
0100
,
0010
0001
0000
0001
,
0100
0010
1000
1000
,
0100
0010
0000
0010
,
0001
0100
0000
0100
,
0010
1000
0000
1000
,
0100
0010
0001
0001
,
0200
0310
1000
0100
,
0020
0031
0100
0100
,
0020
0130
0001
0010
,
0200
1300
0001
1000
,
0200
0310
0001
0100
,
0020
1030
0100
0100
,
0020
0130
1000
0010
,
0200
0301
0010
0010
,
0100
1000
0001
0100
,
0010
0010
0010
0000
,
0100
0001
1000
0100
,
0020
0100
0130
0000
,
0010
0001
1000
0010
,
0100
0100
0100
0000
,
0010
1000
0001
0010
,
0200
0010
0310
0000
,
0100
1000
0010
0100
,
0001
0001
0001
0000
,
0010
0001
0100
0010
,
2000
0001
3001
0000
,
0100
0001
0010
0100
,
1000
1000
1000
0000
,
0010
1000
0100
0010
,
0002
1000
1003
0000
,
1001
0000
0010
0000
,
0101
0100
0010
0000
,
1001
0000
0010
0000
,
1100
0100
0010
0000
,
1001
0000
0100
0000
,
0011
0010
0100
0000
,
1001
0000
0100
0000
,
1010
0010
0100
0000
,
0110
0000
0001
0000
,
1100
1000
0001
0000
,
0110
0000
0001
0000
,
1010
1000
0001
0000
,
0110
0000
1000
0000
,
0101
0001
1000
0000
,
0110
0000
1000
0000
,
0011
0001
1000
0000
,
0002
0103
0001
2000
,
3100
1000
0020
0030
,
0100
0001
1000
0200
,
0300
0010
0001
1000
,
0020
0030
0100
0002
,
0013
0100
2000
3010
,
0200
0301
1000
0200
,
0310
0001
1001
0000
,
2000
3100
1000
0002
,
0103
0001
0020
0030
,
0100
1000
0001
0200
,
0300
0010
1000
0001
,
0020
0030
0100
2000
,
3010
0100
0002
0013
,
0200
1300
0001
0200
,
0310
0100
0001
1000
,
0100
0000
0010
0000
,
0001
1000
0010
0000
,
1000
0000
0001
0000
,
0010
0100
1000
0000
,
0010
0000
0100
0000
,
0001
1000
0100
0000
,
1000
0000
0001
0000
,
0100
0010
1000
0001
,
0010
0000
0100
0000
,
1000
0001
0100
0000
,
0001
0000
1000
0000
,
0100
0010
0001
0000
,
0100
0000
0010
0000
,
1000
0001
0010
0000
,
0001
0000
1000
0000
,
0010
0100
0001
1000
,
2002
0000
3003
0000
;

//---------------dance-single - NAOKI----------------
#NOTES:
     dance-single:
     NAOKI:
     Medium:
     12:
     0.672,0.689,0.619,0.436,0.000:
0010
0001
1000
0010
,
0100
0001
0010
0100
,
1000
0001
0100
0010
,
1000
0100
0010
0001
,
0100
0001
1000
0100
,
0010
0001
0100
0010
,
1000
0001
0010
0100
,
1000
0010
0100
0001
,
1001
1000
0001
0010
,
0100
1000
0010
0100
,
0001
1000
0100
0010
,
0001
0100
0010
1000
,
0100
1000
0001
0100
,
0010
1000
0100
0010
,
0001
1000
0010
0100
,
0001
0010
0100
1000
,
2010
3100
0010
0012
,
0103
0010
1001
0010
,
2100
3010
0100
0102
,
0013
0100
1001
0010
,
0012
0103
0010
2010
,
3100
0010
1001
0010
,
0102
0013
0100
2100
,
3010
0100
1001
0100
,
0021
1030
0010
0201
,
1300
0100
1001
0100
,
1020
0031
0010
1200
,
0301
0100
1001
0010
,
0201
1300
0100
0021
,
1030
0010
1001
0010
,
1200
0301
0100
1020
,
0031
0010
1001
0100
,
0010
0010
1000
1000
,
0100
0010
1001
1001
,
0010
0010
0001
0001
,
0100
0100
1001
1001
,
0010
0010
1000
1000
,
0100
0010
1001
1001
,
0100
0100
0001
0001
,
0010
0100
1000
0001
0100
0000
0010
0100
,
0010
0000
1001
0000
1000
0200
0000
0310
,
0002
0000
0103
0010
1000
0100
0000
0100
,
0010
0000
1001
0000
0001
0200
0000
0310
,
2000
0000
3100
0010
0001
0100
0000
0100
,
0010
0000
1001
0000
1000
0020
0000
0130
,
0002
0000
0013
0100
1000
0001
0100
0010
,
1000
0000
1001
0000
0001
0020
0000
0130
,
2000
0000
3010
0100
0001
0010
0100
0100
,
2000
0000
0010
0000
0001
0000
3100
0010
,
0001
0101
1100
0010
,
0002
0000
0010
0000
1000
0000
0103
0010
,
1000
1100
0101
0010
,
2000
0000
0100
0000
0001
0000
3010
0100
,
0001
0011
1010
0100
,
0002
0000
0100
0000
1000
0000
0013
0100
,
1000
1010
0011
0100
,
1002
0000
0103
0000
0010
1000
0001
1000
,
0100
0000
0010
0001
0000
0001
0100
0000
,
2001
0000
3100
0000
0010
0001
1000
0001
,
0100
0000
0010
1000
0000
1000
0100
0000
,
1002
0000
0013
0000
0100
1000
0001
1000
,
0010
0000
0100
0001
0000
0001
0010
0000
,
2001
0000
3010
0000
0100
0001
1000
0001
,
0020
0000
0130
1000
0001
1000
0020
0000
,
0130
0000
0010
1000
0000
1000
0100
0000
,
1100
0000
1000
0010
0000
1010
0000
0000
,
0110
0000
0100
0001
0000
0001
0010
0000
,
0011
0000
0001
0100
0000
0101
0000
0001
,
0010
0000
0100
1000
0000
1000
0010
0000
,
1010
0000
1000
0100
0000
1100
0000
0000
,
0110
0000
0010
0001
0000
0001
0100
0000
,
0101
0000
0001
0010
0000
0011
0000
0001
,
0101
0000
0100
0001
0000
0001
0100
0000
,
0100
0001
1000
0100
0000
0010
0001
0000
,
1100
0000
0100
1000
0000
1000
0100
0000
,
0100
1000
0001
0100
0000
0010
1000
0000
,
0011
0000
0010
0001
0000
0001
0010
0000
,
0010
0001
1000
0010
0000
0100
0001
0000
,
1010
0000
0010
1000
0000
1000
0010
0000
,
0010
1000
0001
0010
0000
0100
1000
0000
,
2010
0000
3200
0000
0300
0010
0001
0100
,
0010
0000
0010
1000
0100
0010
0000
0000
,
0012
0000
0203
0000
0300
0010
1000
0100
,
0010
0000
0010
0001
0100
0010
0000
1000
,
2100
0000
3020
0000
0030
0100
0001
0010
,
0100
0000
0100
1000
0010
0100
0000
0000
,
0102
0000
0023
0000
0030
0100
1000
0010
,
0100
0000
0100
0001
0010
0100
1000
0010
,
0120
0000
2030
0000
3100
0010
0010
0001
,
0200
0000
0310
1000
0100
0010
0000
0000
,
0120
0000
0032
0000
0103
0010
0010
1000
,
0200
0000
0310
0001
0000
1000
0000
0000
,
0210
0000
2300
0000
3010
0100
0100
0001
,
0020
0000
0130
1000
0010
0100
0000
0000
,
0210
0000
0302
0000
0013
0100
0100
1000
,
0020
0000
0130
0001
0010
0000
0110
0000
,
1001
0001
0100
0100
,
0010
1000
0100
0000
2200
0000
3300
0000
,
1000
1000
0100
0100
,
0010
0001
0100
0000
0202
0000
0303
0000
,
0001
0001
0010
0010
,
0100
1000
0010
0000
2020
0000
3030
0000
,
1000
1000
0010
0010
,
0100
0001
0010
0000
0022
0000
0033
0000
,
1100
0000
0101
0000
0010
1000
0100
0000
,
0011
0000
1010
0000
0011
0000
0100
1000
,
0010
0100
0001
1000
0100
0010
0001
0000
,
1010
0000
0011
0000
1010
0000
0100
0001
,
0010
0100
1000
0001
0100
0010
1000
0000
,
0101
0000
1100
0000
0101
0000
0010
1000
,
0100
0010
0001
1000
0010
0100
0001
0000
,
1100
0101
1100
1001
,
0220
0000
0330
0000
;

//---------------dance-single - NAOKI----------------
#NOTES:
     dance-single:
     NAOKI:
     Beginner:
     2:
     0.103,0.152,0.007,0.000,0.000:
0010
0000
0000
0000
,
1000
0000
0000
0000
,
0001
0000
0000
0000
,
0010
0000
0000
0000
,
0100
0000
0000
0000
,
1000
0000
0000
0000
,
0001
0000
0000
0000
,
0100
0000
0000
0000
,
0010
0000
0000
0000
,
0001
0000
0000
0000
,
1000
0000
0000
0000
,
0010
0000
0000
0000
,
0100
0000
0000
0000
,
0001
0000
0000
0000
,
1000
0000
0000
0000
,
0100
0000
0000
0000
,
0010
0010
0000
0000
,
0000
0000
0000
0000
,
0001
0001
0000
0000
,
0000
0000
0000
0000
,
1000
1000
0000
0000
,
0000
0000
0000
0000
,
0010
0010
0000
0000
,
0000
0000
0000
0000
,
0100
0100
0000
0000
,
0000
0000
0000
0000
,
0001
0001
0000
0000
,
0000
0000
0000
0000
,
1000
1000
0000
0000
,
0000
0000
0000
0000
,
0100
0100
0000
0000
,
0000
0000
0000
0000
,
0010
0000
0000
0000
,
0001
0000
0000
0000
,
1000
0000
0000
0000
,
0010
0000
0000
0000
,
0100
0000
0000
0000
,
0001
0000
0000
0000
,
1000
0000
0000
0000
,
0100
0000
0000
0000
,
0010
0000
0000
0000
,
0001
0000
0000
0000
,
0001
0000
0000
0000
,
1000
0000
0000
0000
,
1000
0000
0000
0000
,
0010
0000
0000
0000
,
0100
0000
0000
0000
,
0100
0000
0000
0000
,
0001
0000
0000
0000
,
0010
0000
0000
0000
,
0100
0000
0000
0000
,
1000
0000
0000
0000
,
0010
0000
0000
0000
,
0100
0000
0000
0000
,
0001
0000
0000
0000
,
1000
0000
0000
0000
,
0100
0000
0000
0000
,
0010
0000
0000
0000
,
0001
0000
0000
0000
,
0100
0000
0000
0000
,
0010
0000
0000
0000
,
1000
0000
0000
0000
,
0001
0000
0000
0000
,
0100
0000
0000
0000
,
0010
0000
0000
0000
,
0000
0000
0000
0000
,
1000
0000
0000
0000
,
0000
0000
0000
0000
,
0001
0000
0000
0000
,
0000
0000
0000
0000
,
0010
0000
0000
0000
,
0000
0000
0000
0000
,
0100
0000
0000
0000
,
0000
0000
0000
0000
,
1000
0000
0000
0000
,
0000
0000
0000
0000
,
0001
0000
0000
0000
,
0000
0000
0000
0000
,
0100
0000
0000
0000
,
0000
0000
0000
0000
,
0010
0000
0000
0000
,
1000
0000
0000
0000
,
0100
0000
0000
0000
,
0010
0000
0000
0000
,
0001
0000
0000
0000
,
0100
0000
0000
0000
,
0010
0000
0000
0000
,
1000
0000
0000
0000
,
0001
0000
0000
0000
,
0010
0000
0000
0000
,
0001
0000
0000
0000
,
1000
0000
0000
0000
,
0010
0000
0000
0000
,
1000
0000
0000
0000
,
0100
0000
0000
0000
,
0010
0000
0000
0000
,
0001
0000
0000
0000
,
0001
0000
0000
0000
,
1000
0000
0000
0000
,
1000
0000
0000
0000
,
0010
0000
0000
0000
,
0010
0000
0000
0000
,
0100
0000
0000
0000
,
0100
0000
0000
0000
,
1000
0000
0000
0000
,
1000
0000
0000
0000
,
0001
0000
0000
0000
,
0001
0000
0000
0000
,
0100
0000
0000
0000
,
0100
0000
0000
0000
,
0010
0000
0000
0000
,
0010
0000
0000
0000
,
1001
0000
0000
0000
;

//---------------dance-single - NAOKI----------------
#NOTES:
     dance-single:
     NAOKI:
     Challenge:
     18:
     1.000,1.000,0.531,0.449,0.476: // measure 1
0010
0000
1000
0000
0001
0000
0010
M00M
0010
0000
0100
0000
0001
0000
0010
0000
,  // measure 2
0100
0000
1000
0000
0001
0000
0100
M00M
0100
0000
0010
0000
0001
0000
0100
0000
,  // measure 3
0010
0000
1000
0000
0100
0000
0010
M00M
0010
0000
1000
0000
0001
0000
0010
0000
,  // measure 4
0100
0000
1000
0000
0010
0000
0100
M00M
0100
0000
1000
0000
0001
0000
0100
0000
,  // measure 5
0010
0000
1000
0000
0100
0000
0010
M00M
0010
0000
1000
0000
0001
0000
0010
0000
,  // measure 6
0100
0000
1000
0000
0001
0000
0100
M00M
0100
0000
0010
0000
0001
0000
0100
0000
,  // measure 7
1000
0000
0100
0000
0001
0000
0010
M00M
0010
0000
1000
0000
0001
0000
0010
0000
,  // measure 8
1000
0000
0010
0000
0001
0000
0100
M00M
0100
0000
1000
0000
0001
0000
0100
0000
,  // measure 9
0110
0000
0001
0000
1000
0000
0010
M00M
0010
0000
0100
0000
1000
0000
0010
0000
,  // measure 10
0100
0000
0001
0000
1000
0000
0100
M00M
0100
0000
0010
0000
1000
0000
0100
0000
,  // measure 11
0010
0000
0001
0000
0100
0000
0010
M00M
0010
0000
0001
0000
1000
0000
0010
0000
,  // measure 12
0100
0000
0001
0000
0010
0000
0100
M00M
0100
0000
0001
0000
1000
0000
0100
0000
,  // measure 13
0010
0000
0001
0000
1000
0000
0010
M00M
0010
0000
0100
0000
1000
0000
0010
0000
,  // measure 14
0100
0000
0001
0000
1000
0000
0100
M00M
0100
0000
0010
0000
1000
0000
0100
0000
,  // measure 15
0001
0000
0100
0000
1000
0000
0010
M00M
0010
0000
0001
0000
1000
0000
0010
0000
,  // measure 16
0001
0000
0010
0000
1000
0000
0100
M00M
0100
0000
0001
0000
1000
0000
0100
0000
,  // measure 17
0210
0000
0310
0001
1000
0010
0100
M00M
,  // measure 18
0100
1000
0001
0100
0010
0000
1010
0000
,  // measure 19
0021
0000
0130
1000
0001
0100
0010
M00M
,  // measure 20
0010
0001
1000
0010
0100
0000
0101
0000
,  // measure 21
1020
0000
0130
0001
1000
0100
0010
M00M
,  // measure 22
0010
1000
0001
0010
0100
1000
0001
0100
,  // measure 23
0210
0000
0310
1000
0001
0010
0100
M00M
,  // measure 24
0100
0001
1000
0100
0020
0000
0130
1000
,  // measure 25
1001
0001
0100
0020
1030
0001
0020
0000
,  // measure 26
1030
0010
0001
0100
1010
0000
0011
0000
,  // measure 27
1100
0010
0001
0200
0310
1000
0200
0000
,  // measure 28
0301
0100
1000
0010
0101
0000
1100
0000
,  // measure 29
0011
0100
1000
0020
0130
0001
0020
0000
,  // measure 30
1030
0010
0100
1000
0001
0100
0010
1000
,  // measure 31
1001
0001
0010
0200
1300
0001
0200
0000
,  // measure 32
1300
0100
0001
0010
0110
0000
0100
1000
,  // measure 33
1002
0000
0103
0010
1000
0100
0010
0000
,  // measure 34
0100
1100
0000
0010
0011
0000
1001
0000
,  // measure 35
2010
0000
3100
0010
0001
0100
0010
0000
,  // measure 36
0100
0101
0000
0010
1010
0000
1001
0000
,  // measure 37
0102
0000
0013
0100
1000
0010
0100
0000
,  // measure 38
0010
1010
0000
0100
0101
0000
1001
0000
,  // measure 39
2100
0000
3010
0100
0001
0010
0100
0000
,  // measure 40
21M0
01M0
3002
01M0
01M3
0010
0110
0100
,  // measure 41
1001
0100
0010
0001
0000
0101
0010
1000
,  // measure 42
2001
0000
3100
0010
1000
0010
0100
0000
,  // measure 43
1000
0001
0010
0100
0000
1100
0010
0001
,  // measure 44
1002
0000
0103
0010
0001
0010
0100
0000
,  // measure 45
0001
1000
0100
0010
0000
0011
0100
1000
,  // measure 46
2001
0000
3010
0110
0100
1001
0010
0100
,  // measure 47
0110
0010
1000
0100
0000
1100
0010
0001
,  // measure 48
01M2
01M0
1003
21M0
01M0
3001
0110
0100
,  // measure 49
1001
0000
0100
0000
0010
0000
0001
0000
0100
000M
10M0
000M
0100
0000
0001
0000
,  // measure 50
0010
0000
0000
0000
1100
0000
0000
0000
0011
0000
0100
0000
1000
0000
0010
M000
,  // measure 51
0M01
M000
0010
0000
1000
0000
0001
0000
0010
000M
1M00
000M
0010
0000
0001
0000
,  // measure 52
0100
0000
1010
0000
0011
0100
1000
0010
,  // measure 53
0110
0000
0100
0000
0001
0000
1000
0000
0100
M000
00M1
M000
0100
0000
1000
0000
,  // measure 54
0010
0000
0000
0000
0101
0000
0000
0000
1010
0000
0100
0000
0001
0000
0010
000M
,  // measure 55
1M00
000M
0010
0000
0001
0000
1000
0000
0010
M000
0M01
M000
0010
0000
1000
0000
,  // measure 56
0100
0000
0011
0000
1010
0100
0001
0010
,  // measure 57
0110
0001
0100
1000
0010
1000
0100
0001
,  // measure 58
0M10
0000
0011
M000
1100
001M
0001
0100
,  // measure 59
M010
1000
0100
0001
0010
M001
0100
1000
,  // measure 60
0M10
0000
1010
000M
0011
M100
1000
0010
,  // measure 61
010M
0001
0010
1000
0100
100M
0010
0001
,  // measure 62
01M0
0000
0101
M000
1010
010M
0001
0010
,  // measure 63
M100
1000
0010
0001
0100
M001
0010
1000
,  // measure 64
21M0
01M0
3001
01M2
01M0
1003
0100
0010
,  // measure 65
0001
0000
0000
1000
0100
1000
0100
0000
0000
0020
0000
0030
0001
1000
0001
1000
0000
0000
0020
0000
0030
0100
0001
0100
,  // measure 66
0001
0000
0000
2000
0000
3000
0001
0010
0001
0010
0000
0000
0100
0000
0000
1000
0000
0000
0001
0000
0000
0100
0000
0000
,  // measure 67
0010
0000
0000
1000
0010
1000
0010
0000
0000
0200
0000
0300
0001
1000
0001
1000
0000
0000
0200
0000
0300
0010
0001
0010
,  // measure 68
0001
0000
0000
1000
0000
0000
0010
0000
0000
0100
0000
0000
0001
0000
0000
1000
0100
0010
0001
0000
0000
1000
0000
0000
,  // measure 69
2000
0000
3000
0001
0100
0001
0100
0000
0000
0020
0000
0030
1000
0001
1000
0001
0000
0000
0020
0000
0030
0100
1000
0100
,  // measure 70
1000
0000
0000
0100
0000
0000
0010
0000
0000
0001
0000
0000
1000
0000
0000
0010
0100
0010
0100
0000
0000
0010
0000
0000
,  // measure 71
1000
0000
0000
0001
0010
0001
0010
0000
0000
0200
0000
0300
1000
0001
1000
0001
0000
0000
0200
0000
0300
0010
1000
0010
,  // measure 72
1000
0000
0000
0000
0000
0000
0002
0000
0000
0000
0003
0000
1000
0000
0100
0000
1000
0000
0100
0000
0000
0000
0000
0000
0010
0000
0000
0000
0000
0000
0001
0000
1000
0000
0001
0000
1000
0000
0000
0010
0000
0000
0100
0000
0000
0001
0000
0000
,  // measure 73
20M0
0000
3000
0001
0100
0010
1000
0000
0000
0002
0000
0003
1000
0100
0010
0001
0000
0000
2000
0000
3000
0001
0100
0010
,  // measure 74
1000
0000
0000
0002
0000
0003
0010
0100
0010
010M
0000
0000
1000
0000
0000
00M1
0000
0000
0100
0000
0000
0010
0000
0000
,  // measure 75
2000
0000
3000
0001
0010
0100
1000
0000
0000
0002
0000
0003
1000
0010
0100
0001
0000
0000
2000
0000
3000
0001
0010
0100
,  // measure 76
1000
0000
0000
0001
0000
0000
0100
0000
0000
M010
0000
0000
1000
0000
0000
010M
0010
0100
0010
0000
0000
0001
0000
0000
,  // measure 77
0002
0000
0003
1000
0100
0010
0001
0000
0000
2000
0000
3000
0001
0100
0010
1000
0000
0000
0002
0000
0003
1000
0100
0010
,  // measure 78
0001
0000
0000
0100
0000
0000
0010
0000
0000
1M00
0000
0000
0001
0000
0000
M010
0100
0010
0100
0000
0000
1000
0000
0000
,  // measure 79
0002
0000
0003
1000
0010
0100
0001
0000
0000
2000
0000
3000
0001
0010
0100
1000
0000
0000
0001
0000
0000
1000
0010
0100
,  // measure 80
0002
0000
0000
0000
0003
0000
1000
0000
0000
0000
0000
0000
0001
0000
0010
0000
0100
0000
2000
0000
0000
0000
3000
0000
0100
0000
0000
0010
0000
0000
0001
0000
0000
1000
0000
0000
0010
0000
0000
0100
0000
0000
0001
0000
0000
1000
0000
0000
,  // measure 81
0200
0010
0310
0100
1000
0001
0200
0010
,  // measure 82
0310
0000
1000
0000
0100
M00M
0100
0000
0001
0000
0010
0000
1000
0000
0010
0000
,  // measure 83
0002
0100
0103
0010
1000
0001
0020
0100
,  // measure 84
0130
1000
0001
0100
1000
0100
0001
1000
,  // measure 85
0200
0010
0310
0001
1000
0001
0200
0010
,  // measure 86
0310
0000
1000
0000
0100
M00M
0100
0000
0001
0000
0010
0000
1000
0000
0010
0000
,  // measure 87
0002
0100
0103
0010
1000
0001
0020
0100
,  // measure 88
0130
1000
0001
0100
1000
0100
0001
1000
,  // measure 89
0200
0000
0010
0000
0310
0000
0001
0000
0100
M00M
0100
0000
2000
0000
0001
0000
,  // measure 90
3001
0000
0100
0000
1000
0MMM
1000
0000
0100
0000
0001
0000
0100
0000
1000
0000
,  // measure 91
0020
0000
0100
0000
0130
0000
0001
0000
0010
M00M
0010
0000
1000
0000
0100
0000
,  // measure 92
0010
0001
0100
M010
0001
M010
0100
0000
,  // measure 93
0010
1000
0010
1000
0100
0000
0010
0001
0010
0001
0100
0000
0010
1000
0001
0010
,  // measure 94
0100
1000
0010
010M
1000
010M
0010
1000
,  // measure 95
0100
1000
0100
1000
0010
0000
0100
0001
0100
0001
0010
0000
0100
1000
0001
0100
,  // measure 96
0020
0000
1030
0001
0010
0000
0200
0000
0310
0001
1000
0010
0100
0001
0010
0100
,  // measure 97
1000
0000
0001
0000
0010
M00M
0010
0000
1000
0000
0001
0000
0010
0000
0100
0000
,  // measure 98
1100
0000
0101
0000
1010
0100
0001
0010
,  // measure 99
0100
0000
1000
0000
0010
M00M
0010
0000
0001
0000
1000
0000
0010
0000
0100
0000
,  // measure 100
0101
0000
1100
0000
0011
0100
1000
0010
,  // measure 101
0100
0000
0001
0000
0010
M00M
0010
0000
1000
0000
0001
0000
0100
0000
0010
0000
,  // measure 102
1010
0000
0011
0000
1100
0010
0001
0100
,  // measure 103
0010
0000
1000
0000
0100
M00M
0100
0000
0001
0000
1000
0000
0100
0000
0010
0000
,  // measure 104
0011
0000
1010
0000
0101
0010
1000
0100
,  // measure 105
0110
0000
1000
0000
0001
0000
0100
M00M
0100
0000
0010
0000
0001
0000
0100
0000
,  // measure 106
0010
0000
1000
0000
0001
0000
0010
M00M
0010
0000
0100
0000
0001
0000
0010
0000
,  // measure 107
0100
0000
1000
0000
0010
0000
0100
M00M
0100
0000
1000
0000
0001
0000
0100
0000
,  // measure 108
0010
0000
1000
0000
0100
0000
0010
M00M
0010
0000
1000
0000
0001
0000
0010
0000
,  // measure 109
0100
0000
1000
0000
0001
0000
0100
M00M
0100
0000
1000
0000
0001
0000
0100
0000
,  // measure 110
0010
0000
1000
0000
0001
0000
0010
M00M
0010
0000
1000
0000
0001
0000
0010
0000
,  // measure 111
1000
0000
0010
0000
0001
0000
0100
M00M
0100
0000
1000
0000
0001
0000
0100
0000
,  // measure 112
0010
0100
0010
0100
0001
1000
0001
1000
0100
0010
0001
1000
0010
0100
0001
0000
,  // measure 113
2002
0000
3003
0000
;
