#TITLE:Winds of Fareast;
#SUBTITLE:;
#ARTIST:DM Ashura;
#TITLETRANSLIT:;
#SUBTITLETRANSLIT:;
#ARTISTTRANSLIT:;
#CREDIT:;
#BANNER:;
#BACKGROUND:;
#LYRICSPATH:;
#CDTITLE:;
#MUSIC:Winds of Fareast.mp3;
#OFFSET:-0.023;
#SAMPLESTART:37.659;
#SAMPLELENGTH:25.000;
#SELECTABLE:YES;
#BPMS:0.000=153.001;
#STOPS:;
#BGCHANGES:;

//---------------dance-single - Wahyu D. L.----------------
#NOTES:
     dance-single:
     Wahyu D. L.:
     Beginner:
     1:
     0.063,0.126,0.013,0.000,0.000:
0000
0000
0000
0000
,
0000
0000
0000
0000
,
0000
0000
0000
0000
,
0000
0000
0000
0000
,
0000
0000
0000
0000
,
0000
0000
0000
0000
,
0000
0000
0000
0000
,
0000
0000
0000
0000
,
1000
0000
0000
0000
,
0001
0000
0000
0000
,
1000
0000
0000
0000
,
0001
0000
0000
0000
,
1000
0000
0000
0000
,
0001
0000
0000
0000
,
1000
0000
0000
0000
,
0010
0000
0000
0000
,
0100
0000
0000
0000
,
0000
0000
0000
0000
,
0010
0000
0000
0000
,
0000
0000
0000
0000
,
0100
0000
0000
0000
,
0000
0000
0000
0000
,
0010
0000
0000
0000
,
0000
0000
0000
0000
,
0100
0000
0000
0000
,
1000
0000
0000
0000
,
0001
0000
0000
0000
,
0010
0000
0000
0000
,
0001
0000
0000
0000
,
1000
0000
0000
0000
,
0100
0000
0000
0000
,
1000
0000
0000
0000
,
0001
0000
0000
0000
,
0000
0000
0000
0000
,
1000
0000
0000
0000
,
0000
0000
0000
0000
,
0001
0000
0000
0000
,
0000
0000
0000
0000
,
1000
0000
0000
0000
,
0000
0000
0000
0000
,
0001
0000
0000
0000
,
0000
0000
0000
0000
,
1000
0000
0000
0000
,
0000
0000
0000
0000
,
0010
0000
0000
0000
,
0100
0000
0000
0000
,
0010
0000
0000
0000
,
1001
0000
0000
0000
,
1000
0000
0000
0000
,
0000
0000
0000
0000
,
0001
0000
0000
0000
,
0000
0000
0000
0000
,
1000
0000
0000
0000
,
0000
0000
0000
0000
,
0001
0000
0000
0000
,
0000
0000
0000
0000
,
1000
0000
0000
0000
,
0100
0000
0000
0000
,
0010
0000
0000
0000
,
0001
0000
0000
0000
,
1000
0000
0000
0000
,
0001
0000
0000
0000
,
0100
0000
0000
0000
,
0010
0000
0000
0000
,
0001
0000
0000
0000
,
0000
0000
0000
0000
,
1000
0000
0000
0000
,
0000
0000
0000
0000
,
0001
0000
0000
0000
,
0000
0000
0000
0000
,
1000
0000
0000
0000
,
0000
0000
0000
0000
,
0001
0000
0000
0000
,
0100
0000
0000
0000
,
0010
0000
0000
0000
,
1000
0000
0000
0000
,
0001
0000
0000
0000
,
1000
0000
0000
0000
,
0001
0000
0000
0000
,
1000
0000
0000
0000
,
0001
0000
0000
0000
,
0000
0000
0000
0000
,
1000
0000
0000
0000
,
0000
0000
0000
0000
,
0001
0000
0000
0000
,
0000
0000
0000
0000
,
1000
0000
0000
0000
,
0000
0000
0000
0000
,
0001
0000
0000
0000
,
0000
0000
0000
0000
,
0100
0000
0000
0000
,
0000
0000
0000
0000
,
1000
0000
0000
0000
,
0001
0000
0000
0000
,
1000
0000
0000
0000
,
1001
0000
0000
0000
;

//---------------dance-single - Wahyu D. L.----------------
#NOTES:
     dance-single:
     Wahyu D. L.:
     Easy:
     3:
     0.324,0.287,0.020,0.538,0.000:
0000
0000
0000
0000
,
0000
0000
0000
0000
,
0000
0000
0000
0000
,
0000
0000
0000
0000
,
0000
0000
0000
0000
,
0000
0000
0000
0000
,
0000
0000
0000
0000
,
0000
0000
0000
0000
,
2000
3000
1000
1000
,
0002
0003
0010
0010
,
0002
0003
0100
0100
,
2000
3000
0001
0001
,
2000
3000
0010
0010
,
0200
0300
1000
1000
,
0002
0003
1000
0001
,
2002
0000
0000
3000
,
1003
0000
0100
1000
,
0001
0100
0010
0001
,
1000
0000
1000
0010
,
0001
0010
1000
0001
,
0100
0000
1000
0010
,
0001
1000
0010
1000
,
0001
0000
0001
0010
,
0100
1000
0100
0001
,
0200
0300
0010
1000
,
0002
0003
1000
0001
,
0200
0300
0010
0100
,
0020
0030
0001
0010
,
0200
0300
1000
0001
,
2000
3000
1000
0100
,
0020
0030
0001
0010
,
0200
0300
1000
0001
,
2000
3000
0200
0300
,
1000
0100
0010
0001
,
2000
3000
0002
0003
,
0001
0010
0100
1000
,
0002
0003
2000
3000
,
0010
0100
0010
0001
,
2000
3000
2000
3000
,
0001
0010
0100
1000
,
0002
0003
2000
3000
,
1000
0100
0010
0001
,
2000
3000
0002
0003
,
1000
0001
0010
0100
,
0002
0000
2003
0000
,
3002
0000
2003
0000
,
3200
0000
0310
0100
,
0002
0000
0000
0000
,
2003
3000
0200
0300
,
2000
3000
0001
0010
,
0200
0300
0002
0003
,
2000
3000
0001
1000
,
0200
0300
2000
3000
,
0002
0003
1000
0001
,
0200
0300
0020
0030
,
0200
0300
0002
0003
,
1000
0100
0010
0001
,
2000
3000
0001
1000
,
0020
0030
0100
0010
,
0002
0003
1000
0001
,
2000
3000
0100
0010
,
2000
3000
1000
0001
,
2000
3000
0001
0010
,
2002
0000
0000
3000
,
1003
0000
0001
1000
,
0100
1000
0010
0100
,
0001
0000
0001
1000
,
0100
1000
0010
0100
,
0001
0000
0001
1000
,
0100
0010
0001
0010
,
0100
0000
0001
1000
,
0001
0100
0010
0100
,
0002
0003
0001
0001
,
2000
3000
1000
1000
,
0020
0030
0100
0100
,
0020
0030
0010
0010
,
0200
0300
1000
1000
,
0002
0003
0001
0001
,
2000
3000
0001
1000
,
0002
0003
0001
1000
,
0020
0030
0200
0300
,
1000
0001
0100
0010
,
0002
0003
2000
3000
,
0001
1000
0100
1000
,
0020
0030
0200
0300
,
0001
1000
0100
0010
,
0002
0003
2000
3000
,
0001
0010
0100
1000
,
0002
0003
2000
3000
,
0001
1000
0100
0010
,
0002
0003
2000
3000
,
0001
0100
0010
1000
,
0002
0003
0001
1000
,
0002
0003
1000
0001
,
2000
3000
0100
0010
,
2002
0000
0000
0000
,
3003
0000
0000
0000
;

//---------------dance-single - Wahyu D. L.----------------
#NOTES:
     dance-single:
     Wahyu D. L.:
     Medium:
     5:
     0.366,0.478,0.060,0.319,0.000: // measure 1
0000
0000
0000
0000
,  // measure 2
0000
0000
0000
0000
,  // measure 3
0000
0000
0000
0000
,  // measure 4
0000
0000
0000
0000
,  // measure 5
0000
0000
0000
0000
,  // measure 6
0000
0000
0000
0000
,  // measure 7
0000
0000
0000
0000
,  // measure 8
0000
0000
0000
0000
,  // measure 9
1000
0001
0100
0010
,  // measure 10
1000
0001
0100
0010
,  // measure 11
1000
0001
0010
0001
,  // measure 12
0100
0010
1000
0001
,  // measure 13
1000
0010
1000
0001
,  // measure 14
0100
0010
1000
0001
,  // measure 15
0010
0100
1000
0001
,  // measure 16
2002
0000
0000
0000
0000
0000
0000
3003
,  // measure 17
1000
0001
0100
0010
,  // measure 18
1000
0001
0100
0001
,  // measure 19
0010
0001
1000
0001
,  // measure 20
1000
0100
1000
0001
,  // measure 21
1000
0001
0010
0001
,  // measure 22
0100
0010
1000
0001
,  // measure 23
0100
0001
0010
0001
,  // measure 24
0100
0010
1000
0001
,  // measure 25
1000
0000
0000
1000
0000
0000
1000
0000
,  // measure 26
0100
0000
0000
0100
0000
0000
0100
0000
,  // measure 27
0010
0000
0000
0010
0000
0000
0010
0000
,  // measure 28
0001
0000
0000
0001
0000
0000
0001
0000
,  // measure 29
0001
0000
0000
0001
0000
0000
0001
0000
,  // measure 30
0010
0000
0000
0010
0000
0000
0010
0000
,  // measure 31
0100
0000
0000
0100
0000
0000
0100
0000
,  // measure 32
1000
0000
0000
1000
0000
0000
1000
0000
,  // measure 33
2000
0000
3200
0320
,  // measure 34
0031
0010
0100
1000
,  // measure 35
0200
0000
0302
2003
,  // measure 36
3001
0010
0100
1000
,  // measure 37
0002
0000
2003
3002
,  // measure 38
1003
0100
0010
0001
,  // measure 39
2000
0000
3002
2003
,  // measure 40
3100
0010
0001
1000
,  // measure 41
2001
0000
3002
0203
,  // measure 42
0310
1000
0100
0010
,  // measure 43
0002
0000
2003
3002
,  // measure 44
1003
0100
0010
0001
,  // measure 45
1000
1000
0001
0001
,  // measure 46
1000
1000
0001
0001
,  // measure 47
0100
0100
0010
0010
,  // measure 48
0220
0000
0000
0000
0000
0000
0000
0330
,  // measure 49
1000
0000
0000
0001
0000
0000
1000
0100
,  // measure 50
0010
0000
0000
0100
0000
0001
0100
0010
,  // measure 51
0100
0000
0000
1000
0000
0000
1000
0100
,  // measure 52
0010
0000
0000
0001
0000
1000
0001
1000
,  // measure 53
0001
0000
0000
0100
0000
0000
1000
0100
,  // measure 54
0010
0000
0000
0001
0000
0100
0010
0100
,  // measure 55
0010
0000
0000
1000
0000
0000
1000
0100
,  // measure 56
0010
0000
0000
0001
0000
0001
0010
0100
,  // measure 57
1000
0000
0000
1000
0000
0000
1000
0000
,  // measure 58
0100
0000
0000
0100
0000
0000
0100
0000
,  // measure 59
0010
0000
0000
0010
0000
0000
0010
0000
,  // measure 60
0001
0000
0000
0001
0000
0000
0001
0000
,  // measure 61
0010
0000
0000
0010
0000
0000
0010
0000
,  // measure 62
0100
0000
0000
0100
0000
0000
0100
0000
,  // measure 63
1000
0000
0000
1000
0000
0000
1000
0000
,  // measure 64
0220
0000
0000
0000
0000
0000
0000
0330
,  // measure 65
1000
0000
0001
0000
1000
0000
1000
0100
,  // measure 66
0010
0001
0010
0200
0000
0000
0000
0000
,  // measure 67
2300
0000
0000
3002
0000
1003
0100
0010
,  // measure 68
0001
0010
0100
2000
0000
0000
0000
0000
,  // measure 69
3002
0000
0000
0023
0000
1030
0100
0010
,  // measure 70
0001
0010
0100
2000
0000
0000
0000
0000
,  // measure 71
3002
0000
0000
2003
0000
3001
0010
0100
,  // measure 72
1000
0100
0010
0002
0000
0000
0000
0000
,  // measure 73
1003
0000
0000
1000
0000
0000
1000
0000
,  // measure 74
0100
0000
0000
0100
0000
0000
0100
0000
,  // measure 75
0010
0000
0000
0010
0000
0000
0010
0000
,  // measure 76
0001
0000
0000
0001
0000
0000
0001
0000
,  // measure 77
0010
0000
0000
0010
0000
0000
0010
0000
,  // measure 78
0100
0000
0000
0100
0000
0000
0100
0000
,  // measure 79
1000
0000
0000
1000
0000
0000
1000
0000
,  // measure 80
0100
0000
0000
0100
0000
0000
0100
0000
,  // measure 81
0020
0000
0000
0000
0230
0000
0310
0100
,  // measure 82
0010
0010
0010
0010
,  // measure 83
2000
0000
0000
3000
2000
0000
3001
1000
,  // measure 84
0001
0001
0001
0001
,  // measure 85
0200
0000
0000
0300
0200
0300
0100
0010
,  // measure 86
0100
0100
0100
0100
,  // measure 87
2000
0000
0000
3000
2000
3000
1000
0001
,  // measure 88
1000
1000
1000
1000
,  // measure 89
0200
0000
0000
0300
0200
0300
0100
1000
,  // measure 90
0100
0010
0001
0010
0100
1000
0100
0010
,  // measure 91
0002
0000
0000
0003
0002
0003
0001
1000
,  // measure 92
0001
1000
0100
0010
0001
0010
0100
1000
,  // measure 93
0001
0000
1000
0001
1000
0000
1001
0000
,  // measure 94
1001
0000
1000
0001
1000
0000
1001
0000
,  // measure 95
1001
0000
0001
1000
0000
0000
0001
0000
,  // measure 96
2002
0000
0000
0000
,  // measure 97
3003
0000
0000
0000
;

//---------------dance-single - Wahyu D. L.----------------
#NOTES:
     dance-single:
     Wahyu D. L.:
     Challenge:
     8:
     0.577,0.573,0.232,0.173,0.000:
0000
0000
0000
0000
,
0000
0000
0000
0000
,
0000
0000
0000
0000
,
0000
0000
0000
0000
,
0000
0000
0000
0000
,
0000
0000
0000
0000
,
0000
0000
0000
0000
,
0000
0000
0000
0000
,
1000
0100
0010
0001
0010
0100
1000
0001
,
1000
0100
1000
0010
0100
0001
0010
0001
,
0100
0010
1000
0001
0100
0010
1000
0001
,
0100
0001
0010
0001
0100
0010
1000
0100
,
1000
0001
0100
0010
1000
0001
0010
0001
,
0100
0010
1000
0100
0010
0001
0100
0010
,
1000
0001
0100
0010
1000
0001
0100
0010
,
2002
0000
0000
3000
,
1003
0000
1000
0001
0000
1000
0100
0010
,
0001
0010
0100
1000
0000
1000
0001
0000
,
1001
0000
1000
0001
0000
0001
0100
0010
,
1000
0100
0010
0001
0000
0001
1000
0100
,
1000
0000
0001
0010
0000
1000
0100
0010
,
0001
0100
0010
1000
0000
1000
0001
0000
,
1001
0000
1000
0001
0000
0001
0010
0100
,
1000
0010
1000
0001
0000
0001
0100
0010
,
1000
0000
1000
0001
0000
0001
0100
0000
,
1010
0000
0010
1000
0000
1000
0001
0000
,
0110
0000
0100
0001
0000
0001
0010
0000
,
0101
0000
1000
0001
0000
0001
1000
0000
,
0110
0000
0010
1000
0000
1000
0001
0000
,
0110
0000
0100
0001
0000
0001
0100
0000
,
0011
0000
0010
1000
0000
1000
0010
0000
,
1100
0000
0100
0001
0000
0001
1000
0000
,
2001
0000
0000
0000
3002
0000
0103
0010
,
0001
1000
0100
0010
0001
0010
0100
1000
,
0002
0000
0000
0000
2003
0000
3100
0010
,
1000
0001
0100
0010
0001
0010
0100
1000
,
0002
0000
0000
0000
0023
0000
1030
0001
,
1000
0100
0010
0001
0010
0100
1000
0001
,
2000
0000
0000
0000
3020
0000
0031
0100
,
0001
1000
0100
0010
0001
0010
0100
1000
,
0002
0000
0000
0000
0203
0000
1300
0001
,
0010
0100
1000
0010
1000
0001
0100
0010
,
2000
0000
0000
0000
3200
0000
1300
0001
,
1000
0001
0100
0010
1000
0001
1000
0100
,
0010
0000
0001
1000
0002
0000
0103
0000
,
0110
0000
1000
0001
2000
0000
3100
0000
,
0011
0000
1000
0001
0000
0100
0010
0000
,
2002
0000
0000
3000
,
2003
0000
0000
3002
0000
0000
1003
0100
,
0010
0000
0001
1000
0000
1000
0100
0010
,
0001
0000
0001
2000
0000
0000
3001
0100
,
0010
0000
1000
0001
0000
0001
1000
0100
,
0010
0000
0001
0200
0000
0000
0301
1000
,
0010
0000
1000
0001
0000
0100
0001
0010
,
0100
0000
1000
0002
0000
0000
1003
0100
,
0010
0000
0001
1000
0000
1000
0001
1000
,
0100
0010
0001
0010
0100
1000
0010
1000
,
0001
1000
0100
0010
0001
0100
0010
1000
,
0001
1000
0100
0010
0001
1000
0010
1000
,
0100
0001
1000
0010
1000
0001
0100
0010
,
1000
0001
1000
0010
0100
0001
1000
0010
,
1000
0001
0010
0100
1000
0001
1000
0010
,
1000
0001
0010
0100
1000
0001
0100
0010
,
2000
0000
0000
0000
0000
0000
0000
3000
,
1000
0000
1000
0001
0000
1000
0100
0010
,
0001
0010
0100
1000
0000
1000
0001
1000
,
1001
0000
0001
0100
0000
0001
0100
0010
,
1000
0100
0010
0001
0000
1000
0001
1000
,
1001
0000
0001
1000
0000
1000
0100
0010
,
0001
0010
0100
1000
0000
1000
0001
1000
,
1001
0000
0001
0100
0000
1000
0100
0010
,
0001
0010
0100
1000
0000
1000
0001
1000
,
1001
0100
0010
0100
0001
0010
0001
0100
,
0010
1000
0001
1000
0100
0010
0001
0100
,
0010
1000
0001
1000
0100
1000
0001
0100
,
0010
1000
0001
1000
0001
1000
0100
0010
,
0001
0100
0010
1000
0001
0100
0010
1000
,
0001
1000
0100
1000
0001
0010
0100
1000
,
0001
0100
0010
1000
0001
0010
0100
1000
,
0001
0100
0010
1000
0010
1000
0001
0100
,
1001
0000
0101
0000
1001
0000
1000
0100
,
0010
0001
0010
0100
1000
0010
1000
0001
,
0100
0011
0101
0011
,
1000
0001
0010
0100
1000
0100
0010
0001
,
0100
1001
1010
1100
,
0010
1000
0001
0010
0100
1000
0010
0100
,
0001
1010
0110
0011
,
0001
1000
0100
0010
0001
0010
0100
1000
,
0001
0000
1010
0000
0101
0000
0001
1000
,
0100
0010
0001
0010
0100
1000
0001
0100
,
0010
0000
1010
0000
0011
0000
1000
0001
,
1000
0100
0010
0001
0010
0100
1000
0010
,
1000
0000
1000
0001
1000
0001
0100
0010
,
1000
0000
1000
0001
1000
0001
0100
0010
,
1000
0000
1000
0001
0100
0010
0001
1000
,
2200
0000
0000
0000
,
3300
0000
0000
0000
;

//---------------dance-single - Wahyu D. L.----------------
#NOTES:
     dance-single:
     Wahyu D. L.:
     Hard:
     7:
     0.502,0.669,0.060,0.830,0.000:
0000
0000
0000
0000
,
0000
0000
0000
0000
,
0000
0000
0000
0000
,
0000
0000
0000
0000
,
0000
0000
0000
0000
,
0000
0000
0000
0000
,
0000
0000
0000
0000
,
0000
0000
0000
0000
,
1000
0100
0010
0001
,
1000
0100
0010
0001
,
1000
0100
0010
0001
,
0001
0010
0100
1000
,
0001
0010
0100
1000
,
0001
0010
0100
1000
,
1000
0100
0010
0001
,
1001
0000
0000
0000
,
1000
0000
0000
1000
0000
0001
1000
0100
,
0010
0001
0010
0100
0000
0000
1000
0000
,
1001
0000
0000
1000
0000
0001
0010
0100
,
1000
0001
1000
0100
0000
0000
1000
0000
,
1001
0000
0000
1000
0000
1000
0100
0010
,
0001
0010
0100
1000
0000
0000
0001
0000
,
1001
0000
0000
1000
0000
1000
0100
0010
,
0001
0010
0100
1000
0000
0000
0001
0000
,
1000
0000
1000
0100
0000
0100
1000
0000
,
0010
0000
0100
0010
0000
0010
0100
0000
,
0100
0000
0010
0001
0000
0001
0100
0000
,
0010
0000
0100
0010
0000
0010
0100
0000
,
1000
0000
1000
0100
0000
0100
1000
0000
,
0001
0000
1000
0001
0000
0001
1000
0000
,
0100
0000
0100
1000
0000
1000
0100
0000
,
0010
0000
0010
0100
0000
0100
0010
0000
,
0002
0000
0000
0000
2003
0000
3001
1000
,
0001
1000
0100
0010
,
0002
0000
0000
0000
0203
0000
0310
0100
,
0010
1000
0100
0010
,
0002
0000
0000
0000
2003
0000
3001
1000
,
0001
0001
0010
0100
,
2000
0000
0000
0000
3200
0000
0310
0100
,
0010
0001
0010
0100
,
2000
0000
0000
0000
3002
0000
1003
0001
,
1000
0100
0010
0001
,
2000
0000
0000
0000
3200
0000
1300
0100
,
1000
0001
0010
0100
,
1000
0000
1000
0001
1000
0000
0001
0000
,
0100
0000
0010
0100
0010
0000
1000
0000
,
0001
0000
0000
1000
0000
0000
0001
0000
,
2002
0000
0000
3000
,
2003
0000
0000
3002
0000
0000
2003
3200
,
0320
0000
0000
0032
0000
2003
3002
2003
,
3200
0000
0000
0320
0000
0000
0230
0320
,
0230
0000
0000
0302
0000
2003
3200
0320
,
0032
0000
0000
2003
0000
0000
3002
2003
,
3002
0000
0000
0203
0000
0320
0230
0320
,
0032
0000
0000
0023
0000
0000
2030
3002
,
0023
0000
0230
0320
0000
2030
3200
0320
,
0032
0000
2003
3002
0000
0203
0302
0000
,
0023
0000
0032
0023
0000
0230
2300
0000
,
3020
0000
2030
3002
0000
2003
3002
0000
,
0203
0302
0000
0023
0230
0000
2300
0000
,
3002
0000
2003
3020
0000
0032
2003
0000
,
3002
0000
0023
0230
0000
2300
3002
0000
,
0203
0000
0320
0230
0000
2300
3002
0000
,
0223
0000
0000
0000
0000
0000
0000
0330
,
1000
0000
0001
0000
0100
0000
1000
0100
,
0010
0001
0010
0100
0000
0000
1000
0000
,
0100
0000
1000
0000
0001
0000
1000
0100
,
0010
0001
0010
0100
0000
0000
1000
0000
,
0100
0000
1000
0000
0001
0000
0001
0010
,
0100
1000
0010
1000
0000
0000
1000
0000
,
0001
0000
0100
0000
0010
0000
1000
0010
,
0100
0001
0010
0100
0000
0000
1000
0000
,
0002
0000
0000
2000
0000
0000
3203
0000
,
2000
0000
0000
3320
0000
0000
0200
0000
,
0332
0000
0000
2003
0000
0000
0002
0000
,
3203
0000
0000
0320
0000
0000
0200
0000
,
0332
0000
0000
0020
0000
0000
2033
0000
,
0200
0000
0000
3320
0000
0000
2000
0000
,
3230
0000
0000
0302
0000
0000
0200
0000
,
0323
0000
0000
2000
0000
0000
3230
0000
,
0020
0300
0000
0000
0000
0000
0000
0000
0000
0000
0000
0000
0000
0000
0000
0000
0000
0000
0000
0000
0000
0000
0000
0000
0000
0000
0000
0000
0000
0000
0000
0000
0000
0000
0000
0000
0000
0000
0000
0000
0000
0000
0000
0000
0000
0000
0000
0000
0000
0000
0000
0000
0000
0000
0000
0000
0000
0000
0000
0000
0000
0000
0000
0000
0000
0000
0000
0000
0000
0000
0000
0000
0000
0000
0000
0000
0000
0000
0000
0000
0000
0000
0000
0000
0000
0000
0000
0000
0000
0000
0000
0000
0000
0000
0000
0000
1030
0000
0000
0000
0000
0000
0000
0000
0000
0000
0000
0000
0000
0000
0000
0000
0000
0000
0000
0000
0000
0000
0000
0000
0000
0000
0000
0000
0000
0000
0000
0000
0000
0000
0000
0000
0000
0000
0000
0000
0000
0000
0000
0000
0000
0000
0000
0000
0001
0000
0000
0000
0000
0000
0000
0000
0000
0000
0000
0000
0000
0000
0000
0000
0000
0000
0000
0000
0000
0000
0000
0000
1000
0000
0000
0000
0000
0000
0000
0000
0000
0000
0000
0000
0000
0000
0000
0000
0000
0000
0000
0000
0000
0000
0000
0000
,
0100
0010
0001
0010
0100
1000
0001
1000
,
0002
0000
0000
0000
2003
0000
3001
1000
,
0001
0010
0100
1000
0001
1000
0100
0010
,
0002
0000
0000
0000
2003
0000
3001
1000
,
0001
0010
0100
1000
0100
0001
0010
0100
,
0020
0000
0000
0000
2030
0000
3001
1000
,
0001
1000
0100
0010
0001
0010
0100
1000
,
0002
0000
0000
0000
2003
0000
3001
1000
,
0001
1000
0100
0010
0001
0010
0100
1000
,
0002
0000
0000
0000
2003
0000
3001
1000
,
0001
0010
0100
1000
0100
0010
0001
0010
,
0100
0000
1000
0100
1000
0000
0001
0000
,
0101
0000
1000
0010
1000
0000
0001
0000
,
1100
0000
1000
0001
0000
0100
0010
0000
,
2002
0000
0000
0000
,
3003
0000
0000
0000
;
