#TITLE:Disconnected Hardkore;
#SUBTITLE:;
#ARTIST:CanBlaster;
#TITLETRANSLIT:;
#SUBTITLETRANSLIT:;
#ARTISTTRANSLIT:;
#CREDIT:;
#BANNER:Disconnected hardkore-bn.png;
#BACKGROUND:Disconnected hardkore-bg.png;
#LYRICSPATH:;
#CDTITLE:;
#MUSIC:Disconnected Hardkore.ogg;
#OFFSET:-0.039;
#SAMPLESTART:31.310;
#SAMPLELENGTH:11.430;
#SELECTABLE:YES;
#DISPLAYBPM:139.000:245.000;
#BPMS:0.000=139.000,8.000=69.500,8.500=139.000,8.750=69.500,9.250=139.000,9.500=69.500,10.000=139.000,13.250=278.000,13.750=139.000,14.500=69.500,14.750=139.000,16.000=278.000,17.000=139.000,24.000=69.500,24.500=139.000,26.000=69.499,27.000=278.000,29.500=139.000,30.000=140.000,34.000=150.000,38.000=160.000,42.000=339.999,46.000=180.000,50.000=190.000,54.000=200.000,58.000=419.998,62.000=210.000,74.000=419.998,78.000=210.000,234.000=157.500,234.500=315.000,235.000=157.500,235.500=315.000,236.000=157.500,236.500=315.000,237.000=157.500,237.500=315.000,238.000=157.500,238.500=315.000,239.000=157.500,239.500=315.000,240.000=157.500,240.500=315.000,241.000=157.500,241.500=315.000,242.000=157.500,242.500=315.000,243.000=157.500,243.500=315.000,244.000=157.500,244.500=315.000,245.000=157.500,245.500=315.000,246.000=157.500,246.500=315.000,247.000=157.500,247.500=315.000,248.000=157.500,248.500=315.000,249.000=157.500,249.500=315.000,250.000=157.500,250.500=315.000,251.000=157.500,251.500=315.000,252.000=157.500,252.500=315.000,253.000=157.500,253.500=315.000,254.000=157.500,254.500=315.000,255.000=157.500,255.500=315.000,256.000=157.500,256.500=315.000,257.000=157.500,257.500=315.000,258.000=157.500,258.500=315.000,259.000=157.500,259.500=315.000,260.000=157.500,260.500=315.000,261.000=157.500,261.500=315.000,262.000=157.500,262.500=315.000,263.000=157.500,263.500=315.000,264.000=157.500,264.500=315.000,265.000=157.500,265.500=315.000,266.000=210.000,274.000=215.000,278.000=220.000,282.000=225.000,286.000=230.000,290.000=235.000,292.000=117.500,293.000=240.000,297.000=122.500,299.000=245.000,318.000=122.500,318.500=245.000,362.000=489.997,363.000=245.000;
#STOPS:8.500=0.110
,9.250=0.110
,13.250=0.100
,13.750=0.010
,15.250=0.110
,15.500=0.060
,15.625=0.040
,15.750=0.060
,15.875=0.050
,16.000=0.060
,16.250=0.060
,16.500=0.040
,16.750=0.060
,27.000=0.050
,27.250=0.060
,27.500=0.050
,27.750=0.060
,28.000=0.050
,28.250=0.050
,28.500=0.060
,28.750=0.050
,29.000=0.100
,29.500=0.650
,42.000=0.040
,42.250=0.050
,42.500=0.040
,42.750=0.050
,43.000=0.040
,43.250=0.040
,43.500=0.050
,43.750=0.040
,44.000=0.090
,44.500=0.050
,44.750=0.040
,45.000=0.040
,45.250=0.050
,45.500=0.040
,45.750=0.050
,58.000=0.040
,58.250=0.030
,58.500=0.030
,58.750=0.040
,59.000=0.040
,59.250=0.040
,59.500=0.030
,59.750=0.040
,60.000=0.060
,60.500=0.040
,60.750=0.040
,61.000=0.040
,61.250=0.030
,61.500=0.040
,61.750=0.030
,74.000=0.070
,74.500=0.070
,75.000=0.080
,75.500=0.070
,76.000=0.060
,76.500=0.080
,77.000=0.070
,77.500=0.070
,319.000=0.130
,362.000=0.120
;
#BGCHANGES:0.000=Disconnected Hardkore.mpg=1.000=0=0=1,
99999=-nosongbg-=1.000=0=0=0 // don't automatically add -songbackground-
;

//---------------dance-single - Wahyu D.L----------------
#NOTES:
     dance-single:
     Wahyu D.L:
     Beginner:
     3:
     0.181,0.365,0.069,0.017,0.000:
0000
0000
0000
0000
,
0000
0000
0000
0000
,
1000
0000
1000
0000
,
0000
0000
0000
0000
,
0000
0001
0000
0000
,
0000
0000
1000
0000
,
0000
1000
0000
0000
,
0000
0000
0000
1001
0000
0000
0000
0000
,
0000
0000
1000
0000
,
0000
0000
0001
0000
,
0000
0000
1000
0000
,
0000
0000
0001
0000
,
0000
0000
1000
0000
,
0000
0000
0001
0000
,
0000
0000
1000
0000
,
0000
0000
0001
0000
,
0000
0000
0000
0000
,
0000
0000
1000
0000
,
0000
0000
0001
0000
,
1000
0000
0001
0000
,
0000
0000
0000
0000
,
0000
0000
1001
0000
,
0000
0000
0000
0000
,
1000
0001
0000
0000
,
0000
0000
0000
0000
,
0000
0000
0001
0000
,
1000
0000
0001
0001
,
0001
1000
0001
0000
,
0000
0000
0000
0000
,
0000
0000
1001
0000
,
0000
0000
0000
0000
,
1000
0001
0000
0000
,
0000
0000
0000
0000
,
0000
0000
1000
0000
,
0001
0000
1000
1000
,
1000
1000
0001
0000
,
0000
0000
0000
0000
,
0000
0000
1001
0000
,
0000
0000
0000
0000
,
0000
0000
1001
0000
,
0000
0000
0000
0000
,
0000
0000
1000
0000
,
0000
0000
0000
0000
,
0000
0000
1000
0000
,
0001
0000
1000
0000
,
1000
0000
0001
1000
,
0001
1000
0000
1000
,
0000
1000
0100
0000
,
0010
0000
0010
0000
,
0010
0000
1000
0000
,
0100
0000
0001
0000
,
1000
0000
0001
0001
,
0001
0001
1000
1000
,
1000
1000
0001
0001
,
0001
0001
1000
0000
,
1000
0000
0001
0001
,
0001
0001
1000
1000
,
1000
1000
0001
0001
,
0001
0001
1000
0000
,
1000
0000
0100
0000
,
0010
0000
0100
0000
,
0001
0000
1000
0000
,
0100
0000
0010
0000
,
0100
0000
0001
0000
,
1000
0000
0100
0000
,
0010
0000
0001
0000
,
1000
0000
0001
0000
,
1000
0000
0100
0000
,
0000
0000
1000
0000
,
0000
0000
0001
0000
,
0000
0000
1000
0000
,
0000
0000
0001
0000
,
0000
0000
0010
0000
,
1000
0001
0000
0000
,
0000
1000
1000
1000
,
0000
0000
0000
0001
,
0000
0000
0000
0100
,
0000
0000
0000
0010
,
0000
0000
0000
1000
,
0000
0001
0000
1000
,
0000
0000
1000
0000
,
1000
0000
0100
0000
,
0010
0000
1001
0000
,
0000
0000
0000
0000
,
0000
0000
1001
0000
,
0000
0000
0000
0000
,
0000
0000
1000
0000
,
0001
0000
1000
0000
,
0100
0000
0010
0000
,
0100
0000
0001
0000
,
1000
0001
1000
2002
,
0000
0000
0000
0000
,
0000
0000
0000
0000
,
0000
0000
0000
0000
,
3003
0000
0000
0000
;

//---------------dance-single - Wahyu D.L----------------
#NOTES:
     dance-single:
     Wahyu D.L:
     Easy:
     6:
     0.494,0.608,0.630,0.190,0.013: // measure 1
0000
0000
0000
0000
,  // measure 2
0000
0000
0000
0000
,  // measure 3
1000
0000
0001
0000
0000
1000
0000
0000
1000
0000
0000
0000
0000
0000
0000
0000
,  // measure 4
0000
0000
0000
0000
0000
1000
0000
0000
0001
0000
0000
0000
2000
0000
0000
0000
,  // measure 5
0000
3000
0000
0000
,  // measure 6
0000
1000
0001
0000
0010
0000
0000
0000
,  // measure 7
0000
0000
1001
0000
0000
0000
0000
0000
0000
0000
0000
0000
2000
0000
0000
0001
,  // measure 8
0001
0000
0000
0000
0100
0000
0200
0300
3001
0000
0000
0000
0000
0000
0000
0000
,  // measure 9
1000
0000
0100
0000
,  // measure 10
0010
0000
1000
0000
,  // measure 11
0001
0000
2001
0001
,  // measure 12
0001
0001
3001
1000
,  // measure 13
0100
0010
0100
0001
,  // measure 14
0010
0100
1000
0001
,  // measure 15
0100
1000
2000
0100
,  // measure 16
3002
0010
1003
0100
,  // measure 17
0010
0100
0010
0001
,  // measure 18
0100
2000
3001
1000
,  // measure 19
0010
0100
1001
0110
,  // measure 20
1001
0110
1000
0100
,  // measure 21
0010
0100
0001
0010
,  // measure 22
0100
1000
1001
0100
,  // measure 23
0010
0100
0001
0010
,  // measure 24
2000
3002
1003
0010
,  // measure 25
0100
0010
0001
0100
,  // measure 26
1000
0002
1003
0100
,  // measure 27
0010
0100
1001
0110
,  // measure 28
1001
0110
1000
0001
,  // measure 29
0100
0010
0001
0100
,  // measure 30
1000
0020
1030
0100
,  // measure 31
0001
0010
0100
1000
,  // measure 32
2000
3002
1003
0100
,  // measure 33
0010
0100
0001
0010
,  // measure 34
0100
1000
1001
0100
,  // measure 35
0011
0100
1010
1001
,  // measure 36
0110
0000
0011
0000
0101
0000
0000
1001
,  // measure 37
0000
0000
0110
0000
0000
0001
0010
0000
,  // measure 38
0000
1000
0100
0000
0000
1001
0000
0000
,  // measure 39
0110
0000
0000
0011
0000
0000
1001
0000
,  // measure 40
0001
0010
1000
0100
0001
0000
0000
1000
,  // measure 41
0000
0000
0001
0000
0000
1000
0000
0000
,  // measure 42
0001
0100
0000
0000
0100
0000
0000
1000
,  // measure 43
0000
0000
0010
1000
0000
1000
0000
1000
,  // measure 44
0100
0020
1031
0100
,  // measure 45
0001
0010
0100
1000
,  // measure 46
0001
0100
0010
0100
,  // measure 47
1000
0001
1000
1000
,  // measure 48
1000
1000
1001
0010
,  // measure 49
0100
0001
0010
0100
,  // measure 50
1000
0001
0100
0010
,  // measure 51
0100
1000
0001
0100
,  // measure 52
0010
0100
1001
0000
,  // measure 53
1001
0000
0110
0000
,  // measure 54
0110
0000
0011
0000
,  // measure 55
0011
0000
1100
0000
,  // measure 56
1100
0000
1001
0000
,  // measure 57
1001
0000
0110
0000
,  // measure 58
0110
0000
0011
0000
,  // measure 59
1100
0000
1000
0001
,  // measure 60
0100
0010
1000
0001
,  // measure 61
1000
0100
0010
0100
,  // measure 62
0001
0010
0100
1000
,  // measure 63
0001
1000
0100
0010
,  // measure 64
0100
2000
3001
0100
,  // measure 65
0010
1002
0103
0010
,  // measure 66
0100
2001
3010
0012
,  // measure 67
0103
1020
0130
1000
,  // measure 68
0001
0100
0010
0000
,  // measure 69
1000
0000
0100
0000
,  // measure 70
0001
0000
0010
1000
,  // measure 71
0001
0100
0010
0100
,  // measure 72
1000
0001
0100
0010
,  // measure 73
0100
1000
0001
0000
,  // measure 74
1001
1000
0100
0010
,  // measure 75
0100
1000
1000
1000
,  // measure 76
0100
0010
0100
0001
,  // measure 77
0010
0001
0000
0110
,  // measure 78
1000
0100
0001
0100
,  // measure 79
0010
0100
1000
0001
,  // measure 80
0000
1000
0002
1003
,  // measure 81
0000
0000
0100
0000
,  // measure 82
0100
0000
0010
0000
,  // measure 83
1001
0000
0000
0000
1100
0000
0000
1010
,  // measure 84
0000
0000
0011
0000
0000
0101
0000
0000
,  // measure 85
1100
0000
0011
0000
1100
0000
0000
0011
,  // measure 86
0000
0000
1100
0000
0000
0101
0000
0000
,  // measure 87
1010
0000
0110
0000
0011
0000
0000
1100
,  // measure 88
0000
0000
0110
0000
0000
0011
0000
0000
,  // measure 89
1001
0000
0110
0000
1010
0000
0000
0110
,  // measure 90
0000
0000
0011
0000
0000
1001
0000
0000
,  // measure 91
1010
0101
1001
2002
,  // measure 92
0000
0000
0000
0000
,  // measure 93
0000
0000
0000
0000
,  // measure 94
0000
0000
0000
0000
,  // measure 95
3003
0000
0000
0000
;

//---------------dance-single - Wahyu D.L----------------
#NOTES:
     dance-single:
     Wahyu D.L:
     Medium:
     8:
     0.603,0.690,0.345,0.190,0.030:
0000
0000
0000
0000
,
1000
0000
0000
0000
010M
0000
00M0
M000
,
2000
0000
0001
0000
0000
0001
0000
0000
3001
0000
0000
0000
0010
0000
0000
0000
,
0100
0000
0000
0000
2000
0000
0000
0001
3000
0000
0000
0000
0002
0000
0000
0000
,
1003
0001
1000
0001
1000
0000
0000
0000
0100
0000
0000
0000
0020
0000
0000
0000
,
0030
0001
1000
0000
0010
0000
0001
0000
,
2000
0000
3001
0000
0000
0000
0000
0000
0002
0000
0000
0000
2003
0000
0000
0001
,
0001
0000
0000
0000
0010
0000
0200
0300
3M01
0000
0000
0000
0100
0000
0000
0000
,
0010
1000
0001
0100
,
0010
0100
1000
0001
,
0100
0000
1000
0000
1000
0001
1000
0001
,
M1MM
0001
0100
0001
0100
0000
1000
0000
,
0001
0100
0010
0100
,
1000
0001
0100
0010
,
0100
0000
0001
0000
1000
0MMM
1000
0MM0
,
0001
MMM0
0001
0000
1000
0000
0100
0000
,
0010
0100
1000
0001
,
0100
0010
1000
0100
,
0010
0100
2MM1
311M
,
1MM2
M113
1MMM
0001
,
0010
0100
1000
0001
,
0010
0000
0100
0001
1000
0000
0010
0000
,
0100
0001
0010
1000
,
1010
0101
1000
0010
,
1000
0001
0100
0010
,
1000
0000
0100
0001
1000
0000
0010
0000
,
1000
0001
0101
1010
,
1000
0100
0010
0001
0100
0000
1000
0000
,
0001
0000
0010
1000
0100
0000
1000
0000
,
0010
0000
1000
0100
0001
0000
0100
0000
,
0010
0000
0001
1000
0100
0000
1000
0000
,
0011
0011
1000
0100
,
0001
0000
0010
1000
0001
0000
0100
0000
,
1000
0010
1001
0020
,
1031
0200
0311
1001
,
0110
0000
1001
0000
0101
0000
0000
1001
,
0000
0000
0110
0000
0000
1001
0000
0000
,
1000
0010
0M0M
0000
1001
0000
0000
0110
,
0000
0000
0011
0000
0000
1001
0000
0000
,
0001
0010
1000
0100
0010
0000
MM00
0011
,
0000
0000
1100
0000
0000
0110
0000
0000
,
0100
1000
0000
0000
1001
0000
0000
0011
,
0000
0000
0001
0010
0000
0010
0000
0010
,
1000
0000
0001
1000
0100
0000
0010
0000
,
0100
0010
0100
0001
,
0010
0100
1000
0001
,
1000
0000
0100
0010
0000
0010
0000
0010
,
1000
0002
1003
0100
,
0010
0100
0001
0010
,
0100
1000
0010
0100
,
1000
0000
0001
0010
0000
0010
0000
0010
,
0100
0000
2000
0000
3001
0010
0M01
0010
,
1000
0010
100M
0010
0100
0010
010M
0010
,
0001
0010
M001
0010
1000
0010
100M
0010
,
0100
0010
M100
0010
0001
0010
0M01
0010
,
1000
0010
100M
0010
0100
0010
0100
0010
,
M001
0010
0001
0010
100M
0010
1000
0010
,
010M
0010
0100
0010
M001
0010
0001
0010
,
100M
0010
1000
0010
1000
0100
0010
0001
,
0010
0100
1000
0100
0010
0001
0010
0100
,
1000
0100
0010
0100
,
0001
0000
1000
0000
0001
0010
0100
1000
,
0010
0001
0010
0100
,
0010
0000
0200
0000
1300
0100
0010
0001
,
0100
0000
0020
0000
0130
1000
0010
0001
,
1000
0000
0000
0000
0002
0000
0000
0000
0103
1000
0100
0000
0020
0000
0000
0000
,
0130
1000
0010
0000
0002
0000
0000
0000
0013
0000
1000
0000
0000
0000
0001
0000
,
1000
0001
0010
0100
1000
0000
0100
0000
,
0001
0010
0100
10M0
,
0001
0100
0010
1000
,
0001
00M0
1000
0000
0001
0000
0100
0000
,
0010
0000
0001
0M00
0100
0000
1000
0000
,
0010
1000
0001
0100
,
0010
1000
0001
0000
0100
0000
1000
0000
,
0001
0000
0100
1000
0010
0100
0001
0000
,
1000
0100
0010
0100
,
0001
0010
0100
1000
,
0001
0100
0010
0100
,
0001
0010
0001
0100
,
1000
0010
0200
1300
,
M000
0M00
00M0
000M
0001
0000
0010
0000
,
0100
1000
0001
0100
,
0010
0000
1000
0000
1100
0000
0000
1010
,
0000
0000
0011
0000
0000
0101
0000
0000
,
1000
0100
0001
0010
1000
0000
0000
0011
,
0000
0000
1000
0100
0000
0100
0000
0100
,
1000
0100
0010
0001
0010
0000
0000
1100
,
0000
0000
0110
0000
0000
0011
0000
0000
,
1000
0001
0010
0100
1000
0000
0000
0110
,
0000
0000
0001
0010
0000
0010
0000
0010
,
1000
0100
0001
0010
1001
0000
2002
0000
,
0000
0000
0000
0000
,
0000
0000
0000
0000
,
0000
0000
0000
0000
,
3003
0000
0000
0000
;

//---------------dance-single - Wahyu D.L----------------
#NOTES:
     dance-single:
     Wahyu D.L:
     Hard:
     11:
     0.830,1.000,0.095,0.371,0.203:
0000
0000
0000
0000
,
1000
0100
0010
0100
0010
0001
0010
0100
,
0002
0000
1000
0000
0000
1000
0000
0000
1003
0000
0100
0000
0010
0000
0001
0000
,
0010
0000
0100
0000
0001
1000
0000
1000
0001
0000
1000
0010
0001
1000
0100
0010
,
0001
1000
0010
1000
0010
0000
0100
0000
1000
0000
0001
0000
0010
0000
0100
0000
,
0001
1000
0110
0000
1100
0001
0100
1000
,
0001
0010
1000
0000
0100
0000
0010
0000
1000
0100
0010
0001
1000
0001
1000
0001
,
1000
0000
0000
0000
0001
0000
0000
0000
1000
0000
0000
0000
0001
0000
0000
0000
1000
0000
0000
0000
0000
0000
0000
0000
M22M
0330
0000
0000
0000
0000
0000
0000
1MMM
0000
0000
0000
0000
0000
0000
0000
0100
0000
0000
0000
0000
0000
0000
0000
0010
0000
0000
0000
0000
0000
0000
0000
0000
0000
0000
0000
0000
0000
0000
0000
,
0001
0010
0100
0000
1000
0001
0100
0000
,
0010
1000
0001
0000
1000
0100
0010
0000
,
1000
0001
0100
0000
1M00
00M1
1M00
0010
,
100M
01M0
100M
0100
0010
1000
0100
0000
,
0010
1000
0001
0000
0100
0010
1000
0000
,
0001
0010
1000
0000
0100
0010
0100
0000
,
0001
0010
100M
0M00
1000
0001
0100
0010
,
0100
0001
1000
0001
0010
1000
0100
0000
,
0000
0001
0000
0000
0010
0000
0000
0000
,
1000
0000
0001
0010
0100
0000
1000
0000
,
0M01
0000
M010
0000
20M0
0001
3100
0010
,
2000
0001
3100
0010
1000
0000
0100
0000
,
0010
0000
0100
0001
M010
0000
010M
0000
,
10M0
0000
0010
1000
0001
0000
0100
0000
,
0010
0000
1000
0001
0100
0000
0010
0000
,
1001
0110
0001
0010
,
1000
0000
0010
1000
0001
0000
0100
0000
,
0010
0000
0001
0010
1000
0000
1000
0000
,
0100
0000
0001
0000
0001
0100
1000
0010
,
1000
0001
1000
0001
1000
00M0
0100
M00M
,
0010
0000
0001
0100
1000
0000
0010
0000
,
1000
0000
0001
0010
1000
0000
0001
0000
,
0100
0000
1000
0001
1000
0000
0100
1000
,
0010
0001
1000
0001
1000
0001
0100
0000
,
0010
0000
0001
0010
1000
0000
0001
0000
,
0100
0000
1000
0010
0100
0000
0001
0010
,
0100
0000
1000
0000
0010
0100
1000
0001
,
1000
0001
1000
0100
0001
0020
0000
1030
,
0200
0000
0301
0020
0000
1030
0200
0000
,
0301
2000
0000
3000
0100
0020
0000
1030
,
00M2
M000
0013
0100
0000
10MM
0000
1000
,
0100
0000
0010
0000
0001
1000
0001
1000
0001
0000
0020
0000
0000
0000
1030
0000
,
0200
0000
0301
0020
0000
0130
0020
0000
,
1030
0200
0000
0300
0001
2000
0000
3100
,
0020
0000
0031
1MM0
0000
1MMM
0000
10MM
,
0100
0000
0010
0000
0001
1000
00M1
1000
0001
0000
0M00
0000
10M0
0000
0010
0100
,
1000
0001
0010
M10M
0000
MM1M
0000
01MM
,
1000
0000
0000
0000
0100
0000
0000
0000
0010
0000
1000
0001
1000
0000
0001
1000
,
0001
0100
1000
00M1
0000
0M01
0000
0001
,
1000
0000
0000
0000
0100
0000
0000
0000
0010
0000
0000
0000
0001
0000
1000
0100
,
0010
0001
1000
0010
0000
0010
0000
0010
,
1000
0000
0000
0000
0100
0000
0000
0000
0001
0000
1000
0001
1000
0000
0001
1000
,
0001
0010
0100
1000
0000
0100
0000
0010
,
0001
M000
0010
0000
1000
0100
M010
0M01
,
10M0
010M
0010
M001
0100
M010
0001
1000
,
0100
0010
M001
0M10
100M
0100
0010
0M01
,
M010
0M01
0010
010M
1000
0001
M010
0100
,
100M
0100
0010
0001
1000
0100
0010
0001
,
1000
0100
0010
0001
0100
0010
0001
1000
,
0100
0010
0001
0100
0010
0001
1000
0100
,
0010
0000
0001
0000
0010
0000
0001
0000
1000
0100
0010
0000
M001
0010
0100
0000
,
100M
0100
0010
0000
M001
0010
0100
0000
100M
0000
0100
0000
0010
0000
M001
0000
,
0010
0100
1000
0010
0100
0001
0010
0100
,
1000
0001
0010
0100
0001
1000
0100
0010
,
0001
0000
1000
0000
0100
0000
0000
0010
0000
0000
0001
0000
0000
0100
0000
0000
,
1000
0000
0002
0000
1003
0010
0100
0001
,
0010
0000
2002
0000
3103
0010
1000
0100
,
0010
0000
0000
0000
2MM2
0000
0000
0000
3103
0010
0001
0000
M22M
0000
0000
0000
,
1330
0001
0010
0000
22MM
0000
0000
0000
3301
0000
0010
0000
0000
0000
1000
0000
,
0001
1000
0001
1000
0001
1000
0001
1000
0001
0000
0010
0000
0000
0000
0000
0000
,
1000
0000
0010
0001
,
0010
0000
1000
0000
M001
0010
0100
00M1
,
M100
0010
1000
0001
0100
0010
0100
0001
,
1000
0100
M010
010M
0010
1000
0010
0001
,
0100
00M1
1000
001M
0100
1000
0001
0100
,
1000
0001
0000
0001
1000
0000
0100
0000
0010
0000
0001
0000
0100
0000
0010
0000
,
0100
0000
1000
0000
M001
0010
0100
1000
00M1
0100
0010
0001
M100
0000
1000
0000
,
0100
0010
0100
0001
1000
0010
0001
0100
,
1000
0001
0100
0010
0001
1000
0100
0010
,
1M0M
0010
0001
0100
0010
0001
1000
0100
,
1000
0001
0100
0010
0100
0001
1000
0001
,
0100
0010
0100
1000
0MM2
0003
100M
0000
,
0100
0010
0001
0010
1000
0100
0010
0001
,
1000
0100
0010
0001
1000
0100
0010
0001
,
1000
0001
1000
0001
1000
0001
1000
0001
1000
0000
02M0
0000
0000
0000
M310
0000
,
0002
00M0
1003
0200
000M
0310
0100
M001
,
0010
0100
1000
00M1
0100
0002
00M0
1003
,
0020
0000
M130
0010
000M
M010
0M00
0010
,
0001
0010
01M0
100M
0100
20M0
0M00
3001
,
0M20
0000
103M
00M2
0000
0103
M020
0000
,
1M30
0001
0010
M100
00M1
2M00
000M
3010
,
2M00
000M
3010
020M
M000
0301
M010
010M
,
10M0
010M
M010
0M01
1001
0000
2002
0000
,
0000
0000
0000
0000
,
0000
0000
0000
0000
,
0000
0000
0000
0000
,
3003
0000
0000
0000
;

//---------------dance-single - Wahyu D.L----------------
#NOTES:
     dance-single:
     Wahyu D.L:
     Challenge:
     14:
     1.000,1.000,0.509,1.000,1.000:
0000
0000
0000
0000
,
0010
0000
0000
1000
0000
0000
0100
0000
0000
0010
0000
0000
0001
0000
0000
1000
0000
0000
0100
0000
0000
0001
0000
0000
0010
0000
0000
1000
0000
0000
0001
0000
0000
0010
0000
0000
0100
0000
0000
1000
0000
0000
0010
0000
0M00
0001
0000
0000
,
1000
0000
0000
0000
0000
0000
0001
0000
0000
0000
0000
0000
0100
0000
0000
0000
0000
0000
0001
0000
0000
0000
0000
0000
0010
0000
0000
0000
0000
0000
0000
0000
0000
0000
0000
0000
1000
0000
0000
0000
0000
0000
0100
0000
0000
0000
0000
0000
0001
0000
0000
0000
0000
0000
0010
0000
0000
0000
0000
0000
1000
0000
0000
0000
0000
0000
0000
0000
0000
0000
0000
0000
0010
0000
0000
0000
0000
0000
1000
0000
0000
0000
0000
0000
0100
0000
0000
0000
0000
0000
1000
0000
0000
0000
0000
0000
0001
0000
0000
0000
0000
0000
0000
0000
0000
0000
0000
0000
1000
0000
0000
0000
0000
0000
0000
0000
0000
0000
0000
0000
0001
0000
0000
0000
0000
0000
0000
0000
0000
0000
0000
0000
0010
0000
0000
0000
0000
0000
0000
0000
0000
0000
0000
0000
0100
0000
0000
0000
0000
0000
0000
0000
0000
0000
0000
0000
1000
0000
0000
0000
0000
0000
0000
0000
0000
0000
0000
0000
00M1
0000
0000
0000
0000
0000
0000
0000
0M00
0000
0000
0000
1000
0000
0000
0000
0000
0000
0000
0000
0000
0000
0000
0000
,
0001
0000
0000
0000
0000
0000
0000
0000
0000
0000
0000
0000
0010
0000
0000
0000
0000
0000
0000
0000
0000
0000
0000
0000
0100
0000
0000
0000
0000
0000
0000
0000
0000
0000
0000
0000
0001
0000
0000
0000
0000
0000
0000
0000
0000
0000
0000
0000
1000
0000
0000
0000
0000
0000
0000
0000
0000
0000
0000
0000
0100
0000
0000
0000
0000
0000
0000
0000
0000
0000
0000
0000
0000
0000
0000
0000
0000
0000
0000
0000
0000
0000
0000
0000
0010
0000
0000
0000
0000
0000
0000
0000
0000
0000
0000
0000
0001
0000
0000
0000
0000
0000
0000
0000
0000
0000
0000
0000
1000
0000
0000
0000
0000
0000
0000
0000
0000
0000
0000
0000
0010
0000
0000
0000
0000
0000
0001
0000
0000
0000
0000
0000
1000
0000
0000
0000
0000
0000
0000
0000
0000
0000
0000
0000
01M0
0000
0000
0000
0000
0000
0000
0000
0000
0000
0000
0000
1000
0000
0000
0000
000M
0000
0100
0000
0000
0000
0000
0000
0010
0000
0000
0000
0000
0000
1000
0000
0000
0000
0000
0000
0001
0000
0000
0000
0000
0000
0100
0000
0000
0000
0000
0000
,
10M0
0000
0000
0100
000M
0000
0010
0000
0000
0001
0M00
0000
1010
0000
0000
0100
0000
0000
M010
0000
0000
0001
0000
0000
M100
0000
0000
0010
0000
0000
1000
0000
0000
0001
0000
0000
0100
0000
0000
0010
0000
0000
0001
0000
0000
0100
0000
0000
,
1000
0000
0021
0000
1230
0000
0000
0000
0312
0000
0100
0000
1003
0000
0100
0010
,
0001
0000
0000
0000
0000
0000
0010
0000
0000
0000
0000
0000
0100
0000
0000
0000
0000
0000
0001
0000
0000
0000
0000
0000
1010
0000
0000
0000
0000
0000
0000
0000
0000
0000
0000
0000
0000
0000
0000
0000
0000
0000
0000
0000
0000
0000
0000
0000
MM10
0000
0000
0000
0000
0000
0000
0000
0000
0000
0000
0000
0000
0000
0000
0000
0000
0000
0000
0000
0000
0000
0000
0000
0100
0000
0000
0000
0000
0000
0000
0000
0000
0000
0000
0000
0000
0000
0000
0000
0000
0000
0000
0000
0000
0000
0000
0000
1000
0000
0000
0000
0000
0000
0100
0000
0000
0000
0000
0000
0010
0000
0000
0000
0000
0000
0001
0000
0000
0000
0000
0000
0100
0000
0000
0000
0000
0000
0010
0000
0000
0000
0000
0000
1000
0000
0000
0000
0000
0000
0000
0000
0000
0000
0000
0000
0001
0000
0000
0000
0000
0000
0000
0000
0000
0000
0000
0000
0010
0000
0000
0000
0M00
0000
0000
0000
0000
0000
0000
0000
1000
0000
0000
0000
0000
0000
0000
0000
0000
0000
0000
0000
0001
0000
0000
0000
0000
0000
0000
0000
0000
0000
0000
0000
,
0100
0000
0000
0000
0000
0000
0000
0000
0000
0000
0000
0000
0010
0000
0000
0000
000M
0000
0000
0000
0000
0000
0000
0000
0100
0000
0000
0000
0000
0000
0000
0000
0000
0000
0000
0000
0010
0000
0000
0000
0000
0000
0000
0000
0000
0000
0000
0000
1M01
0000
0000
0000
0000
0000
0000
0000
0000
0000
0000
0000
0000
0000
0000
0000
0000
0000
0000
0000
0000
0000
0000
0000
M22M
0000
0000
0330
0000
0000
0000
0000
0000
0000
0000
0000
0000
0000
0000
0000
0000
0000
0000
0000
0000
0000
0000
0000
1000
0000
0000
0000
0000
0000
0000
0000
0000
0000
0000
0000
0000
0000
0000
0000
0000
0000
0000
0000
0000
0000
0000
0000
0100
0000
0000
0000
0000
0000
0000
0000
0000
0000
0000
0000
0000
0000
0000
0000
0000
0000
0000
0000
0000
0000
0000
0000
0010
0000
0000
0000
0000
0000
0000
0000
0000
0000
0000
0000
0000
0000
0000
0000
0000
0000
0000
0000
0000
0000
0000
0000
0100
0000
0000
0000
0000
0000
0000
0000
0000
0000
0000
0000
0010
0000
0000
0000
0000
0000
0000
0000
0000
0000
0000
0000
,
0100
0010
0000
0000
1000
0000
0100
0000
0010
0000
0001
0000
1000
0000
0100
0010
,
0100
0010
0000
0000
0001
0000
0100
0000
0010
0000
1000
0000
0100
0000
0010
0100
,
0010
0100
0000
0000
1000
0000
0001
0000
1000
0100
1000
0100
1000
0100
1000
0100
,
1000
0000
0001
0100
0001
0100
0001
0100
0001
0000
0010
0000
0100
0000
1000
0100
,
1000
0100
0000
0000
1000
0000
0100
0000
0010
0000
0001
0000
1000
0000
0100
0001
,
0100
0001
0000
0000
0010
0000
0001
0000
1000
0000
0100
0000
0010
0000
0001
0010
,
0001
0010
0000
0000
1000
0000
0001
0000
0100
1000
0100
1000
0100
1000
0100
1000
,
0100
0000
0100
0001
0100
0001
0100
0001
0100
0000
1000
0000
0100
0000
0010
0000
,
0001
0100
0010
0100
0001
1000
0100
0010
,
0100
0000
0010
0000
0001
1000
0010
0001
0100
0000
1000
0000
0001
0000
0100
0000
,
0010
0001
0100
1000
M12M
0001
0100
1030
,
M21M
0000
0000
0001
0000
0000
0010
0000
0300
1000
0000
0000
M21M
0000
0000
0301
0000
0000
0020
0000
0000
0130
0000
0000
,
0002
1003
0200
0310
0002
0103
2000
3010
,
0002
0000
1003
0000
0020
0001
0130
1000
0002
0000
0103
0000
0020
0000
0031
0000
,
0200
0000
0310
0000
0200
0000
1300
0000
0002
0000
0103
0000
0020
0000
0130
1000
,
0002
0103
2001
3010
0200
0301
0020
0130
,
0020
0130
2000
3001
0200
0301
0020
0130
,
0002
0000
0013
0000
0200
0010
0301
0100
2000
0000
3100
0000
0020
0000
0130
0000
,
0002
0013
2000
3001
2000
3100
2000
3001
,
0020
1000
0130
0001
0020
1000
0130
0010
0002
0000
1003
0000
0002
0000
0103
0000
,
0020
0130
2000
3001
0020
1030
0002
0013
,
2000
0000
3001
0000
0200
1000
0310
0100
0002
00M0
1003
0M00
0002
0000
M013
0000
,
0200
0000
03M1
0000
2000
0M00
3001
0000
0020
0000
013M
0000
M020
0000
0031
0100
,
2000
3010
2001
3100
0002
0103
0002
1003
,
0002
0000
0013
0000
2000
0000
3010
0000
0002
0000
M103
0000
0020
0M00
0031
0000
,
2000
00M0
3001
0000
0200
0001
0310
0100
2000
0000
3001
0000
0020
0000
0130
0000
,
0002
M000
0103
0000
0020
0M00
0031
0000
2000
00M0
3001
0000
0200
000M
0310
0000
,
0200
1000
0301
0010
2000
0100
3010
0001
1200
0000
0020
0000
0300
0000
0231
M000
,
0020
0300
2031
0020
3000
1230
0002
0300
,
1023
0200
0030
0300
0201
0020
0300
0132
,
20M0
0M03
3021
0200
0030
M3M1
0000
0100
,
0001
0000
0010
0000
1000
0100
1000
0100
2100
0000
0020
0000
3001
0000
1230
0000
,
0002
1300
2013
0020
3100
1032
0020
1003
,
0231
2000
0301
3100
1020
0200
0031
2301
,
0020
3100
2031
02MM
3000
M3M1
0000
M1MM
,
0001
0000
1000
0000
0100
0001
0010
1000
0001
0000
0010
0000
0100
0000
1000
0010
,
0001
0000
M100
0000
0010
M000
0001
0000
01M0
0000
1000
00M0
0001
0000
0100
0000
,
0010
1000
0001
0000
0100
0000
0010
0000
0100
0000
1000
0010
0001
0000
0010
1000
,
0100
1000
0001
11MM
000M
M11M
M000
MM11
,
1000
0100
0001
0000
1000
0000
1000
0000
0100
0000
0000
00M0
0001
0000
1000
0100
,
0001
0010
0100
0001
1000
0100
0010
0001
,
0100
1000
0010
0000
0100
0000
0001
0000
1000
0000
0100
0001
0010
0000
0100
1000
,
0001
0010
1000
MM11
M000
M11M
000M
11MM
,
0001
0010
1000
00M0
0100
000M
0010
0000
100M
0100
10M0
0000
0100
M0M1
0100
0000
,
0010
0M01
0010
M000
0001
0100
M001
0000
0010
1M00
001M
0000
0100
001M
0100
0000
,
0001
1M00
00M1
0000
0100
M010
0100
0000
0M01
M010
0001
0000
0100
10M0
0100
0000
,
0010
0100
001M
0000
1000
00M1
1000
0000
0001
0M10
0001
0000
0100
10M0
0100
0000
,
0001
10M0
0001
0000
0100
0010
0100
0000
1000
01M0
0001
M000
0010
0100
00M1
0000
,
0100
001M
1000
0000
00M1
0100
0010
M000
0100
00M1
1000
0000
0100
0010
0001
0000
,
0010
0100
1000
0000
0001
0100
0010
0000
0100
1000
0001
0000
0010
0001
1000
0000
,
0100
1000
0001
0000
0010
0100
1000
0000
1000
0100
0010
0000
M001
0010
0100
0000
,
100M
0100
0010
0000
M001
0010
0100
0000
100M
0000
0100
0000
0010
0000
M001
0000
,
0010
0100
1000
0010
0100
0001
0010
0100
,
1000
0000
0001
0000
0010
1000
0100
0000
0001
0000
1000
0000
0100
0000
0010
0000
,
0001
0000
1000
0000
M1M1
0000
0000
1M1M
0000
0000
MM11
0000
0000
11MM
0000
0000
,
1MM2
0000
0000
0000
0MM0
0000
0000
0000
1MM3
0001
1000
0001
1MM0
0000
0001
0000
1MM0
0000
0000
0000
0001
0000
0000
0000
1000
0000
0000
0000
0100
0000
0000
0000
,
0001
1000
022M
0000
1330
0001
0M10
1000
,
0M01
0000
1000
0000
M22M
0000
0000
0000
1330
0001
0100
0000
2MM2
0000
0000
0000
,
3013
0100
0001
0000
2M2M
0000
0000
0000
3130
0000
0001
0000
00M0
0000
1000
0000
,
0100
0001
0010
0100
1000
0001
0100
0010
0001
0000
1000
0000
010M
0000
0010
0000
,
0100
0001
M010
0100
00M1
1000
0100
0010
,
0100
0000
0001
0000
0100
1000
0010
1000
0001
0000
0100
0000
10M0
0000
0100
0000
,
M001
0010
0100
0001
01M0
1000
0010
0100
,
M001
0100
0001
0010
M100
0001
01M0
1000
,
0010
0000
0100
0000
0001
0000
0100
0000
1000
0100
0001
0000
0010
0000
0100
0010
,
1000
0000
0000
0001
0M00
0000
0000
0000
0000
0001
0000
0000
10M0
0000
0000
0000
0000
0000
0100
0000
0000
0000
0000
0000
0010
0000
0000
1000
0000
0000
0001
0000
0000
1000
0000
0000
0100
0000
0000
0000
0000
0000
0010
0000
0000
0000
0000
0000
,
0100
0000
0000
0000
0000
0000
0000
0000
0000
0000
0000
0000
0010
0000
0000
0000
0000
0000
0000
0000
0000
0000
0000
0000
1000
0000
0000
0000
0000
0000
0000
0000
0000
0000
0000
0000
0010
0000
0000
0000
0000
0000
0000
0000
0000
0000
0000
0000
0M01
0000
0000
0000
0000
0000
0000
0000
0000
0000
0000
0000
0010
0000
0000
0000
M000
0000
0000
0000
0000
0000
0000
0000
0100
0000
0000
0000
0000
0000
0000
0000
000M
0000
0000
0000
1000
0000
0000
0000
0000
0000
0100
0000
0000
0000
0000
0000
M010
0000
0000
0000
0000
0000
0001
0000
0000
0000
0000
0000
0100
0000
0000
0000
000M
0000
0010
0000
0000
0000
0000
0000
0100
0000
0000
1000
0000
0000
0100
0000
0000
0010
0000
0000
0001
0000
0000
0010
0000
0000
0100
0000
0000
1000
0000
0000
0001
0000
0000
0000
0000
0000
0000
0000
0000
0000
0000
0000
0000
0000
0000
0000
0000
0000
0000
0000
0000
0000
0000
0000
0010
0000
0000
0000
0000
0000
0000
0000
0000
0000
0000
0000
0000
0000
0000
0000
0000
0000
0000
0000
0000
0000
0000
0000
,
0100
1000
00M1
0100
1000
0010
0100
0001
,
0M10
0000
0100
0000
M001
0000
0100
0000
10M0
0001
0100
1000
0010
0000
0100
0000
,
00M1
0010
M001
0100
0010
0100
1000
0001
,
0100
1000
0010
1000
0100
0000
0001
0000
1000
0010
0001
0010
0100
0000
0010
0000
,
0001
0000
0100
0000
1000
0000
0001
0000
0100
0001
0000
0000
1001
0000
0000
0000
,
1000
0000
0000
0000
0M00
0000
0001
0000
0000
0100
0000
0000
0001
0000
0000
0100
0000
0000
0001
0000
0000
0M00
0000
0000
1000
0000
0000
0100
0000
0000
1000
0000
0000
0100
0000
0000
1000
0000
0M00
0000
0000
0000
0100
0000
0000
0000
0000
0000
,
00M1
0000
0M00
0000
0000
0000
0010
0000
0000
0100
0000
0000
0010
0000
0000
0100
0000
0000
0010
0000
0000
0M00
0000
0000
1000
0000
0000
0100
0000
0000
1000
0000
0000
0100
0000
0000
1000
0000
0M00
0000
0000
0000
0100
0000
0000
0000
0M00
0000
,
0010
0100
0010
0100
0010
0100
0010
0100
2010
0000
00M2
0000
3000
0000
2M13
0000
,
0200
3000
1320
0002
M030
0013
0001
1M00
,
0010
0000
0001
0000
0100
0001
10M0
0100
0012
0000
2000
0000
00M3
0000
3201
0000
,
0020
0000
0300
0000
1M32
0000
0020
M000
0003
0000
1M30
0000
000M
0000
0010
0000
,
1000
0000
0010
0000
00M1
1000
0100
M010
0102
0000
02M0
0000
M013
0000
2310
0000
,
002M
3001
M231
20M0
0310
3102
0M20
1003
,
013M
0000
1000
0000
0010
1000
0M01
1000
20M1
0000
020M
0000
30M1
0000
0321
0000
,
020M
M031
0321
M002
0130
1003
0M10
M001
,
01M0
0000
M001
0000
0M10
0001
1000
0010
1001
0000
0000
0000
2002
0000
0000
0000
,
0000
0000
0000
0000
,
0000
0000
0000
0000
,
0000
0000
0000
0000
,
3003
0000
0000
0000
;
