#TITLE:突撃! ガラスのニーソ姫!;
#SUBTITLE:;
#ARTIST:山本椛 (monotone);
#TITLETRANSLIT:TOTSUGEKI! GLASS NO KNEESO HIME!;
#SUBTITLETRANSLIT:;
#ARTISTTRANSLIT:MOMIJI YAMAMOTO (monotone);
#CREDIT:DigiMindAxel;
#BANNER:TOTSUGEKI! GLASS NO KNEESO HIME!.png;
#BACKGROUND:TOTSUGEKI! GLASS NO KNEESO HIME!-bg.png;
#LYRICSPATH:TOTSUGEKI! GLASS NO KNEESO HIME!.lrc;
#CDTITLE:beatmania IIDX.png;
#MUSIC:TOTSUGEKI! GLASS NO KNEESO HIME!.mp3;
#OFFSET:-12.120;
#SAMPLESTART:17.212;
#SAMPLELENGTH:12.000;
#SELECTABLE:YES;
#DISPLAYBPM:*;
#BPMS:0.000=185.000,8.000=370.000,10.000=185.000,110.000=92.500,126.000=185.000,134.000=208.125,143.000=277.500,155.000=370.000,171.000=185.000,266.000=92.500,272.500=46.250;
#STOPS:8.000=0.486
,9.000=0.486
,171.000=2.270
,232.000=0.973
;
#BGCHANGES:-42.000=TOTSUGEKI! GLASS NO KNEESO HIME!.avi=1.000=1=1=0,
99999=-nosongbg-=1.000=0=0=0 // don't automatically add -songbackground-
;

//---------------dance-single - ----------------
#NOTES:
     dance-single:
     :
     Easy:
     3:
     0.175,0.210,0.088,0.088,0.000:
1000
0000
1000
0000
,
1000
0000
1000
0000
,
2002
0000
0000
0000
,
0000
3003
0100
0010
,
0100
0000
0010
0100
,
0010
0000
1000
0001
,
1000
0000
0001
1000
,
0001
0000
0010
0001
,
0010
0000
0100
1000
,
0100
0000
0010
0000
,
0100
0000
1000
0000
,
0000
0000
0010
0000
,
0010
0000
0010
0000
,
0010
0000
0100
0000
,
0100
0000
0100
0000
,
0100
0000
0001
0000
,
0001
0000
0001
0000
,
0001
0000
1000
0000
,
1000
0000
0000
0002
0000
0000
0000
0000
,
0000
0003
0100
0010
,
0100
0000
0001
0100
,
0001
0000
1000
0010
,
1000
0000
0010
0100
,
0010
1000
0002
0000
,
0000
0000
1003
0000
,
0000
0000
2000
0000
,
0000
0000
3001
0000
,
0000
0000
1001
0000
,
0000
0000
0110
0000
,
0000
0000
1001
0000
,
0000
0000
1000
0000
,
0000
0000
0001
0000
,
0000
0000
1000
0000
,
0000
0000
0001
0000
,
0000
0000
0000
0000
0000
1000
0000
0000
,
0000
0000
0000
0001
,
0000
0000
0000
0000
,
0000
0100
0000
0000
,
0000
0000
0000
0010
,
0000
0000
0000
0000
,
0000
0000
0000
0000
,
0000
0000
0000
0000
,
0000
0000
0000
1001
,
1000
0000
0001
0000
,
1000
0000
0001
0000
,
1000
0000
0100
0000
,
0010
0000
0001
0000
,
1000
0000
0001
0000
,
1000
0000
0000
0000
0010
0000
0000
0200
,
0000
0000
0000
0000
,
0310
0000
0000
0000
,
1001
0000
0000
0000
,
0001
0000
0000
0000
,
1001
0000
1000
0000
,
0001
0000
1000
0000
,
0010
0000
0100
0000
,
0010
0000
1000
0000
,
0002
0000
0000
0000
,
1003
1001
0000
0001
,
0000
1000
0100
1000
,
0000
0010
0100
0010
,
0000
1000
0000
1001
,
0000
0010
0001
0010
,
0000
0100
1000
0010
,
0000
0100
0010
0100
,
0010
0100
0000
0000
,
0000
0000
0020
0000
,
0000
0000
0000
0130
0000
0000
0000
0000
,
0000
2002
0000
0000
3003
0000
0000
0000
;

//---------------dance-single - ----------------
#NOTES:
     dance-single:
     :
     Medium:
     6:
     0.366,0.571,0.263,0.281,0.039:
1002
0000
0103
0000
,
2001
0000
3100
0000
,
1001
0110
2002
0000
,
0000
3003
0001
1000
,
0100
1000
0000
0010
0000
0010
0100
0000
,
1001
0000
1000
0100
,
0010
0001
0000
0100
0000
0100
0010
0000
,
1001
0000
0001
1000
,
0010
0100
0000
0001
0000
0001
1000
0000
,
0010
0010
0110
0000
,
0100
0000
0000
0000
0100
0010
0100
0000
,
0110
0000
0100
0010
,
0100
0010
1000
0100
,
1000
0100
0010
0001
,
0010
0001
0100
0010
,
1000
0100
0020
0000
,
0000
0031
0100
0010
,
1000
0100
0020
0000
,
0000
0000
0031
2000
0000
0000
0000
0000
,
0000
3000
1001
0001
,
0011
0000
0100
1000
0010
0000
0100
0000
,
0001
1000
0001
0000
1001
0000
1000
0000
,
1100
0000
0010
0000
0001
0100
0010
0200
,
0000
0301
2000
0000
,
0100
0000
0000
3002
0000
0000
0000
0000
,
0103
0001
2000
0000
,
0100
0000
0000
3001
0000
0100
0010
0100
,
0000
0001
1000
0000
0002
0003
2000
3000
,
0002
0003
0200
0300
0120
0030
2000
3000
,
0002
0000
0003
0000
0200
0000
0300
0001
1000
0001
0000
0000
0101
0000
0000
0000
,
0100
0110
0010
1010
,
2000
0000
3001
1000
,
0001
1000
0010
1000
,
0010
0000
0000
0000
0000
0000
0000
0000
1000
0000
0000
0000
0000
0000
0000
0000
0001
0000
0000
0000
0000
0000
0000
0000
0000
0100
0000
0000
0000
0000
0000
0000
,
0000
0000
0001
0000
0000
0000
0000
0000
0000
0000
0000
0100
0000
0000
0000
0000
0000
0000
0000
0000
0001
0000
0000
0000
0000
0000
0000
0000
0000
1000
0000
0000
,
0000
0000
0000
0000
0000
0000
0001
0000
0000
0000
0000
0000
0000
0000
0000
1000
0000
0000
0000
0000
0000
0000
0000
0000
0010
0000
0000
0000
0000
0000
0000
0000
,
0000
0100
0000
0000
0010
0000
0000
0100
,
0000
0000
0001
0000
0000
1000
0000
0000
,
0001
0000
0000
1000
0000
0000
0002
0000
,
0000
0000
0000
0000
,
0000
0000
0000
0003
,
0000
0000
0000
0000
,
0000
0000
0000
1001
,
0001
0000
0100
0001
0000
1000
0000
2100
,
0000
0000
3001
0000
1000
0000
0010
0100
,
0010
0000
0100
0001
0100
0000
0010
1000
,
0200
0000
0310
0000
,
0001
0000
0100
0001
0000
1000
0000
2100
,
0000
0000
0001
0000
3001
0000
0100
0020
,
0000
0130
0002
0000
,
1003
0000
0100
0100
,
1001
0000
0000
0000
0000
0000
0000
0110
,
0000
0010
0100
0000
,
1001
0000
0000
0001
0000
0000
1001
0000
,
1000
0001
1000
0001
,
0010
0100
1000
0001
,
0010
0100
1000
0001
,
2000
0000
0000
0000
,
3001
0000
1001
0000
1000
0000
0010
0100
,
0000
0001
0000
0100
0010
0100
0001
0000
,
0001
0000
1000
0000
0001
0000
0100
0010
,
0000
1000
0000
0010
0100
0000
1001
0000
,
0000
0000
1001
0000
0001
0000
0100
0001
,
0000
1000
0000
0100
1000
0100
0010
0000
,
0001
0110
0100
0010
,
0010
0000
0100
0010
0100
0000
2002
0000
,
3003
0000
0200
0000
,
0000
0000
0000
0000
0000
0000
0310
0000
0000
0000
0000
0010
0000
0000
0000
0000
,
0000
2002
0000
0000
3003
0000
0000
0000
;

//---------------dance-single - ----------------
#NOTES:
     dance-single:
     :
     Hard:
     8:
     0.548,0.661,0.377,0.272,0.197: // measure 1
1000
0100
1000
0000
0010
0100
0010
0000
,  // measure 2
1000
0100
0010
0100
1000
0001
0100
0000
,  // measure 3
1001
0000
0000
0000
0110
0000
0000
0000
1001
0000
0000
0010
0000
0000
0100
0000
,  // measure 4
0000
1000
0000
0000
0001
0000
0000
0000
1000
0000
0100
0000
1000
0000
0001
0000
,  // measure 5
0100
0000
0000
0010
0000
0000
0100
0000
0001
0000
0010
0000
0100
0000
0000
0000
,  // measure 6
1001
0000
1001
0000
0001
0010
0001
1000
,  // measure 7
0100
0000
0000
0010
0000
0000
0100
0000
1000
0000
0010
0000
0100
0000
0000
0000
,  // measure 8
0002
0000
1003
0000
0110
0000
0100
0001
,  // measure 9
0010
0000
0000
0100
0000
0000
0010
0000
0001
0000
1000
0000
0100
0000
0000
0000
,  // measure 10
1001
1001
0010
0000
,  // measure 11
0010
0000
0000
0000
0010
0100
0010
0000
,  // measure 12
2002
0000
3003
0000
0001
0010
0001
0000
,  // measure 13
0010
0100
0010
0000
0001
0010
0100
1000
,  // measure 14
0001
0100
0001
0000
1000
0100
1000
0000
,  // measure 15
0100
0010
0100
0000
1000
0100
0010
0001
,  // measure 16
0000
0100
0010
0200
0001
0000
0010
0000
,  // measure 17
0301
0000
1000
0000
0001
0010
0100
1000
,  // measure 18
0000
0010
0100
0020
1000
0000
0100
0000
,  // measure 19
1030
0000
0000
0000
0010
0000
0110
0000
0000
0000
0000
0100
0000
0000
0010
0000
,  // measure 20
0000
1000
0000
0000
0001
0000
0000
0000
1001
0000
0000
0000
1000
0000
0100
0000
,  // measure 21
1100
0000
0010
0001
0100
0010
1000
0100
,  // measure 22
0010
0001
1000
0000
1001
0000
0001
0010
,  // measure 23
0011
0000
0100
1000
0001
0010
0100
2000
,  // measure 24
0000
0000
0000
0000
3010
0000
0100
0001
0200
0000
0000
0000
0010
0000
0000
0000
,  // measure 25
0301
1000
0000
0120
0000
0100
0000
0130
,  // measure 26
0001
0010
0100
0000
1000
0001
0100
0000
,  // measure 27
1001
0000
0000
0000
0000
0000
0110
0000
0000
0000
0010
0100
0010
0100
0010
0000
,  // measure 28
0000
1000
0001
0000
2100
0000
0002
0003
,  // measure 29
0200
0000
0300
0000
0002
0000
3003
0000
1000
0002
0000
0000
0200
0000
0300
0000
,  // measure 30
2000
0000
3000
0000
0200
0000
0303
0010
0100
0010
0000
0000
1001
0000
0000
0000
,  // measure 31
0100
0001
1000
0000
1001
0000
1001
0000
1000
0100
1000
0000
0001
0010
0001
0000
,  // measure 32
1000
0000
0010
0100
0000
0010
0100
0000
0001
0000
0010
0000
0100
0000
0000
0000
,  // measure 33
0100
0010
0001
0000
1000
0100
0010
0000
,  // measure 34
0010
0000
0000
0000
0100
0000
0000
0000
1000
0000
0000
0000
0000
0000
0000
0000
0001
0000
0000
0000
0000
0100
0000
0000
0000
0010
0000
0000
0000
0000
0000
0000
,  // measure 35
0000
0000
0010
0000
0000
0000
0000
0100
0000
0000
0000
0001
0000
0000
0000
0000
0000
0000
0000
0000
1000
0000
0000
0000
0000
0010
0000
0000
0000
0100
0000
0000
,  // measure 36
0000
0000
0000
0000
0000
0000
0100
0000
0000
0000
0000
0010
0000
0000
0000
1000
0000
0000
0000
0000
0000
0000
0000
0000
0001
0000
0000
0000
0000
0000
0100
0000
,  // measure 37
0000
0000
0001
0000
0000
0000
0000
0000
1000
0000
0000
0010
0000
0000
1000
0000
,  // measure 38
0000
0000
0000
0000
0010
0000
0000
0100
0000
0000
0010
0000
0000
0000
0000
0000
,  // measure 39
0100
0000
0000
0010
0000
0000
0100
0000
0000
0000
0000
0000
2002
0000
0000
0000
,  // measure 40
0000
0000
0000
0000
,  // measure 41
0000
3000
0000
0200
,  // measure 42
0000
0000
0000
0000
,  // measure 43
0000
0000
0000
0000
0000
0000
0000
0000
0000
0000
0000
0000
0303
0000
0000
0000
0000
0000
0000
0000
0000
0000
0000
0000
0000
0000
0000
0000
0000
0000
0000
0000
0000
0000
0000
0000
2002
3003
0000
0000
0000
0000
0000
0000
0000
0000
0000
0000
,  // measure 44
1000
0001
0010
1000
0010
0001
0000
0102
,  // measure 45
0000
0000
1003
0000
1100
0000
0100
0010
,  // measure 46
0001
0100
0001
0000
0000
0000
0100
0010
0100
0000
0000
0000
0001
0000
0100
0000
,  // measure 47
1000
0100
0001
1000
0100
1000
0001
0000
,  // measure 48
0100
0001
0010
0100
1000
0010
0000
2010
,  // measure 49
0000
3001
0010
0100
1000
0010
0000
0210
,  // measure 50
0000
0000
0000
0310
0000
0000
1001
0000
0001
0000
1000
0000
,  // measure 51
0110
0000
0100
0100
,  // measure 52
1001
1000
0000
0000
0000
0000
0000
1100
,  // measure 53
0000
0000
0100
0000
0101
0000
0000
0001
,  // measure 54
1000
0100
1000
0000
0000
0000
0001
1000
0001
0000
0000
0000
0100
0000
0001
0000
,  // measure 55
1000
0100
1000
0010
0100
0010
1000
0000
,  // measure 56
0001
0000
0000
0010
0000
0000
0100
0000
0010
0000
0000
0001
0000
0000
1000
0000
,  // measure 57
0010
0000
0000
0100
0000
0000
0001
0000
1000
0000
0000
0100
0000
0000
0010
0000
,  // measure 58
0001
0000
0000
0100
0000
0000
1000
0000
0001
0000
0000
0010
0000
0000
1000
0000
,  // measure 59
1001
0000
1100
0000
1100
0000
1000
0001
,  // measure 60
0100
1000
0100
0001
0010
0100
0010
0000
,  // measure 61
1001
0000
0101
0000
0101
0000
0010
0100
,  // measure 62
1000
0010
0001
0010
1000
0010
0200
0000
,  // measure 63
0301
0000
0110
0000
0110
0000
0010
1000
,  // measure 64
0100
0001
0100
1000
0001
0010
0100
0010
,  // measure 65
0001
1002
0013
0200
,  // measure 66
0310
0000
0001
0100
1000
0000
0202
0000
,  // measure 67
0000
0000
0303
0000
0010
0000
1000
0100
,  // measure 68
0010
0000
0001
0000
0100
0000
0110
0000
0000
0000
0000
0020
0000
0000
0000
0000
,  // measure 69
0000
0200
0000
0000
0330
0000
0000
0000
;

//---------------dance-single - ----------------
#NOTES:
     dance-single:
     :
     Beginner:
     2:
     0.100,0.149,0.061,0.000,0.000:
1000
0000
0000
0000
,
0001
0000
0000
0000
,
1001
0000
0000
0000
,
0000
0000
0001
0000
,
1000
0000
0001
0000
,
0000
0000
0100
0000
,
0001
0000
0100
0000
,
0000
0000
0010
0000
,
1000
0000
0010
0000
,
0000
0000
0100
0000
,
0000
0000
0000
0000
,
0000
0000
0110
0000
,
0010
0000
0100
0000
,
0000
0000
0001
0000
,
1000
0000
0001
0000
,
0000
0000
1000
0000
,
0001
0000
1000
0000
,
0000
0000
0010
0000
,
0100
0000
0010
0000
,
0000
0000
1000
0000
,
1000
0000
1000
0000
,
0000
0000
0001
0000
,
0001
0000
0001
0000
,
0000
0000
1001
0000
,
0000
0000
0000
0000
,
0000
0000
0110
0000
,
0000
0000
0000
0000
,
0000
0000
1000
0000
,
0000
0000
0001
0000
,
0000
0000
1000
0000
,
0000
0000
1000
0000
,
0000
0000
0001
0000
,
0000
0000
0000
0000
,
0000
0000
0001
0000
,
0000
0000
0000
0000
,
0000
0000
0000
0001
,
0000
0000
0000
0000
,
0000
0000
0000
0000
,
0000
0000
0000
0001
,
0000
0000
0000
0000
,
0000
0000
0000
0000
,
0000
0000
0000
0000
,
0000
0000
0000
1001
,
1000
0000
0000
0000
,
0001
0000
0000
0000
,
1000
0000
0100
0000
,
1000
0000
0100
0000
,
1000
0000
0000
0000
,
0001
0000
0000
0000
,
0100
0000
0010
0000
,
0000
0000
0000
0000
,
1001
0000
0000
0000
,
0001
0000
0000
0000
,
1000
0000
0000
0000
,
0000
0000
0000
0000
,
0010
0000
0010
0000
,
0010
0000
0100
0000
,
0010
0000
0000
0000
,
1001
1000
0000
0000
,
0000
0001
0000
0000
,
0000
1000
0000
0000
,
0000
0100
0000
0000
,
0000
0010
0000
0001
,
0000
0010
0000
0000
,
0000
0001
0000
0001
,
0000
0001
0000
0000
,
0000
0000
1000
0000
,
0000
0000
0000
0000
,
0000
1000
0000
0000
0000
0000
0000
0000
;
