#TITLE:THE DECISIVE BATTLE;
#SUBTITLE:(Gt.KURIKINTON FOX);
#ARTIST:KURIKINTON FOX;
#TITLETRANSLIT:;
#SUBTITLETRANSLIT:;
#ARTISTTRANSLIT:;
#CREDIT:DigiMindAxel;
#BANNER:THE DECISIVE BATTLE (Gt.KURIKINTON FOX).png;
#BACKGROUND:THE DECISIVE BATTLE (Gt.KURIKINTON FOX)-bg.png;
#LYRICSPATH:;
#CDTITLE:DMAxel original simfile.png;
#MUSIC:THE DECISIVE BATTLE (Gt.KURIKINTON FOX).mp3;
#OFFSET:-4.920;
#SAMPLESTART:18.323;
#SAMPLELENGTH:12.000;
#SELECTABLE:YES;
#BPMS:0.000=250.000;
#STOPS:;
#BGCHANGES:-18.000=THE DECISIVE BATTLE (Gt.KURIKINTON FOX).AVI=1.000=1=0=1,
99999=-nosongbg-=1.000=0=0=0 // don't automatically add -songbackground-
;

//---------------dance-single - ----------------
#NOTES:
     dance-single:
     :
     Easy:
     4:
     0.346,0.387,0.000,0.174,0.000: // measure 1
0002
0000
0000
0000
,  // measure 2
0000
0000
0000
0000
,  // measure 3
2003
0000
0000
0000
,  // measure 4
0000
0000
0000
0000
,  // measure 5
3002
0000
0000
0000
,  // measure 6
0000
0000
0003
0000
,  // measure 7
1000
0001
1000
0010
,  // measure 8
0100
0010
1000
0010
,  // measure 9
0100
0001
1000
0010
,  // measure 10
1000
0000
0000
0000
,  // measure 11
0001
0000
0000
1000
0000
0000
0010
0000
,  // measure 12
0000
0100
0000
0000
0010
0000
1000
0000
,  // measure 13
0001
0000
0000
1000
0000
0000
0010
0000
,  // measure 14
0100
0010
1000
0000
,  // measure 15
0001
0010
0100
1000
,  // measure 16
0100
0010
0001
1000
,  // measure 17
0001
0000
0000
1000
,  // measure 18
0000
0000
0000
0000
,  // measure 19
0001
0010
0100
1000
,  // measure 20
0100
0010
0001
0000
,  // measure 21
1000
0000
0000
0002
,  // measure 22
0000
0000
0000
0000
,  // measure 23
1003
0010
0100
0010
,  // measure 24
0100
0010
0100
0001
,  // measure 25
1000
0000
0000
0001
0000
0000
0100
0000
,  // measure 26
0010
0000
0000
0000
1000
0000
0000
0001
,  // measure 27
0000
1000
0010
0100
,  // measure 28
0010
0100
0001
1000
,  // measure 29
0100
0010
0001
0010
,  // measure 30
0100
1000
0100
1000
,  // measure 31
0010
0001
0010
1000
,  // measure 32
0010
1000
0010
0100
,  // measure 33
0001
0000
0000
0010
0000
0000
1000
0000
,  // measure 34
0010
0000
0000
0001
0000
0000
0100
0000
,  // measure 35
0020
0000
0000
0000
,  // measure 36
0030
2000
0000
0000
,  // measure 37
3010
1000
0010
0100
,  // measure 38
0001
0010
0100
1000
,  // measure 39
0002
0000
0000
0000
,  // measure 40
0203
0000
0000
0000
,  // measure 41
0302
0000
0000
0000
,  // measure 42
2003
0000
0000
3000
,  // measure 43
0001
0000
0000
1000
0000
0000
0001
0000
,  // measure 44
0000
1000
0000
0000
0010
0000
0100
0000
,  // measure 45
0001
0000
0000
0100
0000
0000
0010
0000
,  // measure 46
0000
0100
0000
0000
0001
0000
0100
0000
,  // measure 47
0010
0000
0000
1000
0000
0000
0001
0000
,  // measure 48
0000
0100
0000
0000
0010
0000
0100
0000
,  // measure 49
0001
0000
0000
0010
0000
0000
1000
0000
,  // measure 50
0000
0010
0000
0000
0001
0000
0100
0000
,  // measure 51
1000
0000
0100
0000
0001
0000
0000
1000
,  // measure 52
0000
0010
0100
0010
,  // measure 53
1000
0100
1000
0010
,  // measure 54
1000
0010
0100
0001
,  // measure 55
0010
0000
0000
0000
0100
0000
0000
1000
,  // measure 56
0000
0000
0010
0100
,  // measure 57
0001
1000
0100
1000
,  // measure 58
0020
0000
0000
0000
,  // measure 59
2030
0000
0000
0000
,  // measure 60
0000
0000
0000
3001
0000
0000
0000
0000
;

//---------------dance-single - ----------------
#NOTES:
     dance-single:
     :
     Challenge:
     9:
     0.778,0.776,0.724,0.261,0.000:
1000
0000
1000
0010
0000
0010
0100
0000
,
0100
0001
0000
0001
1000
0000
1001
0000
,
0001
0000
0001
0010
0000
0010
0100
0000
,
0100
1000
0000
1000
0001
0000
1001
0000
,
1100
0000
1100
0000
1000
0002
0000
0103
,
0000
0010
0200
0000
0302
0000
1003
0000
,
1001
0000
1000
0000
0100
0010
0100
0000
,
1000
0000
0001
0000
0010
0100
0010
0000
,
0011
0000
0011
0000
0001
2000
0000
3010
,
0000
0100
0020
0000
2030
0000
3001
0000
,
1001
0000
0000
0011
0000
0000
1100
0000
,
0000
1001
0000
0000
0110
0000
0110
0000
,
1001
0000
0000
1010
0000
0000
0101
0000
,
0000
0110
0000
0010
0100
0010
0100
0010
,
1000
0100
0010
0001
0010
0100
1000
0001
,
0100
0000
0010
0100
0000
0010
0100
0001
,
0010
0000
0001
1000
0000
1000
0010
1000
,
0001
0100
1000
0100
0001
0000
1001
0000
,
0001
0010
0100
1000
0100
0010
0001
1000
,
0010
0000
0100
0010
0000
0100
0010
1000
,
0100
0000
1000
0001
0000
0001
0100
0001
,
1000
0010
0001
0010
1000
0100
0010
0001
,
0100
0000
0101
0000
0100
0010
0100
0000
,
0010
0000
1010
0000
0010
0100
0010
0000
,
1100
0000
0000
0011
0000
0000
1001
0000
,
1001
0000
0000
0110
0000
0000
0010
0100
,
0010
0000
1000
0000
0001
0010
0001
0000
,
1001
0000
0001
0000
1000
0100
1000
0000
,
0001
0000
0100
0000
0010
1000
0010
0000
,
1000
0002
0023
0031
,
1001
0000
1000
0000
0010
1000
0010
0000
,
1001
0000
0010
0000
0100
1000
0100
0000
,
1100
0000
0000
0011
0000
0000
1001
0000
,
1001
0000
0000
0110
0000
0000
1001
0000
,
0002
1000
0000
0103
,
0001
0010
0100
1000
0100
0010
0001
1000
,
0020
0100
0000
1000
,
0000
0000
0130
0000
0001
0000
0100
0001
,
0010
0000
0000
0011
0000
0000
0110
0000
,
0110
0000
0000
1100
0000
0000
1001
0000
,
1001
0000
0000
0110
0000
0000
0110
0000
,
1000
0100
0010
0001
0010
0100
1000
0000
,
0001
0100
1000
0100
0001
0010
0100
1000
,
0001
0100
0010
1000
0001
0000
0001
0000
,
1000
0100
0001
0100
1000
0010
0100
0001
,
1000
0100
0010
0001
1000
0000
1000
0000
,
0001
0100
0000
0100
1000
0000
1000
0100
,
0000
0100
0001
0000
1001
0000
1001
0000
,
0001
0010
0000
0010
1000
0000
1000
0010
,
0000
0010
0001
0000
1001
0000
1001
0000
,
2100
0000
3002
0000
0103
0002
0000
1003
,
0000
0001
0100
0010
0100
0001
0010
0000
,
1001
0000
0001
0000
0100
0001
0010
0000
,
0100
0000
0010
0000
0001
0010
0100
0000
,
0102
0000
2003
0000
3010
0200
0000
0301
,
0000
1000
0010
0100
0010
1000
0100
0000
,
1000
0100
0001
0100
1000
0010
0100
0010
,
1000
0010
0001
0010
1000
0001
0010
0000
,
0001
0010
0001
0010
0100
1000
0100
1000
,
0001
0000
0000
2002
0000
0000
0000
0000
,
0000
0000
0000
0000
,
0000
0000
0000
0000
,
0000
0000
0000
0000
,
3003
0000
0000
0000
;

//---------------dance-single - ----------------
#NOTES:
     dance-single:
     :
     Hard:
     8:
     0.604,0.639,0.362,0.261,0.000: // measure 1
1000
0000
0000
0100
0000
0000
0010
0000
,  // measure 2
0000
0001
0000
0000
1000
0000
1000
0000
,  // measure 3
0001
0000
0000
0100
0000
0000
0010
0000
,  // measure 4
0000
1000
0000
0000
0001
0000
0001
0000
,  // measure 5
1000
0000
0001
0000
0100
0010
0000
0100
,  // measure 6
0000
0001
1000
0000
0001
0000
0001
0000
,  // measure 7
1000
0000
0010
0000
0100
0010
0100
0000
,  // measure 8
0001
0000
0001
0000
0010
0000
0100
1000
,  // measure 9
0100
0000
0010
0000
0001
1000
0000
0100
,  // measure 10
0000
1000
0001
0000
0010
0000
0100
0000
,  // measure 11
2000
0000
0000
0010
0000
0000
0010
0000
,  // measure 12
0000
0100
0000
0000
3100
0000
1000
0000
,  // measure 13
0002
0000
0000
0100
0000
0000
0100
0000
,  // measure 14
0000
0103
0000
0001
1000
0001
1000
0001
,  // measure 15
0100
0000
0010
0100
0000
0100
0010
0000
,  // measure 16
1000
0100
0000
0100
1000
0000
0010
0100
,  // measure 17
0010
0000
0100
0001
0000
0001
0100
0000
,  // measure 18
0010
0100
0010
0000
1000
0100
0010
0100
,  // measure 19
1000
0000
0001
0100
0000
0100
0010
0000
,  // measure 20
0100
0001
0000
0001
0010
0000
0001
1000
,  // measure 21
0010
0000
0100
0010
0000
0100
0010
1000
,  // measure 22
0100
0000
0010
0001
0100
0010
1000
0000
,  // measure 23
1002
0100
0000
1003
,  // measure 24
0020
0000
0000
0230
0000
0000
0301
0000
,  // measure 25
1001
0000
0000
1001
0000
0000
0010
0000
,  // measure 26
0110
0000
0000
0110
0000
0000
1000
0001
,  // measure 27
2000
0100
0000
3001
,  // measure 28
0020
0000
0000
0230
0000
0000
1300
0000
,  // measure 29
0001
0000
0100
0000
0001
1000
0001
0000
,  // measure 30
1000
0100
0001
0100
,  // measure 31
2001
0100
0000
3001
,  // measure 32
0200
0000
0000
0320
0000
0000
1030
0000
,  // measure 33
1001
0000
0000
1001
0000
0000
0100
0000
,  // measure 34
0110
0000
0000
0110
0000
0000
1000
0000
,  // measure 35
1002
0100
0000
1003
,  // measure 36
0001
0010
0001
0000
0100
0010
1000
0100
,  // measure 37
1000
0001
0100
0010
,  // measure 38
0100
0000
0001
0000
1000
0100
1000
0000
,  // measure 39
1001
0000
0000
1000
0000
0000
0100
0000
,  // measure 40
0001
0000
0000
0100
0000
0000
1000
0000
,  // measure 41
1001
0000
0000
0001
0000
0000
1000
0000
,  // measure 42
0000
0100
1000
0100
1000
0010
0100
0001
,  // measure 43
1000
1000
0100
0100
,  // measure 44
0010
0010
0001
0001
,  // measure 45
0100
0000
0000
1001
0000
0000
0010
0100
,  // measure 46
0000
0100
0010
0000
1000
0001
1000
0000
,  // measure 47
0001
0000
0001
0100
0000
0100
1000
0000
,  // measure 48
1000
0100
0000
0100
0001
0000
1001
0000
,  // measure 49
1000
0010
0000
0010
0001
0000
0001
0010
,  // measure 50
0000
0010
1000
0000
1001
0000
0001
0000
,  // measure 51
1001
0000
1000
0000
0010
0100
0000
0010
,  // measure 52
0000
1000
0100
0000
0001
0000
0100
0000
,  // measure 53
1000
0000
0010
0000
0100
0010
0100
0000
,  // measure 54
0001
0000
1000
0000
0010
0100
0010
0000
,  // measure 55
1000
0000
0010
0000
0100
0010
0000
0100
,  // measure 56
0000
0001
0010
0000
0100
0000
1000
0000
,  // measure 57
0220
0000
0000
0330
,  // measure 58
2002
0000
0000
3003
,  // measure 59
1100
1100
0011
0011
,  // measure 60
1001
0000
0000
0220
0000
0000
0000
0000
,  // measure 61
0000
0000
0000
0000
,  // measure 62
0000
0000
0000
0000
,  // measure 63
0000
0000
0000
0000
,  // measure 64
0330
0000
0000
0000
;

//---------------dance-single - ----------------
#NOTES:
     dance-single:
     :
     Medium:
     6:
     0.416,0.502,0.101,0.232,0.000: // measure 1
2000
0000
0000
0000
,  // measure 2
0000
0000
0000
3000
,  // measure 3
0002
0000
0000
0000
,  // measure 4
0000
0000
0000
0000
,  // measure 5
0103
0010
0100
0000
,  // measure 6
0001
0010
0100
1000
,  // measure 7
0001
0010
0100
0000
,  // measure 8
0010
0100
1000
0000
,  // measure 9
0010
0100
0010
1000
,  // measure 10
0100
0010
0001
1000
,  // measure 11
0001
0000
0000
0001
0000
0000
1000
0000
,  // measure 12
0000
1000
0000
0000
0001
0000
1000
0000
,  // measure 13
0001
0000
0000
0001
0000
0000
1000
0000
,  // measure 14
0000
1000
0000
0010
0100
0000
0001
0000
,  // measure 15
2000
0000
0000
0000
,  // measure 16
0000
0000
0000
0000
,  // measure 17
3001
0000
0100
0010
0000
0100
0010
0000
,  // measure 18
1000
0100
0010
0001
,  // measure 19
0200
0000
0000
0000
,  // measure 20
0000
0000
0000
0000
,  // measure 21
0301
0000
0100
0010
0000
0100
0010
0000
,  // measure 22
1000
0001
0010
0100
,  // measure 23
2002
0000
3003
0001
,  // measure 24
0100
0001
0010
0100
,  // measure 25
1000
0000
0000
1000
0000
0000
1000
0000
,  // measure 26
0001
0000
0000
0001
0000
0000
0001
0000
,  // measure 27
1000
0100
0010
0000
,  // measure 28
0100
0010
0001
1000
,  // measure 29
0010
0100
0010
0000
,  // measure 30
1000
0001
1000
0001
,  // measure 31
0100
0010
0100
0000
,  // measure 32
0001
1000
0010
1000
,  // measure 33
0001
0000
0000
0001
0000
0000
0001
0000
,  // measure 34
1000
0000
0000
1000
0000
0000
1000
0000
,  // measure 35
2002
0000
0000
3003
,  // measure 36
0001
0010
0100
1000
,  // measure 37
0001
0000
1000
0000
0010
0100
0010
0000
,  // measure 38
1000
0000
0001
0000
0100
0010
0100
0000
,  // measure 39
0001
0000
0000
0001
0000
0000
0001
0000
,  // measure 40
0100
0000
0000
0100
0000
0000
0100
0000
,  // measure 41
0010
0000
0000
0010
0000
0000
0010
0000
,  // measure 42
1000
0001
1000
0000
0100
0000
0010
0000
,  // measure 43
0002
0000
0000
0000
,  // measure 44
0000
0003
0100
0010
,  // measure 45
0200
0000
0000
0000
,  // measure 46
0000
0300
0001
1000
,  // measure 47
0010
0000
0100
0010
0000
0100
0010
0000
,  // measure 48
1000
0001
1000
1001
,  // measure 49
0001
0000
0100
0010
0000
0100
0010
0000
,  // measure 50
1000
0001
1000
1001
,  // measure 51
0010
0000
0100
0000
0001
1000
0000
1000
,  // measure 52
0000
0001
0010
0100
,  // measure 53
1000
0010
0100
0000
,  // measure 54
0001
0100
0010
0000
,  // measure 55
1000
0000
0010
0000
1000
0001
0000
0001
,  // measure 56
0000
0010
0100
1000
,  // measure 57
0220
0000
0000
0330
,  // measure 58
2002
0000
0000
3003
,  // measure 59
0001
0010
0100
1000
,  // measure 60
0001
0000
0000
2002
0000
0000
0000
0000
,  // measure 61
0000
0000
0000
0000
,  // measure 62
0000
0000
0000
0000
,  // measure 63
0000
0000
0000
0000
,  // measure 64
3003
0000
0000
0000
;

//---------------dance-single - ----------------
#NOTES:
     dance-single:
     :
     Beginner:
     2:
     0.126,0.258,0.058,0.000,0.000: // measure 1
1000
0000
0000
0000
,  // measure 2
0000
0000
0000
0000
,  // measure 3
0001
0000
0000
0000
,  // measure 4
0000
0000
0000
0000
,  // measure 5
0100
0000
0000
0000
,  // measure 6
0000
0000
0000
0000
,  // measure 7
0010
0000
0000
0000
,  // measure 8
0100
0000
0000
0000
,  // measure 9
0010
0000
0000
0000
,  // measure 10
0000
0000
0000
0000
,  // measure 11
1000
0000
0000
0000
,  // measure 12
0000
0000
0001
0000
,  // measure 13
0001
0000
0000
0000
,  // measure 14
0000
0000
1000
0000
,  // measure 15
0010
0000
0000
0000
,  // measure 16
0000
0000
0000
0000
,  // measure 17
0100
0000
0000
0000
,  // measure 18
0000
0000
0000
0000
,  // measure 19
0010
0000
0000
0000
,  // measure 20
0000
0000
0000
0000
,  // measure 21
0100
0000
0000
0000
,  // measure 22
0000
0000
0000
0000
,  // measure 23
0001
0000
0001
0000
,  // measure 24
1000
0000
1000
0000
,  // measure 25
1000
0000
0001
0000
,  // measure 26
0001
0000
0001
0000
,  // measure 27
0100
0000
0100
0000
,  // measure 28
0010
0000
0010
0000
,  // measure 29
1000
0000
1000
0000
,  // measure 30
0100
0000
0010
0000
,  // measure 31
0001
0000
0001
0000
,  // measure 32
0100
0000
0100
0000
,  // measure 33
0010
0000
0000
0000
,  // measure 34
0000
0000
0000
0000
,  // measure 35
1001
0000
0000
0000
,  // measure 36
0000
0000
0000
0000
,  // measure 37
0010
0000
0100
0000
,  // measure 38
0010
0000
1000
0000
,  // measure 39
0001
0000
0000
0000
,  // measure 40
1000
0000
0000
0000
,  // measure 41
0001
0000
0000
0000
,  // measure 42
0000
0000
0000
0000
,  // measure 43
1001
0000
0000
0000
,  // measure 44
0000
0000
0000
0000
,  // measure 45
1000
0000
0000
0000
,  // measure 46
0000
0000
0000
0000
,  // measure 47
0010
0000
0000
0000
,  // measure 48
0000
0000
0000
0000
,  // measure 49
0100
0000
0000
0000
,  // measure 50
0000
0000
0000
0000
,  // measure 51
0001
0000
0000
0000
,  // measure 52
0000
0000
0000
0000
,  // measure 53
1000
0000
1000
0000
,  // measure 54
0001
0000
0001
0000
,  // measure 55
1001
0000
0000
0000
,  // measure 56
0000
0000
0000
0000
,  // measure 57
0001
0000
0000
0000
,  // measure 58
1000
0000
0000
0000
,  // measure 59
0010
0000
0000
0000
,  // measure 60
0000
0000
0000
1001
0000
0000
0000
0000
;
