#TITLE:GOONIES"R"GOOD ENOUGH;
#SUBTITLE:;
#ARTIST:Mr.T;
#TITLETRANSLIT:;
#SUBTITLETRANSLIT:;
#ARTISTTRANSLIT:;
#CREDIT:DigiMindAxel;
#BANNER:GOONIES''R''GOOD ENOUGH.png;
#BACKGROUND:GOONIES''R''GOOD ENOUGH-bg.png;
#LYRICSPATH:;
#CDTITLE:pop'n music.png;
#MUSIC:GOONIES''R''GOOD ENOUGH.mp3;
#OFFSET:-4.460;
#SAMPLESTART:7.640;
#SAMPLELENGTH:12.000;
#SELECTABLE:YES;
#BPMS:0.000=150.000;
#STOPS:;
#BGCHANGES:;

//---------------dance-single - ----------------
#NOTES:
     dance-single:
     :
     Challenge:
     9:
     0.626,0.521,0.387,0.073,0.314:
0001
0000
1000
0100
0010
0001
1000
0100
,
0000
0000
1000
0001
1000
0000
0001
0000
0010
0000
0100
0000
1000
0000
0010
0000
,
0020
0000
0000
0000
0000
0000
0130
0001
0100
0000
0001
0000
0001
0000
1000
0000
,
0000
0000
0010
1000
0010
0000
1000
0000
1000
0000
0001
0000
0010
0000
0100
0000
,
2000
0000
0000
3001
0010
0001
1000
0010
,
0000
0000
0100
0010
0100
0000
0001
0000
1000
0000
1000
0000
0001
0000
0001
0000
,
1001
0000
2100
0000
0010
3010
0000
0100
,
0002
0000
0000
0000
0013
0000
0000
0000
1001
0000
0000
0000
1000
0000
0010
0200
,
0000
0000
0001
0000
0001
0000
0301
1000
,
0000
0001
0010
0001
0010
0001
1000
0100
,
0010
0000
0001
0001
0001
0000
0101
0000
,
0110
1010
1001
0110
,
0000
1000
1000
0001
0010
0100
0000
0110
,
0000
1000
0010
1000
0001
0010
0010
0000
,
1001
1100
1100
0101
,
0101
0000
1001
0000
0001
0100
1000
0000
,
0100
0101
0101
0101
,
1100
0000
1100
0000
1000
0100
0001
0000
,
1001
0110
0110
1010
,
1010
0000
0001
0010
0000
0100
0010
0001
,
1000
0000
0001
0100
0000
0000
0001
0100
0000
0000
0001
1000
0000
0000
1000
0100
,
0000
0000
1000
0100
0000
0000
0010
0100
0000
0000
0010
0001
0000
0000
1000
0010
,
0000
0000
1000
0010
0000
0000
1000
0001
1000
0000
0100
0000
0010
0000
0001
1000
,
0001
0000
1000
0100
0000
0000
1000
0100
0000
0000
1000
0001
0000
0000
0001
0100
,
0000
0000
0001
0100
0000
0000
0010
1000
0000
0000
0010
1000
0000
0000
0010
0100
,
0000
0000
0010
0100
0000
0000
0001
1000
0001
0000
0100
0000
0100
0000
0010
0000
,
1000
0000
0000
0001
1000
0000
0100
0000
1000
0000
0001
0000
0101
0000
0000
0000
,
1100
0000
0000
1000
0000
0000
0001
0000
0100
0000
0010
0000
1000
0000
1000
0001
,
1000
0000
0001
0010
0100
1000
0010
0010
,
0000
0000
0100
0010
0100
0000
0001
0000
0010
0000
0100
0000
1000
0000
0010
0000
,
0010
0000
1000
0100
0010
0001
0100
0100
,
0000
0000
0010
0100
0010
0000
1000
0000
0001
0000
0001
0000
1000
0000
1000
0000
,
1002
0000
0000
0000
0000
0000
0103
0001
0100
0000
0001
0000
0010
0000
0100
0000
,
0000
0000
1000
0001
1000
0000
0010
0000
0100
0000
0001
0000
0010
0000
0100
0000
,
2000
0000
3010
0100
0001
1000
0010
0010
,
0000
0000
0100
0010
0100
0000
0001
0000
0010
0000
0100
0000
1000
0000
0001
0000
,
1001
0100
0100
0100
,
0100
0000
1000
0000
0001
0010
0000
0001
,
0001
0001
0001
0001
,
0100
0000
0010
0000
1000
0010
0010
1000
,
0001
0101
0101
1100
,
1100
0000
0010
0100
0000
0001
0010
0100
,
0000
0000
1000
0000
1001
0000
0000
0000
0001
0000
1000
0010
0000
0000
1000
0010
,
0000
0000
1000
0001
0000
0000
0001
0010
0000
0000
0001
0010
0000
0000
0100
0010
,
0000
0000
0100
1000
0000
0000
0010
0100
0000
0000
0010
0100
0000
0000
0001
1000
,
0001
0000
0010
0000
0100
0000
1000
0001
1000
0000
0001
0010
0000
0000
0001
0010
,
0000
0000
0001
1000
0000
0000
1000
0010
0000
0000
1000
0010
0000
0000
0100
0001
,
0000
0000
0100
0001
0000
0000
0010
0100
0000
0000
0010
0100
0000
0000
0010
0100
,
0010
0000
0001
0000
0010
0000
0100
0000
1000
0000
0000
0001
0100
0000
0010
0000
,
0100
0000
0001
0000
0101
0000
0000
0000
1100
0000
0000
1000
0000
0000
0010
0000
,
0100
0000
0001
0000
1000
0000
0001
1000
0001
0000
0000
0000
1000
0000
0100
0000
,
0001
0000
0100
0000
0010
0000
0001
0000
0000
0000
0010
0100
0010
0000
0001
0000
,
1000
0010
0010
0100
0100
0000
0001
0100
,
1000
0000
0100
0000
0010
0000
1000
0000
0000
0000
0100
0010
0100
0000
1000
0000
,
0001
0001
1000
1000
1001
0000
0010
0100
,
1000
0001
0100
1000
0000
0000
0000
0000
;

//---------------dance-single - ----------------
#NOTES:
     dance-single:
     :
     Hard:
     7:
     0.507,0.433,0.199,0.282,0.063: // measure 1
1000
1000
0001
0001
,  // measure 2
1000
0001
0001
0100
0100
0001
0010
0100
,  // measure 3
2000
0000
0000
0001
3002
0000
0100
0103
,  // measure 4
0000
0010
1000
0001
0002
0000
1000
0000
,  // measure 5
2003
0000
0000
3020
0000
0000
0230
0000
,  // measure 6
0000
0301
0100
0001
1000
1000
1000
0000
,  // measure 7
1001
0000
0010
0000
1000
0010
0000
0100
,  // measure 8
0010
0000
1000
0000
0100
0000
0001
0100
,  // measure 9
2000
0000
0000
0000
0000
0000
0001
3001
,  // measure 10
0000
0100
0010
0100
0010
0100
0001
0100
,  // measure 11
0010
0000
1000
1000
1000
0000
0002
0000
,  // measure 12
0103
0020
1030
1001
,  // measure 13
0000
0010
0100
0010
1000
0100
0000
0001
,  // measure 14
0000
0100
1000
0000
0010
0100
0010
0000
,  // measure 15
1001
2000
3100
0020
,  // measure 16
0031
0000
2000
0000
0001
3001
0000
0000
,  // measure 17
1000
0002
0013
0200
,  // measure 18
1300
0000
0002
0000
1000
1000
1003
0000
,  // measure 19
1001
0002
0103
0020
,  // measure 20
1030
0000
0010
0100
0000
0010
0100
0010
,  // measure 21
1000
0000
0000
0000
0001
0000
0000
0001
0100
0000
0000
0000
1000
0000
0000
1000
,  // measure 22
0100
1001
0110
1001
,  // measure 23
0000
0000
0000
0000
1000
0000
0000
1000
0001
0000
0010
0000
0001
0000
0010
0000
,  // measure 24
0100
0000
0000
0000
1000
0000
0000
0000
1100
0000
0000
0000
0000
0000
0001
0100
,  // measure 25
0002
0000
0000
1000
1003
0000
0010
0000
,  // measure 26
0100
0000
0001
0000
1000
0100
0010
0001
,  // measure 27
1000
0100
0010
0100
1000
0001
0001
0000
,  // measure 28
0100
0000
0000
0100
0000
0000
0100
0000
0010
0000
0000
0000
1000
0001
0000
0000
,  // measure 29
1001
0000
1000
0100
1000
0010
0100
0001
,  // measure 30
0000
0100
0100
0001
0010
0100
1000
0000
,  // measure 31
0001
0000
0001
0010
0001
0100
0010
1000
,  // measure 32
0000
0010
0010
1000
0100
0010
0001
0000
,  // measure 33
1002
0000
0000
0100
0203
0000
0310
0000
,  // measure 34
0000
1000
0010
1000
0002
0000
0013
0000
,  // measure 35
0200
0000
0000
2300
0000
0000
3002
0000
,  // measure 36
0000
1003
0100
1000
0001
0010
0100
1000
,  // measure 37
1000
0001
0100
1000
,  // measure 38
0100
0000
0001
0000
0100
0010
0000
0000
,  // measure 39
1000
0100
0001
0100
,  // measure 40
1000
0000
0010
0000
0100
0001
0001
0000
,  // measure 41
1001
0001
0101
1000
,  // measure 42
1100
0000
0010
0100
0000
0001
1000
0020
,  // measure 43
0000
0000
0100
0000
0130
0000
0000
0000
1001
0000
0000
0000
1000
0000
0000
1000
,  // measure 44
0100
0000
0000
0000
0001
0000
0000
0001
0100
0000
0000
0000
1001
0000
0000
0000
,  // measure 45
0110
0000
0000
0000
1001
0000
0000
0000
1000
0000
0000
0000
0001
0000
0000
1000
,  // measure 46
0001
0010
0001
0010
0100
0000
1000
0000
,  // measure 47
1100
0000
0000
0000
0000
0000
0001
1000
0002
0000
0000
0000
0000
0000
1000
0000
,  // measure 48
1003
0010
0100
0001
,  // measure 49
1000
1000
0001
0001
1000
0100
0010
0100
,  // measure 50
1000
0000
0001
0000
0100
0000
0000
0000
0010
0000
0000
0010
0000
0000
0010
0000
,  // measure 51
0100
0000
0000
0000
0001
1000
0000
0000
1001
0000
0000
0000
0001
0000
0100
0000
,  // measure 52
0010
0100
0001
0010
0000
0100
0100
0010
,  // measure 53
0001
0001
1000
1000
0001
0000
1000
0010
,  // measure 54
0100
0010
1000
0100
0000
0010
0010
0100
,  // measure 55
1000
1000
0001
0001
0200
0000
0010
0000
,  // measure 56
1000
0301
0000
0000
;

//---------------dance-single - ----------------
#NOTES:
     dance-single:
     :
     Medium:
     5:
     0.363,0.347,0.262,0.241,0.000:
0001
0001
0001
0001
,
1000
0100
1000
0000
0001
0100
0001
0100
,
0002
0000
2003
3100
,
0000
1000
0001
0000
0100
0000
0010
0000
,
0200
0000
0000
0010
0000
0000
0320
0000
,
0000
1030
0001
0000
0100
0000
0010
0000
,
0110
1000
1000
0001
,
0001
0000
0100
0000
0010
0000
1000
0001
,
2000
0000
0000
0000
0000
0000
0001
3001
,
0000
0100
0010
0000
1000
0000
0100
0000
,
0010
0000
0001
1000
0001
0000
0100
0000
,
0010
0100
0010
1000
,
0000
0010
0100
0000
0001
0000
1000
0000
,
0010
0100
0010
1000
,
1001
0010
0100
1000
,
0001
1000
0010
0000
,
1000
0100
0010
0001
,
1000
0010
0100
0000
,
1001
0100
0010
0001
,
1000
0000
0010
0100
0000
0010
0100
0000
,
0001
1000
1100
1000
,
1100
0010
0010
1001
,
0000
0001
0011
1001
,
1000
0010
0100
0001
,
2000
0000
3002
0000
,
0000
0000
1003
1001
,
0100
0100
0110
0000
,
0002
0000
1003
1001
,
0200
0000
0001
0000
0301
0000
1000
0100
,
0000
1000
0001
1000
,
0020
0000
1000
0000
1030
0000
0001
0010
,
0000
0001
1000
0001
,
2000
0000
3020
0000
,
0030
0100
0010
0100
,
0002
0000
0000
1000
0000
0000
1003
0000
,
0000
0001
1001
1000
,
2002
0000
0000
0000
,
0000
0000
0000
0000
0000
3003
0000
0100
,
0020
0000
0000
0000
,
0130
0000
0001
1000
,
1001
0100
0010
0001
,
1000
0000
0010
0100
0000
0010
0100
0000
,
0000
0000
1001
0001
,
0011
0001
0011
1000
,
0001
1000
0010
1000
,
1100
0010
0001
0100
,
0110
0000
0000
0000
0002
0000
0000
1000
,
2003
0000
0000
0000
,
3001
1001
1001
0010
,
0100
0000
1000
0000
0020
0000
0000
0100
,
0130
1001
0002
0100
,
0103
0000
1000
0100
0000
1000
0001
0000
,
0100
0110
2000
0010
,
3010
0000
0001
0010
0000
0001
1000
0000
,
0010
0110
2002
0000
,
0000
3003
0000
0000
;

//---------------dance-single - ----------------
#NOTES:
     dance-single:
     :
     Easy:
     2:
     0.155,0.171,0.084,0.073,0.000:
2000
0000
0000
0000
,
3002
0000
0000
0000
,
1003
0000
0100
0000
,
0000
0000
0000
0000
,
1000
0000
0001
0000
,
0100
0000
0000
0000
,
1001
0000
0001
0000
,
1000
0000
0100
0000
,
0010
0000
0001
0000
,
1000
0000
0001
0000
,
1001
0000
0010
0000
,
0100
0000
1000
0000
,
0001
0000
1000
0000
,
0001
0000
1000
0000
,
1001
0000
0000
0000
,
0010
0100
0010
0000
,
1000
0000
0000
0000
,
0010
0100
0010
0000
,
1001
0000
0000
0000
,
0100
0010
0100
0000
,
0001
0000
0100
0000
,
0001
0000
1000
0000
,
0100
0000
1000
0000
,
0010
0000
0100
0000
,
0020
0000
0000
0000
,
0030
0000
0100
0010
,
0100
0000
0001
0000
,
1000
0000
1000
0000
,
1001
0000
0000
0000
,
0001
0000
0000
0000
,
1000
0000
0000
0000
,
0001
0000
0000
0000
,
0200
0000
0310
0000
,
0000
0000
0000
0000
,
2000
0000
0001
0000
,
3001
0000
0000
0000
,
1001
0000
0000
0000
,
0000
0000
0000
0000
,
1000
0000
0000
0000
,
1000
0000
1000
0000
,
1001
0000
0001
0000
,
1000
0000
0001
0000
,
0000
0000
0100
0000
,
0010
0000
0100
0000
,
0001
0000
1000
0000
,
0100
0000
1000
0000
,
0100
0000
0010
0000
,
0001
0000
0010
0000
,
0001
1000
0002
0000
,
0000
0000
2003
0000
,
0000
0000
3010
0000
,
0100
0000
0010
0000
,
0000
0000
1000
0000
,
0001
0000
1000
0000
,
0000
0000
1001
0000
;

//---------------dance-single - ----------------
#NOTES:
     dance-single:
     :
     Beginner:
     1:
     0.079,0.143,0.115,0.000,0.000:
1000
0000
0000
0000
,
1000
0000
0000
0000
,
1001
0000
0000
0000
,
0000
0000
0000
0000
,
0001
0000
0000
0000
,
0000
0000
0000
0000
,
1000
0000
0000
0000
,
0000
0000
0000
0000
,
0000
0000
0000
0000
,
0010
0000
0000
0000
,
0100
0000
0000
0000
,
0010
0000
0000
0000
,
0100
0000
0000
0000
,
0100
0000
0000
0000
,
1001
0000
0000
0000
,
0000
0000
0000
0000
,
0001
0000
0000
0000
,
1000
0000
0000
0000
,
1001
0000
0000
0000
,
0000
0000
0000
0000
,
0010
0000
0000
0000
,
0010
0000
0000
0000
,
0100
0000
0000
0000
,
0100
0000
0000
0000
,
0010
0000
0000
0000
,
0000
0000
0000
0000
,
1001
0000
0000
0000
,
1000
0000
0000
0000
,
1001
0000
0000
0000
,
0000
0000
0000
0000
,
0001
0000
0000
0000
,
0000
0000
0000
0000
,
1000
0000
0000
0000
,
0000
0000
0000
0000
,
0010
0000
0000
0000
,
0000
0000
0000
0000
,
0110
0000
0000
0000
,
0000
0000
0000
0000
,
1000
0000
0000
0000
,
1000
0000
0000
0000
,
1001
0000
0000
0000
,
0000
0000
0000
0000
,
0000
0000
1001
0000
,
0000
0000
0000
1000
,
0000
0000
0001
0000
,
0000
0000
0000
0100
,
0000
0000
0001
0000
,
0000
0000
0000
0000
,
1000
0000
1001
0000
,
0000
0000
1000
0000
,
0000
0000
1001
0000
,
0000
0000
0000
0001
,
0000
0000
1000
0000
,
0000
0000
0000
0100
,
0000
0000
1001
0000
;
