#TITLE:Call Me;
#SUBTITLE:;
#ARTIST:EBISU;
#TITLETRANSLIT:;
#SUBTITLETRANSLIT:;
#ARTISTTRANSLIT:;
#CREDIT:DigiMindAxel;
#BANNER:Call Me.png;
#BACKGROUND:Call Me-bg.png;
#LYRICSPATH:;
#CDTITLE:DMAxel original simfile.png;
#MUSIC:Call Me.mp3;
#OFFSET:-9.260;
#SAMPLESTART:35.014;
#SAMPLELENGTH:12.000;
#SELECTABLE:YES;
#BPMS:0.000=130.000;
#STOPS:;
#BGCHANGES:;

//---------------dance-single - ----------------
#NOTES:
     dance-single:
     :
     Easy:
     3:
     0.211,0.239,0.177,0.118,0.000:
1000
0000
0002
0000
,
1003
0000
0010
0000
,
0100
0000
0002
0000
,
1003
0000
1000
0000
,
0001
0000
0020
0000
,
0130
0000
0100
0000
,
1000
0000
0002
0000
,
1003
0000
1000
0000
,
0010
0000
0200
0000
,
0310
0000
1000
0000
,
0001
0000
2000
0000
,
3010
0000
0100
0000
,
0020
0000
0230
0000
,
0320
0000
0230
0000
,
0301
0000
1001
0000
,
1000
0000
1001
0000
,
0001
0000
0011
0000
,
1000
0000
1100
0000
,
0001
0000
0101
0000
,
1000
0000
1010
0000
,
0001
0000
1001
0000
,
1000
0000
1001
0000
,
0220
0000
0000
0330
,
1000
0000
0001
0000
,
1000
0000
0001
0000
,
0100
0010
0100
0010
,
1000
0001
1000
0001
,
1000
1000
1000
1000
,
0001
0001
0001
0001
,
1001
0000
1000
0010
,
1000
0000
0001
0100
,
0001
0000
0010
0001
,
0010
0000
0100
1000
,
0100
0000
1000
0001
,
0010
0000
0001
1000
,
0100
0000
1000
0010
,
0100
0000
0001
0000
,
1001
0000
0001
0100
,
0010
0000
0100
0010
,
1000
0000
0100
0010
,
0001
0000
0010
0100
,
1000
0000
0010
0100
,
0010
0000
1000
0010
,
0100
0000
0001
0010
,
0100
0000
1000
0001
,
1000
0000
1100
0000
,
1100
0000
1001
0000
,
0011
0000
0011
0000
,
1001
0000
1001
0000
;

//---------------dance-single - ----------------
#NOTES:
     dance-single:
     :
     Medium:
     5:
     0.322,0.337,0.236,0.020,0.000:
1000
0010
0100
0100
,
0001
0100
0010
0100
,
0001
0100
0010
0010
,
1000
0010
0100
0010
,
1000
0001
0100
0100
,
0001
0010
0100
0010
,
0001
1000
0010
0010
,
1000
0100
0010
0100
,
1000
0001
0100
0100
,
0010
1000
0001
1000
,
0010
0100
0001
0001
,
1000
0001
1000
0001
,
0110
0000
1010
0000
,
0110
0000
0101
0000
,
1001
1000
0010
0010
,
1000
1000
1001
0001
,
0001
0100
0100
0001
,
1001
1000
0100
0100
,
1000
1000
1001
0001
,
0001
0010
0010
0011
,
1001
1000
0010
1010
,
1001
0001
0100
0101
,
0220
0000
0000
0330
,
0001
0001
1000
1000
,
0001
0001
1000
1000
,
0100
0010
0100
0010
,
0001
1000
0001
1000
,
0010
0100
0010
0000
0100
0010
0100
0000
,
0001
1000
0001
0000
1000
0001
1000
0000
,
1001
0001
0010
0001
,
1000
0100
1000
0001
,
0010
0001
0100
0010
,
0100
0100
0001
0001
,
1000
0100
1000
0001
,
0100
0001
1000
1000
,
0010
0100
0010
1000
,
0010
0000
0100
0000
0001
0000
1000
1000
,
1000
1010
1000
0001
,
0010
0000
0001
0000
0100
0010
0100
0000
,
0101
0001
1000
0100
,
1000
0000
0001
0000
0100
0010
0100
0000
,
0001
0000
1000
0000
0010
0100
0010
0100
,
0010
0000
1000
0000
0001
1000
0001
1000
,
0001
0100
0001
0000
1000
0100
1000
0000
,
0001
0100
0001
0000
1000
0100
1000
0000
,
1010
1000
1010
0000
,
0101
0001
0101
0000
,
1100
1000
1100
0000
,
0011
0000
0001
0000
0001
1000
0001
0100
;

//---------------dance-single - ----------------
#NOTES:
     dance-single:
     :
     Beginner:
     1:
     0.066,0.094,0.010,0.000,0.000:
1000
0000
0000
0000
,
1000
0000
0000
0000
,
1000
0000
0000
0000
,
1000
0000
0000
0000
,
0001
0000
0000
0000
,
0001
0000
0000
0000
,
0001
0000
0000
0000
,
0001
0000
0000
0000
,
0100
0000
0000
0000
,
0010
0000
0000
0000
,
0100
0000
0000
0000
,
0010
0000
0000
0000
,
0100
0000
0000
0000
,
0000
0000
0000
0000
,
0001
0000
0000
0000
,
1000
0000
0000
0000
,
0001
0000
0000
0000
,
1000
0000
0000
0000
,
0001
0000
0000
0000
,
0001
0000
0000
0000
,
0100
0000
0000
0000
,
0010
0000
0000
0000
,
0100
0000
0000
0000
,
0001
0000
0000
0000
,
0000
0000
0000
0000
,
1000
0000
0000
0000
,
0000
0000
0000
0000
,
0001
0000
0000
0000
,
0001
0000
0000
0000
,
1001
0000
0000
0000
,
1000
0000
0000
0000
,
0100
0000
0000
0000
,
1000
0000
0000
0000
,
0001
0000
0000
0000
,
0010
0000
0000
0000
,
0001
0000
0000
0000
,
1000
0000
0000
0000
,
0001
0000
0000
0000
,
1000
0000
0000
0000
,
0001
0000
0000
0000
,
0001
0000
0000
0000
,
1000
0000
0000
0000
,
1000
0000
0000
0000
,
0010
0000
0000
0000
,
0100
0000
0000
0000
,
0010
0000
0000
0000
,
0010
0000
0000
0000
,
0010
0000
0000
0000
,
0100
0000
0000
0000
;

//---------------dance-single - ----------------
#NOTES:
     dance-single:
     :
     Hard:
     7:
     0.434,0.385,0.187,0.020,0.167: // measure 1
0101
0000
0100
0000
0100
0010
0100
0000
,  // measure 2
1010
0000
0010
0000
0010
0100
0010
0000
,  // measure 3
1100
0000
0100
0000
0100
1000
0100
0000
,  // measure 4
0011
0000
0010
0000
0010
0001
0010
0000
,  // measure 5
0101
0000
0100
0010
0100
0010
1000
0000
,  // measure 6
1010
0000
0010
0100
0010
0100
0001
0000
,  // measure 7
0011
0000
0010
0001
0010
0001
1000
0000
,  // measure 8
1100
0000
0100
1000
0100
1000
0001
0000
,  // measure 9
0101
0000
0110
0000
0100
0010
1000
0000
,  // measure 10
1010
0000
0110
0000
0010
0100
0001
0000
,  // measure 11
1001
0000
0011
0000
0010
0001
1000
0000
,  // measure 12
1001
0000
1100
0000
0100
1000
0001
0000
,  // measure 13
1000
0000
0000
0010
0000
0010
0000
0000
1000
0000
0000
0010
0000
0010
0000
0000
,  // measure 14
0100
0000
0000
0001
0000
0001
0000
0000
0100
0000
0000
0001
0000
0001
0000
0000
,  // measure 15
1000
0000
0100
0000
1000
0000
0001
0000
0010
0000
0000
0001
0000
0001
0000
0000
,  // measure 16
1000
0000
0100
0000
1000
0000
0001
0000
0010
0000
0000
0001
0000
1000
0000
0000
,  // measure 17
0001
0000
0010
0000
0001
0000
1000
0000
0100
0000
0000
1000
0000
1000
0000
0000
,  // measure 18
0001
0010
0001
1000
0100
0001
0100
0000
,  // measure 19
1100
0000
0000
1000
0000
0001
0000
0000
0010
0000
0100
0000
1000
0000
0001
0000
,  // measure 20
0100
0100
0001
0000
0010
0100
1000
0010
,  // measure 21
0100
0000
0000
0010
0000
1000
0000
0000
0100
0000
0010
0000
0001
0000
0100
0000
,  // measure 22
0010
0000
0000
0100
0000
0001
0000
0000
0010
0000
0100
0000
0010
0000
0001
0000
,  // measure 23
2200
0000
0000
3300
,  // measure 24
1000
0100
0001
0100
,  // measure 25
1000
0010
0001
0010
,  // measure 26
1000
0010
0100
0010
,  // measure 27
1000
0001
0010
0100
,  // measure 28
1000
0100
1000
0100
1000
0001
0100
0000
,  // measure 29
0001
0100
0001
0100
0001
1000
0100
0000
,  // measure 30
1001
0000
0000
1000
0000
0000
0010
0000
0100
0000
0000
0001
0000
0000
1000
0000
,  // measure 31
0010
0000
0100
0000
0010
0000
0000
0000
1000
0000
0000
0001
0000
0010
0000
0000
,  // measure 32
0001
0000
0000
0001
0000
0000
1000
0000
0010
0000
0100
0000
0010
0000
0000
0000
,  // measure 33
1000
0000
0000
0001
0000
0010
0000
0000
0001
0000
0010
0000
0100
0000
0000
0000
,  // measure 34
1000
0000
0000
1000
0000
0000
0001
0000
0100
0000
0010
0000
0100
0000
0000
0000
,  // measure 35
0001
0000
0000
1000
0000
0100
0000
0000
1000
0000
0100
0000
0010
0000
0000
0000
,  // measure 36
0001
0000
0000
0001
0000
0000
1000
0000
0100
0000
0010
0000
0100
0000
0000
0000
,  // measure 37
1000
0000
0000
0001
0000
0100
0000
0000
0010
0000
0100
0000
0001
0000
0001
0000
,  // measure 38
0100
0001
0100
0000
0100
0001
1000
0000
,  // measure 39
0010
1000
0010
0000
0010
1000
0001
0000
,  // measure 40
0010
0001
0010
0000
0010
0001
1000
0000
,  // measure 41
0100
1000
0100
0000
0100
1000
0001
0000
,  // measure 42
0010
0100
1000
0100
0010
0001
1000
0000
,  // measure 43
0100
0010
0001
0010
0100
1000
0001
0000
,  // measure 44
1000
0010
0100
0000
0001
0100
0010
0000
,  // measure 45
1000
0100
0010
0001
0010
0100
1000
0000
,  // measure 46
0010
0100
0010
0000
0010
1000
0010
0000
,  // measure 47
0100
0010
0100
0000
0100
0001
0100
0000
,  // measure 48
0100
0001
0010
0000
0001
1000
0100
0000
,  // measure 49
1000
0000
0010
0000
1000
0000
0001
0000
0100
0000
0000
0010
0000
0000
0100
0000
;

//---------------dance-single - ----------------
#NOTES:
     dance-single:
     :
     Challenge:
     8:
     0.551,0.529,0.207,0.187,0.497: // measure 1
1000
0000
0000
1000
0000
0000
1000
0000
0002
0000
0010
0000
0013
0000
0000
0000
,  // measure 2
0200
0000
0010
0000
0310
0000
0000
0000
0001
0000
0000
0010
0000
0010
0000
0000
,  // measure 3
0001
0000
0000
0001
0000
0000
0001
0000
2000
0000
0100
0000
3100
0000
0000
0000
,  // measure 4
0020
0100
0130
1000
0001
0001
0010
0000
,  // measure 5
0001
0000
0000
0100
0000
0000
0001
0000
2000
0000
0100
0000
3100
0000
0000
0000
,  // measure 6
0010
0001
0100
0010
0100
0001
0010
0100
,  // measure 7
1000
0000
0000
0010
0000
0000
1000
0000
0002
0000
0010
0000
0013
0000
0000
0000
,  // measure 8
0100
1000
0010
0100
0010
1000
0100
0010
,  // measure 9
0001
0000
0000
0100
0000
0000
0010
0000
1000
0000
0100
0000
0001
0000
0100
0000
,  // measure 10
1000
0000
0000
0010
0000
0000
0100
0000
0001
0000
0010
0000
1000
0000
0010
0000
,  // measure 11
0001
0000
0000
0010
0000
0000
0100
0000
0001
0000
0100
0000
1000
0000
0001
0000
,  // measure 12
1000
0000
0000
0100
0000
0000
0010
0000
1000
0000
0010
0000
0001
0000
1000
0000
,  // measure 13
0002
0000
0000
0100
0000
0103
0000
0000
0020
0000
0000
1000
0000
1030
0000
0000
,  // measure 14
2000
0000
0000
0100
0000
3100
0000
0000
0020
0000
0000
0001
0000
0031
0000
0000
,  // measure 15
1000
0000
0010
0100
0000
0100
0000
0000
0001
0000
0000
0100
0000
0001
0000
0000
,  // measure 16
1000
0000
1000
0000
0010
0000
0100
0000
0010
0000
1000
0001
0000
0001
0000
0000
,  // measure 17
0001
0000
0100
0010
0000
0010
0000
0000
1000
0000
0000
0010
0000
1000
0000
0000
,  // measure 18
0001
0000
0001
0000
0100
0000
0010
0000
0100
0000
0001
1000
0000
1000
0000
0000
,  // measure 19
0011
0000
0000
0001
0000
1000
0000
0000
0100
0000
0010
0001
0010
0000
1000
0001
,  // measure 20
1000
0000
0000
0001
0000
0100
0000
0000
0001
0000
0100
1000
0100
0000
0001
1000
,  // measure 21
0001
0000
0000
1000
0000
0010
0000
0000
1000
0000
0010
0001
0010
0000
1000
0001
,  // measure 22
1000
0000
0000
0001
0000
0100
0000
0000
0001
0000
0100
1000
0100
0000
0001
1000
,  // measure 23
0002
0000
2000
3003
,  // measure 24
0100
0001
0100
0000
0100
0010
0100
0000
,  // measure 25
0010
1000
0010
0000
0010
0100
0010
0000
,  // measure 26
0011
0011
1010
1010
,  // measure 27
0101
0101
1100
1100
,  // measure 28
1000
0010
1000
0010
0100
0001
0010
0100
,  // measure 29
1000
0100
1000
0000
0001
0100
0001
0000
0100
0010
0100
0010
0100
0000
0000
0000
,  // measure 30
1001
0000
0000
0001
0000
0000
0100
0000
0001
0000
0010
0100
0000
0000
1000
0000
,  // measure 31
0010
0000
0010
0100
0000
0001
0000
0000
1000
0000
0010
0100
0000
0100
0000
0000
,  // measure 32
0001
0000
0000
1000
0000
0000
0010
0000
1000
0000
0100
0010
0000
0000
0001
0000
,  // measure 33
0100
0000
0001
1000
0000
0100
0000
0000
1000
0000
0001
0100
0000
0100
0000
0000
,  // measure 34
1001
0000
0000
1000
0000
0000
0001
0000
1000
0000
0100
0010
0000
0000
0001
0000
,  // measure 35
0100
0000
0100
0010
0000
1000
0000
0000
0001
0000
0100
0010
0000
0010
0000
0000
,  // measure 36
1001
0000
0000
1000
0000
0000
0001
0000
0010
0000
0100
1000
0000
0000
0010
0000
,  // measure 37
2000
0000
0000
0010
0000
3010
0000
0000
0100
0000
0001
1000
0000
1000
0000
0000
,  // measure 38
1000
0000
0010
0000
1000
0000
0100
0000
0010
0000
0001
0100
0000
0001
0000
0000
,  // measure 39
0001
0000
0100
0000
0001
0000
0010
0000
0100
0000
1000
0010
0000
1000
0000
0000
,  // measure 40
0001
0000
0010
0000
0001
0000
0100
0000
0010
0000
1000
0100
0000
1000
0000
0000
,  // measure 41
1000
0000
0100
0000
1000
0000
0010
0000
0100
0000
0001
0010
0000
0001
0000
0000
,  // measure 42
0010
0000
0100
0000
1000
0000
0100
0000
0010
0000
0001
1000
0001
0000
1000
0000
,  // measure 43
0100
0000
0010
0000
0001
0000
0010
0000
0100
0000
1000
0001
1000
0000
0001
0000
,  // measure 44
1000
0100
1000
0000
0010
0000
0100
0000
0001
0010
0001
0000
0100
0000
0010
0000
,  // measure 45
1000
0100
0001
0100
1000
0010
0100
0001
,  // measure 46
1002
0000
0000
0100
0000
0103
0000
0000
2001
0000
0000
0010
0000
3010
0000
0000
,  // measure 47
1002
0000
0000
0010
0000
0013
0000
0000
2001
0000
0000
0100
0000
3100
0000
0000
,  // measure 48
2100
0000
0000
0001
0000
3001
0000
0000
0012
0000
0000
1000
0000
1003
0000
0000
,  // measure 49
1001
0000
0000
1000
0000
0001
0100
0000
0010
0000
0000
1010
0000
0000
1001
0000
;
