#TITLE:BEMANI SENTAI POP'N FIVE;
#ARTIST:UTA:SHINICHI ISHIHARA SAKUSHI:RYO;
#FILE:BEMANI SENTAI POP'N FIVE.mp3;
#BPM:172.000;
#GAP:5360;
#SAMPLESTART:8.104;
#SAMPLELENGTH:12.000;
#CDTITLE:pop'n music.png;
#SINGLE:BASIC:4:
4!40000000
B!60006000
B0000040
20806040
B0000060
80204060
B0000020
80402080
B000A000
B0606060
4!40000000
B!60000000
B0002000
80006000
40006000
80002000
40006000
40008000
20000000
A0000000
B0008000
20004000
80002000
80002000
60004000
60004000
B000A000
B0606004!4
0000060B!6
0000040B!4
0000060B
0B040B00
2!2000080A!8
0000020A!2
0000080A
0A040B00
6!6000040B!4
0000060B!6
0000040B
0B060B00
8!8000020A!2
0000080A!8
0000A000
B0406040
8!80000000
00000080
B0000040
20806040
B0000060
80204060
B0000020
80402080
B000A000
B0604060
B0000060
80204060
B0000040
20806040
B0000060
80204080
A000B000
A0A0A0A0
000000B0
;
#SINGLE:ANOTHER:6:
6!60003!2000
A!80007000
B0B00060
68604240
B0B00040
42406860
B0B00060
62604840
B0001000
30303030
B!60000000
B!400060B0
B0802000
40604060
40208060
40208060
2!2000A!8000
A!20003!6000
B0208060
A00A0000
B0208000
60406040
60802040
60802040
8!8000A!2000
A!80007000
B000A000
B0B04602!2
00600304!4
00800702!2
00800A0A
01090B00
8!80400706!6
00200308!8
00200A0A
09010B00
2!20600304!4
00800702!2
00800A0A
07030B00
2!20400106!6
00800900
B000A000
70707070
B!60000000
B!400060B0
B0B00060
68604840
B0B00040
42406260
B0B00040
48406860
30001000
A0A0A0A0
B0B04060
48406860
B0B06040
68604840
B0B04060
28206460
30201020
B0A0B0A0
6!600004B0
;
#SINGLE:MANIAC:8:
42402820
86802460
B0B04082
68204280
B0B06028
42806820
B0B04082
68204280
30001000
B0A0B0A0
42402820
86802460
B0848206
28206468
24802680
646!603!20A!80
7!4060B!6020
3!2080A!8040
76028042
88064000
B0862804
82804642
86208420
4642!20A!809
4!40807!8020
A!20603000
10003000
B0A0640B
0424210B
0626230B
04848703
0A0A0B00
B062630B
0484870B
06868901
0A0A0B00
B042410B
0686890B
04848703
0A0A0B00
B062630A
04848700
A000B000
A0A0B0B0
68608280
24208640
B0B06042
82468280
B0B04068
28642820
B0B06028
26864286
B040B060
30703070
A0A04082
84246820
A0A06028
26864280
A0A04082
84282460
30201020
B0A0B0A0
428246B0
;
#SINGLE:SMANIAC:9:
42802860
(2080200064646000)
3!604B0828
42624280
7!406B0282
62426820
3!604B0846
86428642
10203020
10301030
84204204
(6000208046464000)
62826402
82428624
26282620
84828426
24802680
24802680
(604!40008070002620)
(8020008020848000)
48284608
28682426
24828480
(2060802000100064)
62802840
24802680
(B0242000B0242000)
(B0868068604000B0)
0682470A
0428630A
0682470A
09090700
B824690A
0482690B
0628410B
03030B00
B286410B
0682470B
0428630B
01010B00
B824630A
(0040208060B00024)
(2000008680000064)
(6046402420868680)
64804804
(6000208046464000)
B!60230842
62468246
B!40870268
48642864
B!60890246
(2040206040208062)
(6000B0484000B000)
90109010
A!20630842
84868248
A!80470268
(2060204020806028)
2!20630848
(6080206080204082)
(8000B0262000B084)
(8028206860424240)
(6040686!6000B64000)
;
#SINGLE:BEGINNER:2:
00000000
00000000
B0000000
60004000
60000000
40006000
40000000
80002000
80008000
80000000
40000000
00000000
40000000
60000000
40000000
00000000
60000000
40000000
60000000
00000000
20000000
80000000
20000000
00000000
60000000
40000000
B0000000
B0000002
00000000
20000000
20000000
00000000
80000000
80000000
80000000
80000000
40000000
40000000
40000000
40000000
60000000
60000000
60000000
60000000
40000000
00000000
B0000000
40000000
60000000
40000000
60000000
40000000
80000000
20000000
B0000000
00000000
60000000
00000000
B0000000
00000000
40006000
40000000
400000B0
;
