#TITLE:☆shining☆;
#SUBTITLE:(GF&dm style);
#ARTIST:りゆ&のりあ;
#TITLETRANSLIT:shining;
#SUBTITLETRANSLIT:;
#ARTISTTRANSLIT:RIYU&NORIA;
#CREDIT:DMAxel;
#BANNER:shining (GF&dm style).png;
#BACKGROUND:shining (GF&dm style)-bg.png;
#LYRICSPATH:shining (GF&dm style).lrc;
#CDTITLE:GUITAR FREAKS & drummania.png;
#MUSIC:shining (GF&dm style).mp3;
#OFFSET:-11.270;
#SAMPLESTART:52.134;
#SAMPLELENGTH:11.000;
#SELECTABLE:YES;
#BPMS:0.000=185.000;
#STOPS:;
#BGCHANGES:-36.000=shining (GF&dm style).avi=1.000=1=1=0,
99999=-nosongbg-=1.000=0=0=0 // don't automatically add -songbackground-
;

//---------------dance-single - ----------------
#NOTES:
     dance-single:
     :
     Easy:
     4:
     0.323,0.469,0.196,0.121,0.000: // measure 1
1000
0001
1000
0001
,  // measure 2
1000
0000
1000
0000
,  // measure 3
0001
1000
0001
1000
,  // measure 4
0001
0000
0001
0000
,  // measure 5
0100
0010
0100
0010
,  // measure 6
0100
0000
0100
0000
,  // measure 7
0110
0000
1000
0000
,  // measure 8
0010
0010
0010
0010
,  // measure 9
0110
0001
0000
1000
,  // measure 10
0000
0010
0000
1000
,  // measure 11
0000
0001
0000
0100
,  // measure 12
0000
0001
1000
0100
,  // measure 13
0020
0000
0000
0130
0000
0000
0000
0000
,  // measure 14
0002
0000
0000
1003
0000
0000
0000
0000
,  // measure 15
0001
1000
0001
0000
,  // measure 16
0100
0001
0010
0100
,  // measure 17
1000
0100
0000
1000
,  // measure 18
0001
1000
0000
0000
,  // measure 19
0001
0100
0001
0000
,  // measure 20
1000
0001
0010
0100
,  // measure 21
2000
0000
0000
3001
0000
0000
0000
0000
,  // measure 22
0200
0000
0000
0310
0000
0000
0000
0000
,  // measure 23
0001
1001
0000
1001
,  // measure 24
0000
1001
0000
0000
,  // measure 25
0200
0000
0000
0000
,  // measure 26
0320
0000
0000
0000
,  // measure 27
0230
0000
0000
0000
,  // measure 28
0320
0000
0000
0000
,  // measure 29
1030
0000
0001
0000
,  // measure 30
1000
0000
0001
0000
,  // measure 31
0010
0000
0100
0000
,  // measure 32
1001
0000
0000
0000
,  // measure 33
1000
0001
1000
0001
,  // measure 34
1000
0000
0010
0000
,  // measure 35
0100
0001
0100
0001
,  // measure 36
1000
0000
0010
0000
,  // measure 37
0100
0001
0100
0001
,  // measure 38
0010
0000
0100
0000
,  // measure 39
1000
0001
1000
0001
,  // measure 40
1000
0000
1000
0000
,  // measure 41
1001
0000
0001
0000
,  // measure 42
0001
1000
0010
1000
,  // measure 43
0010
0000
1001
0000
,  // measure 44
1000
0001
0010
0001
,  // measure 45
0010
0000
1001
0000
,  // measure 46
0110
0000
1000
0001
,  // measure 47
1001
0100
1000
0100
,  // measure 48
0001
0100
1000
0001
,  // measure 49
2000
0000
3001
0000
,  // measure 50
0002
0000
1003
0000
,  // measure 51
0020
0000
0130
0000
,  // measure 52
0000
0100
0010
0100
,  // measure 53
0001
0010
0100
1000
,  // measure 54
0100
0010
0001
0010
,  // measure 55
0100
1000
0100
0010
,  // measure 56
0001
1000
0010
0000
,  // measure 57
0110
0110
0001
1000
,  // measure 58
0110
0110
0001
1000
,  // measure 59
0110
0001
0100
0010
,  // measure 60
1000
0001
0010
0100
,  // measure 61
1000
0100
0001
0100
,  // measure 62
0110
0110
1000
0001
,  // measure 63
0110
1000
0001
0100
,  // measure 64
0010
0000
0000
1000
0000
0000
0001
0000
,  // measure 65
1000
0100
0010
0001
,  // measure 66
0100
0002
0000
1003
,  // measure 67
0001
0010
0100
1000
,  // measure 68
0010
2000
0000
3001
,  // measure 69
1000
0100
0010
0001
,  // measure 70
0010
0100
1000
0001
,  // measure 71
0000
0010
0000
0000
0100
0000
0000
1000
,  // measure 72
0000
0100
1001
1001
;

//---------------dance-single - ----------------
#NOTES:
     dance-single:
     :
     Hard:
     8:
     0.646,0.570,0.280,0.168,0.009: // measure 1
0200
0000
0301
0100
0001
1000
0100
0020
,  // measure 2
0000
0100
0130
0000
0000
1000
0001
0200
,  // measure 3
0000
0000
0301
0100
0001
1000
0100
0020
,  // measure 4
0000
0100
0130
0000
0000
0001
1000
0020
,  // measure 5
0000
0000
1030
0010
1000
0001
0010
0200
,  // measure 6
0000
0010
0310
0000
0000
0001
1000
0020
,  // measure 7
0000
0000
1030
0100
0010
0000
0001
0010
,  // measure 8
0100
0110
0110
0110
,  // measure 9
1001
0000
1000
0010
1000
0010
1000
0001
,  // measure 10
1000
0001
0000
0001
0100
0000
0010
1000
,  // measure 11
0001
0000
0001
0010
0001
0010
0001
1000
,  // measure 12
0001
1000
0000
1000
0100
0000
0010
0001
,  // measure 13
0100
0000
0100
1001
0000
0000
0010
1000
,  // measure 14
0100
0000
0100
1001
0000
0000
0001
0000
,  // measure 15
0001
1000
0010
1000
0010
1000
0001
0100
,  // measure 16
0001
0100
0001
0010
0100
1000
0001
0000
,  // measure 17
1001
0000
0001
0100
0001
0100
0001
1000
,  // measure 18
0001
1000
0000
1000
0010
0000
0100
0001
,  // measure 19
1000
0000
1000
0100
1000
0100
1000
0001
,  // measure 20
1000
0001
0100
1000
0100
0001
0100
0010
,  // measure 21
0100
0000
0100
1001
0000
0000
0001
1000
,  // measure 22
0100
0000
0100
1001
0000
0000
1000
0000
,  // measure 23
0001
0100
1000
0000
0100
0010
1000
0000
,  // measure 24
0100
0010
0001
1000
0010
0100
0001
0000
,  // measure 25
0201
0001
0001
0301
,  // measure 26
1200
1000
1000
1300
,  // measure 27
0021
0001
0001
0031
,  // measure 28
1020
1000
1000
1030
,  // measure 29
0011
0000
1000
0010
1000
0000
0001
0100
,  // measure 30
0010
1000
0001
0000
0010
0100
1000
0000
,  // measure 31
1100
0000
0001
0100
0001
1000
0010
0100
,  // measure 32
0001
0000
0000
0000
0000
0000
0001
0000
0100
0000
0010
0000
,  // measure 33
1000
0010
1000
0010
1000
0001
0010
0100
,  // measure 34
1000
0100
0010
0000
0001
0010
1000
0000
,  // measure 35
0010
0001
1000
0100
1000
0100
1000
0001
,  // measure 36
0100
0110
0110
1001
,  // measure 37
0001
0010
0001
0010
0001
1000
0010
0100
,  // measure 38
0001
0010
0100
0000
1000
0100
0001
0000
,  // measure 39
0100
1000
0001
0100
0001
0100
0001
1000
,  // measure 40
0010
0110
0110
1001
,  // measure 41
1000
0100
0001
0100
1000
0001
0100
0001
,  // measure 42
0100
0010
1000
0000
0100
0010
0001
0000
,  // measure 43
0100
0001
0100
1000
0100
0010
0001
0000
,  // measure 44
0100
0001
1000
0000
1001
0000
1001
0000
,  // measure 45
0001
0010
1000
0010
0001
1000
0010
1000
,  // measure 46
0010
0100
0001
0000
0010
0100
1000
0000
,  // measure 47
0010
1000
0010
0001
0010
0100
1000
0001
,  // measure 48
0010
0100
0000
0100
0010
0001
1000
0010
,  // measure 49
2000
0000
3001
1000
,  // measure 50
0020
0000
1030
0001
,  // measure 51
0200
0000
0301
1000
,  // measure 52
0010
0100
0000
0100
0010
0000
0110
0000
,  // measure 53
1000
0100
0001
0100
1000
0010
0100
0010
,  // measure 54
1000
0001
0010
0100
0000
0100
0010
0000
,  // measure 55
0001
0100
1000
0100
0001
0100
0010
0100
,  // measure 56
0001
1000
0100
0010
0000
0010
0100
1000
,  // measure 57
0001
0000
0101
0000
0101
0000
0010
1000
,  // measure 58
0001
0010
0100
1000
0100
0001
0100
0000
,  // measure 59
1010
0000
1010
0000
0100
0001
1000
0100
,  // measure 60
0010
0001
0100
1000
0100
0010
0100
0000
,  // measure 61
1000
0010
1000
0001
0010
0100
0010
0000
,  // measure 62
0001
0100
0001
1000
0100
0010
0100
0000
,  // measure 63
1000
0100
0001
0100
0010
1000
0100
0010
,  // measure 64
0001
0000
0001
0100
0000
0100
1000
0000
,  // measure 65
0001
0010
0100
1000
0002
0000
0100
0103
,  // measure 66
0000
0100
0001
1000
0100
1000
0100
0010
,  // measure 67
0000
0100
0010
0001
2000
0000
0010
3010
,  // measure 68
0000
0010
1000
0001
0020
0000
0001
0031
,  // measure 69
1000
0100
0010
0001
2000
0000
0010
3010
,  // measure 70
0000
0010
1000
0001
0010
0001
0010
0100
,  // measure 71
0000
1000
0100
0001
0100
1000
0001
0010
,  // measure 72
1000
0010
0001
0000
0110
0000
1001
0000
;

//---------------dance-single - ----------------
#NOTES:
     dance-single:
     :
     Medium:
     7:
     0.553,0.503,0.393,0.140,0.009: // measure 1
0101
0000
0100
1000
0100
0000
1000
0001
,  // measure 2
0000
0001
1000
0000
0010
0100
0000
0001
,  // measure 3
0000
0000
0100
0001
0100
0000
0001
1000
,  // measure 4
0000
1000
0001
0000
0100
0010
0000
1000
,  // measure 5
0000
0000
0100
1000
0100
0000
1000
0001
,  // measure 6
0000
0001
1000
0000
0010
0100
0000
0001
,  // measure 7
1000
0000
1000
0001
0100
0000
0001
0100
,  // measure 8
0001
0100
1000
0100
0001
0000
1001
0000
,  // measure 9
0011
0100
1000
0010
,  // measure 10
0100
0001
0000
1000
0100
0000
1000
0001
,  // measure 11
1000
0100
0010
0001
,  // measure 12
0100
0001
0000
1000
0100
0000
1000
0001
,  // measure 13
1000
0000
0000
1001
0000
0000
0001
1000
,  // measure 14
0001
0000
0000
1001
0000
0000
0000
1000
,  // measure 15
0001
0100
0010
1000
,  // measure 16
0001
0100
0001
0100
1000
0100
0001
0000
,  // measure 17
1100
0000
0010
0001
0000
0010
0001
0000
,  // measure 18
1000
0000
0010
1000
0010
1000
0100
0000
,  // measure 19
0011
0000
0100
0000
1000
0000
0010
0100
,  // measure 20
0010
0000
0100
0001
1000
0000
0001
1000
,  // measure 21
0001
0000
0000
1001
0000
0000
1000
0001
,  // measure 22
1000
0000
0000
1001
0000
0000
0000
0000
,  // measure 23
0100
1000
0001
0000
0100
0001
0100
0000
,  // measure 24
0001
1000
0001
1000
0001
1000
0001
0000
,  // measure 25
0201
0001
0001
0301
,  // measure 26
1020
1000
1000
1030
,  // measure 27
1002
1000
1000
1003
,  // measure 28
2001
0001
0001
3001
,  // measure 29
0101
0000
1000
0000
1100
0000
0010
0001
,  // measure 30
1000
1001
0001
0110
,  // measure 31
1000
0000
0110
0000
0001
1000
0100
0000
,  // measure 32
0110
0000
0000
0000
0000
0000
1000
0000
0001
0000
1000
0000
,  // measure 33
0001
0010
0001
0000
1000
0010
1000
0000
,  // measure 34
0010
1000
0001
0010
0001
0010
0001
0000
,  // measure 35
1001
0000
0100
0000
0100
1000
0001
0000
,  // measure 36
0100
0001
0100
0001
0100
0000
1100
0000
,  // measure 37
1002
0100
0100
0103
,  // measure 38
2001
0100
0100
3100
,  // measure 39
1001
0000
1000
0000
0001
0010
0001
0000
,  // measure 40
1000
0010
1000
0001
0010
0000
0010
0000
,  // measure 41
0101
0000
0010
0000
1000
0000
0010
1000
,  // measure 42
0001
0010
0001
0000
0010
0001
1000
0000
,  // measure 43
0020
1000
1000
1030
,  // measure 44
0100
0001
1000
0000
1001
0000
0010
0000
,  // measure 45
0102
0100
0100
0103
,  // measure 46
1020
1000
1000
1030
,  // measure 47
1002
1000
1000
1003
,  // measure 48
1000
0001
0000
0001
1000
0000
0001
0000
,  // measure 49
0200
0000
0001
0301
,  // measure 50
2000
0000
0100
3100
,  // measure 51
0020
0000
0100
0130
,  // measure 52
0001
1000
0001
1001
,  // measure 53
1000
0001
0100
0000
0001
0100
0001
0100
,  // measure 54
0001
0000
0100
0001
0000
0001
1000
0000
,  // measure 55
1000
0000
0010
1000
0000
1000
0001
0000
,  // measure 56
0100
0001
1000
0000
2000
0000
0000
0000
,  // measure 57
3001
1001
1000
1100
,  // measure 58
0001
0101
1000
1100
,  // measure 59
0010
0001
0100
0000
0001
0100
0001
0000
,  // measure 60
1000
0100
1000
0100
0001
0100
1000
0000
,  // measure 61
0001
0101
1000
1100
,  // measure 62
0010
0001
0100
0000
0010
1000
0100
0000
,  // measure 63
1000
0001
1000
0001
0010
0000
0001
0000
,  // measure 64
0101
0000
0000
0101
0000
0000
1001
0000
,  // measure 65
0010
0001
0010
0001
1000
0000
1000
0100
,  // measure 66
0000
0100
0001
0100
0001
1000
0100
1000
,  // measure 67
0000
0100
1000
0001
0100
0000
0100
1000
,  // measure 68
0000
0001
0010
0100
2000
0000
0000
0000
,  // measure 69
3010
1000
0010
1000
0001
0000
0001
0100
,  // measure 70
0000
0100
1000
0100
1000
0001
0100
0001
,  // measure 71
0000
1001
0000
1000
0100
0000
0100
0001
,  // measure 72
0000
0001
1000
0000
0110
0000
0110
0000
;

//---------------dance-single - ----------------
#NOTES:
     dance-single:
     :
     Beginner:
     2:
     0.097,0.168,0.121,0.000,0.000: // measure 1
1000
0000
0000
0000
,  // measure 2
0001
0000
0000
0000
,  // measure 3
1000
0000
0000
0000
,  // measure 4
0001
0000
0000
0000
,  // measure 5
1000
0000
0000
0000
,  // measure 6
1000
0000
0000
0000
,  // measure 7
1001
0000
0000
0000
,  // measure 8
0001
0000
0000
0000
,  // measure 9
1001
0000
0000
0000
,  // measure 10
0010
0000
0000
0000
,  // measure 11
0100
0000
0000
0000
,  // measure 12
0000
0000
0000
0000
,  // measure 13
0110
0000
0000
0000
,  // measure 14
0110
0000
0000
0000
,  // measure 15
1000
0000
0000
0000
,  // measure 16
0001
0000
0000
0000
,  // measure 17
1000
0000
0000
0000
,  // measure 18
0000
0000
0000
0000
,  // measure 19
0001
0000
0000
0000
,  // measure 20
0000
0000
0000
0000
,  // measure 21
1001
0000
0000
0000
,  // measure 22
1001
0000
0000
0000
,  // measure 23
0001
0000
0000
0000
,  // measure 24
1000
0000
0000
0000
,  // measure 25
0001
0000
0000
0000
,  // measure 26
0010
0000
0000
0000
,  // measure 27
0100
0000
0000
0000
,  // measure 28
1000
0000
0000
0000
,  // measure 29
0100
0000
0000
0000
,  // measure 30
0010
0000
0000
0000
,  // measure 31
0001
0000
0000
0000
,  // measure 32
1001
0000
0000
0000
,  // measure 33
1000
0000
0000
0000
,  // measure 34
0010
0000
0000
0000
,  // measure 35
1000
0000
0000
0000
,  // measure 36
0000
0000
0000
0000
,  // measure 37
0001
0000
0000
0000
,  // measure 38
0100
0000
0000
0000
,  // measure 39
0001
0000
0000
0000
,  // measure 40
0000
0000
0000
0000
,  // measure 41
1000
0000
0000
0000
,  // measure 42
0100
0000
0000
0000
,  // measure 43
1000
0000
0000
0000
,  // measure 44
0000
0000
0000
0000
,  // measure 45
0001
0000
0000
0000
,  // measure 46
0010
0000
0000
0000
,  // measure 47
0001
0000
0000
0000
,  // measure 48
0000
0000
0000
0000
,  // measure 49
1000
0000
0000
0000
,  // measure 50
0000
0000
0000
0000
,  // measure 51
1000
0000
0000
0000
,  // measure 52
0000
0000
0000
0000
,  // measure 53
1001
0000
0000
0000
,  // measure 54
0001
0000
0000
0000
,  // measure 55
1000
0000
0000
0000
,  // measure 56
0001
0000
0000
0000
,  // measure 57
1001
0000
0000
0000
,  // measure 58
1000
0000
0000
0000
,  // measure 59
0001
0000
0000
0000
,  // measure 60
1000
0000
0000
0000
,  // measure 61
1001
0000
0000
0000
,  // measure 62
0010
0000
0000
0000
,  // measure 63
0110
0000
0000
0000
,  // measure 64
0000
0000
0000
0000
,  // measure 65
1001
0000
0000
0000
,  // measure 66
0000
0000
0000
0000
,  // measure 67
1000
0000
0000
0000
,  // measure 68
0000
0000
0000
0000
,  // measure 69
0001
0000
0000
0000
,  // measure 70
0000
0000
0000
0000
,  // measure 71
0000
0000
0110
0000
,  // measure 72
0000
0000
1000
0001
;
