#TITLE:ƒƒƒƒƒ;
#SUBTITLE:;
#ARTIST:Five Hammer;
#TITLETRANSLIT:fffff;
#SUBTITLETRANSLIT:;
#ARTISTTRANSLIT:;
#CREDIT:DMAxel;
#BANNER:fffff.png;
#BACKGROUND:fffff-bg.png;
#LYRICSPATH:;
#CDTITLE:pop'n music.png;
#MUSIC:fffff.mp3;
#OFFSET:-1.200;
#SAMPLESTART:35.099;
#SAMPLELENGTH:12.000;
#SELECTABLE:YES;
#BPMS:0.000=276.000;
#STOPS:;
#BGCHANGES:;

//---------------dance-single - ----------------
#NOTES:
     dance-single:
     :
     Easy:
     5:
     0.360,0.505,0.336,0.069,0.000:
0000
0000
0000
0000
,
0000
0000
0000
0000
,
0000
0000
0000
0000
,
0000
0000
0000
0000
,
0001
0000
1000
0000
,
0001
0000
1000
0000
,
0010
0000
0100
0000
,
0001
0000
0100
0000
,
0001
0000
0001
0000
,
0001
0000
0001
0000
,
1000
0000
1000
0000
,
1000
0000
1000
0000
,
0001
0000
0001
0000
,
0001
0000
0001
0000
,
1000
0000
1000
0000
,
1000
0000
0000
0000
,
1000
0000
1000
0000
,
1000
0000
1000
0000
,
0001
0000
0001
0000
,
0001
0000
0001
0000
,
1000
0000
0001
0000
,
1000
0000
0001
0000
,
2000
0000
0000
0000
,
3002
0000
0000
0000
,
1003
0000
1100
0000
,
1000
0000
1100
0000
,
1000
0000
1100
0000
,
1000
0000
1001
0000
,
1000
0000
1001
0000
,
1000
0000
1001
0000
,
1000
0000
1001
0000
,
0100
0000
0010
0000
,
0001
0000
0011
0000
,
0001
0000
0011
0000
,
0001
0000
0011
0000
,
0001
0000
0011
0000
,
0001
0000
1001
0000
,
0001
0000
1001
0000
,
1000
0000
1001
0000
,
0110
0000
0000
0000
,
0110
0000
1000
0000
,
0010
0000
1000
0000
,
0001
0000
0001
0000
,
0100
0000
0010
0000
,
0100
0000
0001
0000
,
0100
0000
0001
0000
,
2000
0000
0000
0000
,
3001
0000
0000
0000
,
1000
0000
0001
0000
,
1000
0000
0001
0000
,
0010
0000
0010
0000
,
0001
0000
0100
0000
,
0010
0000
1000
0000
,
0010
0000
1000
0000
,
0020
0000
0000
0130
,
0000
0000
0000
0000
,
0001
0000
0010
0000
,
0001
0000
0010
0000
,
0001
1000
0001
0000
,
1000
0001
1000
0000
,
1000
0000
0100
0000
,
1000
0000
0100
0000
,
1000
0001
1000
0000
,
1000
0001
1000
0000
,
0001
0100
0001
0000
,
1000
0000
0001
0000
,
1000
0100
1000
0000
,
0001
0010
0001
0000
,
1000
0010
1000
0000
,
0001
0000
0100
0000
,
0001
0010
0001
0000
,
1000
0100
1000
0000
,
1001
0000
1000
0000
,
0001
0000
1000
0000
,
0001
0000
0100
0000
,
0001
0000
0100
0000
,
0010
0000
1000
0000
,
0010
0000
1000
0000
,
0001
0000
1000
0000
,
0001
0000
1000
0000
,
0002
0000
0000
0000
,
1000
0000
0000
0000
,
2003
0000
0000
0000
,
0010
0000
0000
0000
,
3020
0000
0000
0000
,
0100
0000
0000
0000
,
0130
0000
0110
0000
,
0110
0000
1001
0000
,
0001
0000
0010
0000
,
0100
0000
1000
0000
,
0001
0000
0010
0000
,
0100
0000
1000
0000
,
0100
0000
0010
0000
,
0001
0000
1000
0000
,
0100
0000
0010
0000
,
0001
0000
0100
0000
,
0010
0000
1000
0000
,
0001
0000
0100
0000
,
0010
0000
1000
0000
,
0001
0000
0100
0000
,
0010
0000
0100
0000
,
0010
0000
1000
0000
,
1001
0000
0110
0000
,
0110
0000
1001
0000
,
0001
0000
0101
0000
,
0001
0000
0101
0000
,
1000
0000
1010
0000
,
1000
0000
1010
0000
,
0001
0000
0011
0000
,
0001
0000
0011
0000
,
1000
0000
1100
0000
,
1000
0000
1100
0000
,
0000
0000
0000
0101
,
0000
0000
1001
0000
;

//---------------dance-single - ----------------
#NOTES:
     dance-single:
     :
     Medium:
     8:
     0.611,0.673,0.425,0.020,0.000:
0000
0000
0000
0000
,
0000
0000
0000
0000
,
0000
0000
0000
0000
,
0000
0000
0000
0000
,
0001
1000
0001
0000
,
0001
1000
0001
0000
,
1000
0001
1000
0000
,
1000
0001
1000
0000
,
1000
0010
1000
0010
,
1000
0010
1000
0010
,
0100
0001
0100
0001
,
0100
0001
0100
0001
,
0010
0100
0010
0100
,
0010
0100
0010
0100
,
1000
0010
1000
0010
,
1000
0100
0010
0001
,
0010
0001
0010
0001
,
0010
0001
0010
0001
,
1000
0100
1000
0100
,
1000
0100
1000
0100
,
0010
0100
0010
0100
,
0010
0001
0010
0100
,
1000
0010
1000
0001
,
0010
0000
0000
0000
,
0001
0001
0101
0000
,
1000
1000
1010
0000
,
0001
0001
1001
0000
,
1000
1000
1001
0000
,
0001
0001
0011
0000
,
1000
1000
1100
0000
,
0001
0001
1001
0000
,
0100
0010
0001
0100
,
0001
0001
0011
0000
,
1000
1000
1100
0000
,
0001
0001
0101
0000
,
1000
1000
1010
0000
,
0001
0001
1001
0000
,
1000
1000
1001
0000
,
0001
0001
0101
0000
,
0101
0000
0000
0100
0000
0000
0001
0000
,
1001
0000
1000
0010
,
1000
0000
0000
1000
0000
0000
1000
0000
,
0001
0100
0001
0001
,
0100
0010
0100
0000
,
0000
0001
0001
0100
,
0001
0000
0000
0001
0000
0000
0001
0000
,
1000
0100
1000
0100
,
1000
0000
0000
0001
0000
0000
1000
0000
,
0001
0001
0010
0001
,
0010
0000
0000
0001
0000
0000
1000
0000
,
0010
1000
0100
1000
,
0001
0000
0000
0100
0000
0000
0001
0000
,
0000
1000
1000
0100
,
1000
0000
0000
1000
0000
0000
1000
0000
,
0001
0010
0001
0010
,
0000
0000
0001
0000
0000
1000
0000
0000
,
0010
0010
0100
0100
,
0001
0010
0001
1000
,
0100
1001
0000
0011
,
0000
1010
0000
1001
,
0100
0100
0010
0010
,
1000
0100
1000
0001
,
0010
1001
0000
1100
,
0000
0101
0000
1001
,
0010
0010
0100
0100
,
0001
0100
0001
1000
,
0010
1001
0000
1100
,
0100
0101
0001
1001
,
0100
0100
0010
0010
,
1000
0010
1000
0001
,
0100
0000
0001
1000
0000
0000
0001
0000
,
0100
0000
0001
1000
0000
0000
0000
0000
,
1001
0100
0100
1000
,
0001
0100
0010
1000
,
0001
0010
0010
0001
,
1000
0010
0100
0001
,
1000
0100
0100
1000
,
0010
1000
0001
0100
,
0010
1000
0010
0100
,
0001
1000
0001
0000
,
1000
0010
1000
0010
,
1000
0010
1000
0010
,
0001
0100
0001
0100
,
0001
0100
0001
0100
,
1000
0100
1000
0100
,
1000
0100
1000
0100
,
0101
0000
1100
0000
,
0110
0000
1001
0000
,
0001
0100
0010
1000
,
0100
0010
0001
0100
,
0010
1000
0100
0010
,
0001
0100
0010
1000
,
0001
0010
0100
0010
,
0001
0010
0100
1000
,
0100
0010
0100
1000
,
0100
0010
0001
0100
,
0010
0100
0001
0010
,
0100
1000
0010
0100
,
0010
1000
0100
0010
,
0001
1000
0001
1000
,
0001
0100
0010
1000
,
0010
0001
0010
0100
,
1001
0000
0110
0000
,
0110
0000
1001
0000
,
0001
0100
0110
1000
,
0001
0100
0110
0001
,
1000
0010
0110
0001
,
1000
0010
0110
1000
,
0001
1000
0001
0000
0010
0000
0100
0000
,
1000
0001
1000
0000
0100
0000
0010
0000
,
0001
1000
0001
0000
0100
0000
0010
0000
,
1000
0001
1000
0000
0010
0000
0100
0001
,
0000
0000
0000
0022
,
0000
0033
1001
0000
;

//---------------dance-single - ----------------
#NOTES:
     dance-single:
     :
     Hard:
     9:
     0.831,0.897,0.356,0.020,0.000:
0000
0000
0000
0000
,
0000
0000
0000
0000
,
0000
0000
0000
0000
,
0000
0000
0000
0000
,
1000
0010
1000
0001
,
0010
0001
1000
0100
,
1000
0001
0100
0001
,
0100
0010
0100
0000
0010
0100
0010
0000
,
1000
0100
0010
0001
,
0010
1000
0010
0001
,
0010
0100
1000
0100
,
0001
0100
1000
0010
,
0100
0001
1000
0010
,
0100
0001
0100
1000
,
0100
0001
0010
0100
,
1000
0001
1000
0000
0001
1000
0001
0000
,
1000
0100
0010
0001
,
0010
0100
1000
0100
,
0001
0010
1000
0010
,
0100
0001
0100
0010
,
1000
0010
0001
0100
,
1000
0100
0010
0001
,
1000
0100
0001
0100
,
1000
0001
1000
0000
0001
1000
0001
0000
,
1000
0010
1000
0000
0010
1000
0010
0000
,
0100
0001
0100
0000
0001
0100
0001
0000
,
1000
0100
1000
0000
0100
1000
0100
0000
,
0010
0001
0010
0000
0001
0010
0001
0000
,
1000
0010
1000
0000
0010
1000
0010
0000
,
0100
0001
0100
0000
0001
0100
0001
0000
,
1000
0100
1000
0000
0001
0010
0001
0000
,
0100
0001
0100
0001
0010
0100
1000
0000
,
0010
1000
0010
0000
1000
0100
1000
0000
,
0001
0100
0001
0000
0010
0001
0010
0000
,
0001
1000
0001
0000
1000
0010
1000
0000
,
0001
0010
0001
0000
1000
0100
1000
0000
,
0001
0100
0001
0000
0010
0001
0010
0000
,
0001
0100
0001
0000
1000
0010
1000
0000
,
0010
1000
0010
1000
0100
0010
0001
0000
,
0101
0000
0000
0110
0000
0000
0101
0000
,
1001
0000
0001
1000
0000
1000
0100
0000
,
1010
0000
0000
1001
0000
0000
1001
0000
,
0010
0001
0010
0100
,
1000
0001
1000
0100
0000
0010
0000
0001
,
0000
1001
0100
1000
,
0110
0000
0100
0001
0000
0001
1000
0000
,
0001
0010
0001
0010
0001
0010
0001
0010
,
0001
0000
0100
0001
0000
0001
1000
0000
,
1001
0000
0100
0001
0000
0001
1000
0000
,
0010
0000
0000
1010
0000
0000
1001
0000
,
0100
1000
0100
0001
,
0100
0010
0100
0001
0000
0010
0000
0100
,
0000
1001
0010
0001
,
0110
0000
0100
0001
0000
0001
1000
0000
,
0100
1000
0100
1000
0100
1000
0100
0000
,
0100
0000
1000
0010
0000
0010
0100
0000
,
0001
0001
1000
1000
,
0010
1000
0000
1000
0000
0001
0100
0000
,
0110
0000
1000
0010
0000
0000
0100
0000
,
0110
0000
1000
0010
0000
0000
0100
0000
,
0001
0001
1000
1000
,
0001
0000
0100
0001
0000
0001
1000
0000
,
0110
0000
0001
0100
0000
0000
0010
0000
,
0110
0000
0001
0100
0000
0000
0010
0000
,
1000
1000
0001
0001
,
1000
0000
0010
1000
0000
1000
0100
0000
,
0110
0000
0100
0001
0000
0001
0010
0000
,
0110
0000
0010
1000
0000
1000
0100
0000
,
0101
0001
1000
1000
,
0001
0000
0100
0001
0000
0001
0010
0000
,
0110
0000
0010
1000
0000
1000
0100
0000
,
0110
0000
0100
0001
0000
0001
0010
0000
,
1001
0010
0100
1000
,
0010
1000
0000
0100
0000
1000
0001
0000
,
0100
0000
0010
0100
0010
1000
0000
0010
,
0000
0100
0000
0001
0000
1000
0000
0000
,
0001
0000
0100
0010
0100
0001
0000
0100
,
0000
0010
0000
1000
0000
0001
1000
0000
,
0010
0100
0010
1000
0000
0100
0000
0010
,
0000
0001
0100
0000
0001
0000
1000
0000
,
0010
1000
0010
1000
0010
1000
0010
0000
,
1000
0010
0100
0001
,
0100
0001
0100
0001
0100
0001
0100
0000
,
0001
0100
0010
1000
,
0100
1000
0100
1000
0100
1000
0100
0000
,
1000
0100
0010
0001
,
0101
0100
1010
0010
,
0101
0100
1001
0000
,
1001
0000
0001
0100
0000
0100
0010
0000
,
1000
0010
0000
0010
0100
0000
0001
1000
,
0001
0100
0000
0100
0010
0000
1000
0010
,
0000
0010
0100
0000
0001
1000
0001
0000
,
1000
0100
0000
0100
0010
0000
0010
0001
,
0000
0001
1000
0000
1000
0001
1000
0000
,
0001
0010
0000
0010
0100
0000
0100
1000
,
0000
1000
0001
0000
0001
1000
0001
0000
,
1000
0010
0000
0100
0001
0000
0001
0010
,
0000
0100
1000
0000
1000
0001
1000
0000
,
0001
0100
0000
0010
1000
0000
1000
0100
,
0000
0010
0001
0000
0001
1000
0001
0000
,
1000
0010
0000
0001
0010
0000
1000
0100
,
0000
0001
0100
0000
1010
0000
1000
0000
,
1001
0100
0101
0010
,
1010
0100
1001
0000
,
1000
0010
1000
0010
0100
0010
1000
0000
,
0001
0100
0001
0100
0010
0100
0001
0000
,
0010
0100
1000
0010
0100
0010
1000
0000
,
0100
0010
0001
0100
0010
0100
0001
0000
,
0100
0010
1000
0100
1000
0010
1000
0000
,
0010
0100
0001
0010
0001
0100
0001
0000
,
0010
0100
1000
0010
0100
0001
0010
0100
,
1000
0010
0100
0001
1000
0100
0010
0001
,
0000
0000
0000
0202
,
0000
0303
1001
0000
;

//---------------dance-single - ----------------
#NOTES:
     dance-single:
     :
     Challenge:
     10:
     1.000,0.953,0.632,0.020,0.000: // measure 1
0000
0000
0000
0000
,  // measure 2
0000
0000
0000
0000
,  // measure 3
0000
0000
0000
0000
,  // measure 4
0000
0000
0000
0000
,  // measure 5
1000
0010
1000
0000
1000
0001
1000
0000
,  // measure 6
0001
0100
0001
0000
0001
1000
0001
0000
,  // measure 7
1000
0100
1000
0000
1000
0001
1000
0000
,  // measure 8
0010
0100
0010
1000
0100
0010
0001
0000
,  // measure 9
0100
0001
0010
0000
0100
1000
0010
0000
,  // measure 10
0100
0001
0010
0000
0100
1000
0010
0000
,  // measure 11
0100
0001
1000
0000
0010
1000
0001
0000
,  // measure 12
0100
0001
0010
0000
0001
1000
0100
0000
,  // measure 13
1000
0001
0100
0001
0100
0010
0100
0000
,  // measure 14
0001
1000
0010
1000
0010
0100
0010
0000
,  // measure 15
1000
0001
0100
0010
0100
0001
0100
0000
,  // measure 16
0010
0100
0010
1000
0010
0100
0001
0000
,  // measure 17
0100
0001
1000
0000
0010
1000
0001
0000
,  // measure 18
0010
0001
0100
0000
0010
1000
0100
0000
,  // measure 19
1000
0001
0100
0010
0100
0001
0100
0000
,  // measure 20
0001
1000
0010
0100
0010
1000
0010
0000
,  // measure 21
1000
0001
0010
0001
0100
0001
0010
0000
,  // measure 22
0001
1000
0010
1000
0100
1000
0010
1000
,  // measure 23
0010
0100
0010
0100
0010
0001
1000
0001
,  // measure 24
1000
0010
0100
0001
1000
0010
0100
0000
,  // measure 25
0001
0100
0001
0100
0001
1000
0100
0000
,  // measure 26
0100
1000
0100
1000
0001
1000
0001
0000
,  // measure 27
0001
0100
0010
0100
0010
1000
0010
0000
,  // measure 28
0010
1000
0010
1000
0001
0010
0001
0000
,  // measure 29
0001
0100
0001
0100
0001
0010
0100
0000
,  // measure 30
0100
0010
0100
0010
0100
1000
0010
0000
,  // measure 31
0010
1000
0001
1000
0001
1000
0001
0100
,  // measure 32
0001
0100
0010
1000
0001
0100
0010
0000
,  // measure 33
1000
0010
1000
0010
1000
0001
0010
0000
,  // measure 34
0010
0001
0010
0001
1000
0001
1000
0000
,  // measure 35
1000
0010
0100
0010
0100
0010
0100
0000
,  // measure 36
0100
0001
0100
0001
1000
0100
1000
0000
,  // measure 37
1000
0010
1000
0010
1000
0100
0010
0000
,  // measure 38
0010
0100
0010
0100
0010
0001
0100
0000
,  // measure 39
0100
0001
1000
0001
1000
0001
1000
0000
,  // measure 40
1010
0000
0000
0011
0000
0000
0011
0000
,  // measure 41
1001
0000
1000
0001
0000
0001
0010
0000
,  // measure 42
0101
0000
0000
1001
0000
0000
1001
0000
,  // measure 43
1100
1100
1000
0001
,  // measure 44
0010
0100
1000
0010
1000
0010
0000
0011
,  // measure 45
0000
1001
0011
0100
,  // measure 46
1010
0000
0010
1000
0000
1000
0001
0000
,  // measure 47
1000
0100
1000
0100
1000
0100
1000
0100
,  // measure 48
1000
0010
0100
0001
0000
0001
0100
0000
,  // measure 49
1001
0000
0010
1000
0000
1000
0001
0000
,  // measure 50
0011
0000
0000
0101
0000
0000
1001
0000
,  // measure 51
0011
0011
1010
1000
,  // measure 52
0100
0010
0001
0100
0001
0100
0000
1100
,  // measure 53
0000
1001
1100
1000
,  // measure 54
1010
0000
0010
1000
0000
1000
0001
0000
,  // measure 55
0010
0001
0010
0001
0010
0001
0010
0001
,  // measure 56
0100
0010
1000
0010
0000
0010
0100
0000
,  // measure 57
1010
1010
0101
0101
,  // measure 58
0100
0001
0000
0001
0010
0100
1000
0010
,  // measure 59
1000
0000
0001
0100
0000
0100
0010
0000
,  // measure 60
1001
0000
0001
0100
0000
0100
0010
0000
,  // measure 61
1001
0101
0101
1010
,  // measure 62
1010
0000
0010
1000
0000
1000
0010
0100
,  // measure 63
0001
0000
1000
0010
0000
0010
0100
0000
,  // measure 64
1001
0000
1000
0010
0000
0010
0100
0000
,  // measure 65
1001
0011
0011
1100
,  // measure 66
1100
0000
1000
0001
0000
0001
0010
0000
,  // measure 67
1001
0000
0010
1000
0000
1000
0100
0000
,  // measure 68
1001
0000
0100
0001
0000
0001
0010
0000
,  // measure 69
1001
1100
1100
0011
,  // measure 70
0011
0000
0010
1000
0000
1000
0100
0000
,  // measure 71
1001
0000
0100
0001
0000
0001
0010
0000
,  // measure 72
1001
0000
0010
1000
0000
1000
0100
0000
,  // measure 73
1001
1010
1000
0001
,  // measure 74
0100
0001
0000
0001
0100
0001
1000
0000
,  // measure 75
0010
0000
1000
0010
0100
0001
0000
0001
,  // measure 76
0100
0001
0100
0010
0100
0001
1000
0000
,  // measure 77
0001
0000
0001
0100
0010
1000
0000
1000
,  // measure 78
0010
1000
0010
0100
0010
1000
0001
0000
,  // measure 79
0100
0010
0100
0001
0000
0001
1000
0001
,  // measure 80
0100
0010
1000
0000
0001
0000
1000
0000
,  // measure 81
0010
0100
0010
0100
0010
0100
0010
0100
,  // measure 82
0010
0100
0010
1000
0000
1000
0001
0000
,  // measure 83
0100
0010
0100
0010
0100
0010
0100
0010
,  // measure 84
0100
0010
0100
0001
0000
0001
1000
0000
,  // measure 85
0010
1000
0010
1000
0010
1000
0010
1000
,  // measure 86
0010
1000
0010
0000
0110
0000
0101
0000
,  // measure 87
1001
0010
0101
0100
,  // measure 88
1010
0010
1001
0000
,  // measure 89
1001
0000
1000
0010
0000
0010
0100
0001
,  // measure 90
0100
0010
0100
0010
0100
0001
1000
0000
,  // measure 91
0001
0100
0000
0100
0010
1000
0010
0100
,  // measure 92
0010
0100
0010
1000
0001
0010
0001
0000
,  // measure 93
1000
0010
0000
0010
0100
0001
0100
0010
,  // measure 94
0100
0010
0100
0001
0100
0010
1000
0000
,  // measure 95
0001
0100
0000
0100
0010
0100
0001
0100
,  // measure 96
0010
0100
0010
1000
0010
0100
0001
0000
,  // measure 97
1000
0010
0000
0010
0100
0001
1000
0010
,  // measure 98
1000
0010
1000
0001
0010
0100
1000
0000
,  // measure 99
0001
0100
0000
0100
0010
1000
0001
0100
,  // measure 100
0001
0100
0001
1000
0100
0010
0001
0000
,  // measure 101
1000
0010
0000
0010
0100
0001
0010
0001
,  // measure 102
0010
0001
1000
0100
0010
0001
0100
0000
,  // measure 103
1001
0010
1010
0100
,  // measure 104
0101
0010
1001
0000
,  // measure 105
0001
0100
0001
0100
0010
0100
0001
0100
,  // measure 106
1000
0010
1000
0010
0100
0010
1000
0000
,  // measure 107
0100
0010
0001
0100
0010
0100
0001
0010
,  // measure 108
1000
0100
0010
0001
0100
0010
1000
0000
,  // measure 109
0010
0100
0001
0010
0001
0100
0001
0010
,  // measure 110
1000
0010
0100
0001
1000
0010
1000
0010
,  // measure 111
0001
0100
0010
1000
0010
1000
0100
0010
,  // measure 112
0001
0100
0010
1000
0001
0010
0100
1000
,  // measure 113
0000
0000
0000
2020
,  // measure 114
0000
3030
1001
0000
;

//---------------dance-single - ----------------
#NOTES:
     dance-single:
     :
     Beginner:
     2:
     0.157,0.224,0.089,0.000,0.000:
0000
0000
0000
0000
,
0000
0000
0000
0000
,
0000
0000
0000
0000
,
0000
0000
0000
0000
,
1000
0000
0000
0000
,
0001
0000
0000
0000
,
1000
0000
0000
0000
,
0001
0000
0000
0000
,
0001
0000
0000
0000
,
0001
0000
0000
0000
,
0001
0000
0000
0000
,
0001
0000
0000
0000
,
1000
0000
0000
0000
,
1000
0000
0000
0000
,
1000
0000
0000
0000
,
1000
0000
0000
0000
,
1000
0000
0000
0000
,
0100
0000
0000
0000
,
0010
0000
0000
0000
,
0001
0000
0000
0000
,
0001
0000
0000
0000
,
0010
0000
0000
0000
,
0100
0000
0000
0000
,
1000
0000
0000
0000
,
0001
0000
0000
0000
,
0010
0000
0000
0000
,
0100
0000
0000
0000
,
1000
0000
0000
0000
,
0100
0000
0000
0000
,
0010
0000
0000
0000
,
0001
0000
0000
0000
,
1001
0000
0000
0000
,
1000
0000
0000
0000
,
0100
0000
0000
0000
,
0010
0000
0000
0000
,
0001
0000
0000
0000
,
0010
0000
0000
0000
,
0100
0000
0000
0000
,
1000
0000
0000
0000
,
1001
0000
0000
0000
,
1000
0000
0000
0000
,
0001
0000
0000
0000
,
1000
0000
0000
0000
,
1000
0000
0000
0000
,
0001
0000
0000
0000
,
1000
0000
0000
0000
,
0001
0000
0000
0000
,
1001
0000
0000
0000
,
0001
0000
0000
0000
,
1000
0000
0000
0000
,
0001
0000
0000
0000
,
0001
0000
0000
0000
,
1000
0000
0000
0000
,
0001
0000
0000
0000
,
1000
0000
0000
0000
,
1001
0000
0000
0000
,
1000
0000
0000
0000
,
1000
0000
0000
0000
,
0010
0000
0000
0000
,
0010
0000
0000
0000
,
1000
0000
0000
0000
,
1000
0000
0000
0000
,
0100
0000
0000
0000
,
0100
0000
0000
0000
,
1000
0000
0000
0000
,
0001
0000
0000
0000
,
0100
0000
0000
0000
,
0100
0000
0000
0000
,
0001
0000
0000
0000
,
0001
0000
0000
0000
,
0010
0000
0000
0000
,
0010
0000
0000
0000
,
1001
0000
0000
0000
,
0001
0000
0000
0000
,
1000
0000
0000
0000
,
0001
0000
0000
0000
,
1000
0000
0000
0000
,
0001
0000
0000
0000
,
1000
0000
0000
0000
,
0000
0000
0000
0000
,
1000
0000
0000
0000
,
0100
0000
0000
0000
,
1000
0000
0000
0000
,
0001
0000
0000
0000
,
0010
0000
0000
0000
,
0001
0000
0000
0000
,
1001
0000
0000
0000
,
0001
0000
0000
0000
,
1000
0000
0000
0000
,
0000
0000
0000
0000
,
0001
0000
0000
0000
,
0000
0000
0000
0000
,
1000
0000
0000
0000
,
0000
0000
0000
0000
,
0100
0000
0000
0000
,
0000
0000
0000
0000
,
0010
0000
0000
0000
,
0000
0000
0000
0000
,
0001
0000
0000
0000
,
0000
0000
0000
0000
,
0100
0000
0000
0000
,
0000
0000
0000
0000
,
0010
0000
0000
0000
,
0010
0000
0000
0000
,
1001
0000
0000
0000
,
0001
0000
0000
0000
,
0010
0000
0000
0000
,
0100
0000
0000
0000
,
1001
0000
0000
0000
,
0100
0000
0000
0000
,
0010
0000
0000
0000
,
0001
0000
0000
0000
,
0000
0000
0000
1001
,
0000
0000
1000
0000
;
