#TITLE:YOUNG DREAM;
#SUBTITLE:;
#ARTIST:LITTLE FINGERS;
#TITLETRANSLIT:;
#SUBTITLETRANSLIT:;
#ARTISTTRANSLIT:;
#CREDIT:DMAxel;
#BANNER:YOUNG DREAM.png;
#BACKGROUND:YOUNG DREAM-bg.png;
#LYRICSPATH:YOUNG DREAM.lrc;
#CDTITLE:pop'n music.png;
#MUSIC:YOUNG DREAM.mp3;
#OFFSET:-0.380;
#SAMPLESTART:52.725;
#SAMPLELENGTH:12.000;
#SELECTABLE:YES;
#BPMS:0.000=110.000;
#STOPS:;
#BGCHANGES:;

//---------------dance-single - ----------------
#NOTES:
     dance-single:
     :
     Easy:
     2:
     0.109,0.176,0.081,0.035,0.000:
0000
0000
0000
0000
,
0000
0000
0000
0000
,
0000
0000
0000
0000
,
0000
0000
0000
0000
,
0001
0000
0000
0000
,
0001
1000
1000
1000
,
1001
0000
0000
0000
,
0020
0000
0000
0030
,
0100
0100
0100
0000
,
0010
0010
0010
0000
,
0100
0100
0100
0000
,
0010
0010
0010
0000
,
1000
1000
1000
0000
,
0001
0001
0001
0000
,
1000
1000
1000
0000
,
0001
0001
0001
0000
,
1000
0000
0000
0000
,
0000
0000
0000
0000
,
1000
0000
0000
0000
,
0000
0000
0000
0000
,
0001
0000
0000
0000
,
0000
0000
0000
0000
,
0001
0000
0000
0000
,
1000
0000
0000
0000
,
1001
0000
0000
0000
,
0010
0000
0000
0000
,
0010
0000
0000
0000
,
0010
0000
0000
0000
,
0100
0000
0000
0000
,
0100
0000
0000
0000
,
0100
0000
0000
0000
,
0100
0000
0000
0000
,
1001
0000
0000
0001
,
0011
0000
0000
1000
,
1100
0000
0000
0001
,
0101
0000
0000
0000
,
1001
0010
0001
0000
,
0020
0000
0200
0000
,
0330
0000
0000
0000
;

//---------------dance-single - ----------------
#NOTES:
     dance-single:
     :
     Hard:
     6:
     0.277,0.329,0.174,0.035,0.081:
0000
0000
0000
0000
,
0000
0000
0000
0000
,
0000
0000
0000
0000
,
0000
0000
0000
0000
,
2000
0000
0000
0000
0000
0000
0000
0010
,
3010
0000
0110
0000
0001
0100
0001
0000
,
1002
0010
0010
0000
,
1003
0000
0000
1000
0000
0000
0010
0000
0100
0000
0000
0000
0000
0000
0000
0000
,
0010
0100
0010
0100
0010
0000
0000
1000
,
0100
0010
0100
0010
0100
0000
0000
0001
,
0010
0100
0010
0100
0010
0000
0000
0000
,
0000
0000
1000
0000
0000
0001
0000
0000
1000
0000
0000
0000
0000
0000
0000
0000
,
0110
0000
0100
0001
0010
0000
0000
0001
,
1000
0000
0000
0000
0100
0000
0000
0100
0000
0000
1000
0000
0000
0000
1000
0000
,
0001
0100
0001
0100
0001
0000
0000
0100
,
0010
0000
1000
0000
1000
0000
0000
0010
0000
0000
0100
0000
0001
0000
0000
0000
,
1001
0000
0000
0000
0000
0000
0000
0000
0000
0000
0001
0000
0000
0001
0000
0000
,
0000
0000
0000
0000
0000
0000
0000
0000
0000
0000
0100
0000
0000
0100
0000
0000
,
1001
0000
0000
0000
0000
0000
0000
0000
0000
0000
1000
0000
0000
1000
0000
0000
,
0000
0000
0000
0000
0000
0000
0000
0000
0000
0000
0010
0000
0000
0010
0000
0000
,
1001
0000
0000
0000
0000
0000
0000
0000
0000
0000
0001
0000
0000
0001
0000
0000
,
0110
0000
0000
0000
0000
0000
0000
0000
0000
0000
0100
0000
0000
0100
0000
0000
,
1001
0000
0000
0000
0000
0000
0000
0000
0000
0000
1000
0000
0000
1000
0000
0000
,
0110
0001
1001
1000
,
1001
0100
0100
0100
,
0100
1000
0100
0010
0001
0000
0000
0000
,
0010
0010
0010
0010
,
0010
0001
0010
0100
1000
0000
0000
0000
,
0010
0100
0010
0100
,
0010
1000
0100
0010
0001
0000
0000
0000
,
0100
0010
0100
0010
,
0100
0001
0010
0100
1000
0000
0100
0000
,
1001
0000
0000
1000
0000
0000
1000
0000
0001
0000
0100
0000
0100
0000
0001
0000
,
1000
0000
0000
1000
0001
0010
0010
0001
,
1000
0000
0000
0001
0000
0000
0001
0000
1000
0000
0100
0000
0100
0000
0000
0000
,
0110
0000
1001
0000
1000
1000
1000
0000
,
2001
0010
0010
0000
,
3001
0000
0000
0001
0000
0000
0010
0000
0100
0000
0000
0000
1000
0000
0001
0000
;

//---------------dance-single - ----------------
#NOTES:
     dance-single:
     :
     Challenge:
     7:
     0.417,0.418,0.325,0.000,0.139: // measure 1
0000
0000
0000
0000
,  // measure 2
0000
0000
0000
0000
,  // measure 3
0000
0000
0000
0000
,  // measure 4
0000
0000
0000
0000
,  // measure 5
0001
0000
0000
0001
0000
0000
0001
0000
0100
0000
0010
0000
0010
0000
1000
0000
,  // measure 6
0100
0000
0110
0000
0001
0100
0001
0010
,  // measure 7
0100
1000
0100
1000
0010
0100
0100
0000
,  // measure 8
1001
0000
0000
1000
0000
0000
1000
0000
0010
0000
0000
0000
0100
0000
0001
0000
,  // measure 9
0010
0000
0001
0000
0010
0000
0001
0000
0010
0000
0000
0110
0000
0000
0010
0000
,  // measure 10
1000
0000
0100
0000
1000
0000
0100
0000
1000
0000
0000
0110
0000
0000
0010
0000
,  // measure 11
0001
0000
0100
0000
0001
0000
0100
0000
0001
0000
0000
0110
0000
0000
0000
0000
,  // measure 12
0010
0000
1000
0000
0000
1100
0000
0000
1001
0000
0010
0000
0001
0000
0000
0000
,  // measure 13
0110
0000
0010
1000
0100
0000
1000
0001
,  // measure 14
0010
0000
0001
0000
0010
0000
0000
0110
0000
0000
0101
0000
0000
0000
0001
0000
,  // measure 15
1000
0000
0010
0000
1000
0000
0010
0000
1000
0000
0000
0110
0000
0000
0010
0000
,  // measure 16
0100
0000
0001
0000
0001
0000
0000
0110
0000
0000
0100
0000
0010
0000
1000
0000
,  // measure 17
1001
0000
0000
0000
0010
0000
0000
0000
0100
0000
1000
0000
0000
1000
0000
0000
,  // measure 18
0010
0000
0000
0000
1000
0000
0000
0000
0100
0000
0010
0000
0000
0010
0000
0000
,  // measure 19
1001
0000
0000
0000
0010
0000
0000
0000
0100
0000
0001
0000
0000
0001
0000
0000
,  // measure 20
1000
0000
0000
0000
0001
0000
0000
0000
0010
0000
0100
0000
0000
0100
0000
0000
,  // measure 21
1001
0000
0000
0000
0100
0000
0000
0000
0010
0000
1000
0000
0000
1000
0000
0000
,  // measure 22
0110
0000
0000
0000
0001
0000
0000
0000
0100
0000
0010
0000
0000
0010
0000
0000
,  // measure 23
1001
0000
0000
0000
0100
0000
0000
0000
0010
0000
0001
0000
0000
0001
0000
0000
,  // measure 24
0110
0000
1010
0000
1001
1000
0100
0010
,  // measure 25
1001
0000
0010
0001
0010
0100
0010
0001
,  // measure 26
0010
0001
0010
0100
1000
0010
1000
0000
,  // measure 27
0100
1000
0100
0010
0100
1000
0100
0010
,  // measure 28
0100
1000
0100
0010
0001
0100
0001
0000
,  // measure 29
0100
0001
0010
0100
0010
0001
0010
0100
,  // measure 30
0010
0001
0010
0100
1000
0010
1000
0000
,  // measure 31
0010
1000
0100
0010
0100
1000
0100
0010
,  // measure 32
0100
0000
1000
0000
0100
0000
0010
0000
0000
0001
0100
0000
0001
0000
0000
0000
,  // measure 33
1001
0000
0010
0001
0000
0010
0001
0000
1000
0000
0010
0000
0010
0000
1000
0000
,  // measure 34
1001
0000
0000
0001
1001
0100
0100
1000
,  // measure 35
0001
0000
1000
0100
0000
1000
0100
0000
1000
0000
0010
0000
0010
0000
0100
0000
,  // measure 36
0110
0000
1001
1000
0001
0001
0001
0010
,  // measure 37
1000
0100
1000
0001
0100
0010
0010
0000
,  // measure 38
1010
0000
0000
1100
0000
0000
0100
0000
0001
0000
0000
0010
0001
0000
0010
0100
;

//---------------dance-single - ----------------
#NOTES:
     dance-single:
     :
     Beginner:
     1:
     0.053,0.086,0.023,0.000,0.000:
0000
0000
0000
0000
,
0000
0000
0000
0000
,
0000
0000
0000
0000
,
0000
0000
0000
0000
,
1000
0000
0000
0000
,
1000
0000
0000
0000
,
0001
0000
0000
0000
,
0000
0000
0000
0000
,
0001
0000
0000
0000
,
0100
0000
0000
0000
,
0001
0000
0000
0000
,
0000
0000
0000
0000
,
1000
0000
0000
0000
,
0010
0000
0000
0000
,
1000
0000
0000
0000
,
1000
0000
0000
0000
,
1001
0000
0000
0000
,
0000
0000
0000
0000
,
0001
0000
0000
0000
,
0000
0000
0000
0000
,
1001
0000
0000
0000
,
1000
0000
0000
0000
,
1000
0000
0000
0000
,
1000
0000
0000
0000
,
0001
0000
0000
0000
,
0100
0000
0000
0000
,
0001
0000
0000
0000
,
1000
0000
0000
0000
,
0010
0000
0000
0000
,
1000
0000
0000
0000
,
0001
0000
0000
0000
,
1000
0000
0000
0000
,
0001
0000
0000
0000
,
0001
0000
0000
0000
,
1000
0000
0000
0000
,
1000
0000
0000
0000
,
0010
0000
0000
0000
,
0010
0000
0000
0000
;

//---------------dance-single - ----------------
#NOTES:
     dance-single:
     :
     Medium:
     4:
     0.228,0.307,0.162,0.023,0.000:
0000
0000
0000
0000
,
0000
0000
0000
0000
,
0000
0000
0000
0000
,
0000
0000
0000
0000
,
1000
0000
0001
0000
0000
0100
0100
0000
,
0001
1001
0010
0010
,
1001
0010
0100
0000
,
2000
0000
0001
3000
,
0010
0010
0001
1000
,
0100
0100
1000
0001
,
0100
0100
0001
1000
,
0010
0010
1000
0001
,
1001
0010
0001
0010
,
0100
1000
0100
1000
,
0100
0010
0001
0100
,
0011
1000
1100
0001
,
1001
0000
0000
0000
,
1000
0000
0000
0000
,
0001
0000
0000
0000
,
1000
0000
0000
0000
,
1001
0000
0000
0000
,
0001
0000
0000
0000
,
1000
0000
0000
0000
,
1001
0100
0010
0100
,
1001
0010
1000
0010
,
0100
0001
0100
0001
,
0100
0010
1000
0100
,
1000
0001
0100
0001
,
1000
0100
1000
0100
,
0010
0001
0010
0001
,
1000
0100
1000
0000
0001
0100
0001
0000
,
1000
0010
1000
0000
0001
0010
0001
0000
,
1001
0000
0010
0000
0100
0100
0100
0000
,
1100
0000
0000
1000
0001
0010
0010
0000
,
1001
0000
0010
0000
0100
0100
0100
0000
,
0011
0000
0001
0000
1001
0000
0100
1000
,
0100
0000
1000
0000
0001
0100
0100
0000
,
0020
0000
0000
1030
0010
0000
1000
0001
;
