#TITLE:When Love Takes Over;
#SUBTITLE:(HOUSE NATION Electro Mix);
#ARTIST:Rivendell;
#TITLETRANSLIT:;
#SUBTITLETRANSLIT:;
#ARTISTTRANSLIT:;
#CREDIT:DMAxel;
#BANNER:When Love Takes Over (HOUSE NATION Electro Mix).png;
#BACKGROUND:When Love Takes Over (HOUSE NATION Electro Mix)-bg.png;
#LYRICSPATH:When Love Takes Over (HOUSE NATION Electro Mix).lrc;
#CDTITLE:avex.png;
#MUSIC:When Love Takes Over (HOUSE NATION Electro Mix).mp3;
#OFFSET:-0.060;
#SAMPLESTART:46.179;
#SAMPLELENGTH:12.000;
#SELECTABLE:YES;
#BPMS:0.000=129.930;
#STOPS:;
#BGCHANGES:;

//---------------dance-single - ----------------
#NOTES:
     dance-single:
     :
     Easy:
     3:
     0.195,0.262,0.046,0.221,0.000: // measure 1
0000
0000
0000
0000
,  // measure 2
0000
0000
0000
0000
,  // measure 3
0000
0000
0000
0000
,  // measure 4
0000
0000
0000
0000
,  // measure 5
0010
0000
0000
0000
,  // measure 6
0010
0000
0000
0000
,  // measure 7
0010
0000
0000
0000
,  // measure 8
0010
0000
0000
0000
,  // measure 9
0100
0000
0000
0000
,  // measure 10
0100
0000
0000
0000
,  // measure 11
0100
0000
0000
0000
,  // measure 12
0100
0000
0000
0000
,  // measure 13
0002
0000
0000
0000
,  // measure 14
2003
0000
0000
0000
,  // measure 15
3002
0000
0000
0000
,  // measure 16
2003
0000
0000
0000
,  // measure 17
3020
0000
0000
0000
,  // measure 18
0230
0000
0000
0000
,  // measure 19
0320
0000
0000
0000
,  // measure 20
0000
0100
0000
0130
,  // measure 21
1001
0000
0001
0000
,  // measure 22
0001
0000
1000
0000
,  // measure 23
1000
0000
0001
0000
,  // measure 24
0001
0000
1000
0000
,  // measure 25
1000
0001
1000
0001
,  // measure 26
0100
0010
0100
0010
,  // measure 27
0100
0000
0100
0000
,  // measure 28
0100
0000
0000
0000
,  // measure 29
1001
0001
0001
0000
,  // measure 30
1000
1000
1000
0000
,  // measure 31
0010
0010
0010
0000
,  // measure 32
1000
1000
1000
0000
,  // measure 33
0001
0001
0001
0000
,  // measure 34
0100
0100
0100
0000
,  // measure 35
0010
0010
0010
0000
,  // measure 36
0100
0100
0110
0000
,  // measure 37
1001
0001
0010
0000
,  // measure 38
0001
1000
0001
0000
,  // measure 39
1000
0100
1000
0000
,  // measure 40
0010
0100
0010
0000
,  // measure 41
0100
0010
0100
0001
,  // measure 42
1000
0001
1000
0000
,  // measure 43
0001
1000
0001
1000
,  // measure 44
0010
0100
0010
0000
,  // measure 45
1000
0100
1000
0001
,  // measure 46
1000
0001
1000
0000
,  // measure 47
0001
0010
0001
1000
,  // measure 48
0001
1000
0002
0000
,  // measure 49
2003
0000
3200
0000
,  // measure 50
0302
0000
0023
0000
,  // measure 51
0230
0000
2300
0000
,  // measure 52
3002
0000
2003
0000
,  // measure 53
3002
0000
0023
0000
,  // measure 54
2030
0000
3200
0000
,  // measure 55
0320
0000
0032
0000
,  // measure 56
1003
1000
0001
0001
,  // measure 57
2002
0000
0000
0000
,  // measure 58
3003
0000
0000
0000
;

//---------------dance-single - ----------------
#NOTES:
     dance-single:
     :
     Medium:
     4:
     0.301,0.367,0.249,0.101,0.000: // measure 1
0000
0000
0000
0000
,  // measure 2
0000
0000
0000
0000
,  // measure 3
0000
0000
0000
0000
,  // measure 4
0000
0000
0000
0000
,  // measure 5
0100
0000
0100
0000
,  // measure 6
0010
0000
0010
0000
,  // measure 7
0100
0000
0100
0000
,  // measure 8
0010
0000
0010
0000
,  // measure 9
1000
0000
1000
0000
,  // measure 10
0010
0000
0010
0000
,  // measure 11
0100
0000
0100
0000
,  // measure 12
0001
0000
0001
0010
,  // measure 13
2000
0000
0001
3000
,  // measure 14
0002
0000
1000
0003
,  // measure 15
0200
0000
0010
0300
,  // measure 16
0020
0000
0130
0010
,  // measure 17
0200
0000
0001
0000
,  // measure 18
0320
0000
1000
0000
,  // measure 19
2030
0000
0001
0000
,  // measure 20
3002
1000
0000
1003
,  // measure 21
1001
1000
1000
0010
,  // measure 22
0010
1000
1000
0001
,  // measure 23
0001
0100
0100
0001
,  // measure 24
0001
1000
1000
0100
,  // measure 25
0100
0010
0001
0010
,  // measure 26
0100
1000
0010
0100
,  // measure 27
0010
1000
0001
1000
,  // measure 28
0020
0000
0000
0030
,  // measure 29
1001
1000
0010
1000
,  // measure 30
1001
0001
0100
0001
,  // measure 31
1001
1000
0010
1000
,  // measure 32
1001
0001
0001
0010
,  // measure 33
0001
1001
1000
0100
,  // measure 34
0001
1001
0001
0010
,  // measure 35
1000
1001
1000
0100
,  // measure 36
0001
1001
0011
0010
,  // measure 37
1001
0000
0100
0000
0100
0010
0100
0000
,  // measure 38
1001
0000
0010
0000
0010
0100
0010
0000
,  // measure 39
1001
0000
0010
0000
0010
1000
0010
0000
,  // measure 40
1001
0000
0100
0000
0100
0001
0100
0000
,  // measure 41
1001
0000
0001
0000
0010
0001
0010
0000
,  // measure 42
1001
0000
1000
0000
0100
1000
0100
0000
,  // measure 43
1001
0000
0001
0000
0010
0001
0010
0000
,  // measure 44
1001
0000
1000
0000
0100
1000
0100
0000
,  // measure 45
1001
0000
0001
0000
0100
0001
0100
0000
,  // measure 46
1001
0000
1000
0000
0010
1000
0010
0000
,  // measure 47
1001
0000
0001
0000
0100
0001
0100
0000
,  // measure 48
1001
1010
1001
0000
,  // measure 49
0001
0010
1000
0100
,  // measure 50
0001
0000
0100
0010
0100
0010
0100
0000
,  // measure 51
0001
1000
0001
0010
,  // measure 52
1000
0001
1000
0001
,  // measure 53
1000
0100
0001
0010
,  // measure 54
1000
0000
0010
0100
0010
0100
0010
0000
,  // measure 55
1000
0001
1000
0001
,  // measure 56
1000
0001
0011
0011
,  // measure 57
2002
0000
0000
0000
,  // measure 58
3003
0000
0000
0000
;

//---------------dance-single - ----------------
#NOTES:
     dance-single:
     :
     Hard:
     7:
     0.359,0.420,0.046,0.064,0.046: // measure 1
0000
0000
0000
0000
,  // measure 2
0000
0000
0000
0000
,  // measure 3
0000
0000
0000
0000
,  // measure 4
0000
0000
0000
0000
,  // measure 5
0001
0001
0010
0100
,  // measure 6
1000
1000
0100
0010
,  // measure 7
0001
0001
0010
0100
,  // measure 8
1000
1000
0100
0010
,  // measure 9
0001
0100
0010
0100
,  // measure 10
0001
1000
0010
0100
,  // measure 11
0010
1000
0100
0010
,  // measure 12
0001
0010
0100
1000
,  // measure 13
0200
0010
0000
0300
,  // measure 14
0020
0100
0000
0030
,  // measure 15
1000
0010
0100
0001
,  // measure 16
0001
1000
1000
0001
,  // measure 17
0020
0100
0000
0030
,  // measure 18
0200
0010
0000
0300
,  // measure 19
0001
0100
0010
1000
,  // measure 20
1000
0000
0001
0100
0000
0000
0001
0100
,  // measure 21
0010
0000
1000
0010
0000
0000
1000
0010
,  // measure 22
0000
0000
0100
0001
0000
0000
0100
0001
,  // measure 23
0000
0000
0010
0100
0000
0000
0010
0100
,  // measure 24
0000
0000
1000
0001
0000
0000
1000
0001
,  // measure 25
0100
0010
0100
0010
0100
0000
0100
0000
,  // measure 26
0001
1000
0001
1000
0001
0000
0001
0000
,  // measure 27
0100
0010
0100
0010
0100
0000
0100
0000
,  // measure 28
0010
2000
0000
3000
,  // measure 29
1001
0000
1000
0100
1000
0001
0001
0000
,  // measure 30
1000
0000
0001
0010
0001
1000
1000
0000
,  // measure 31
0001
0000
1000
0010
1000
0001
0001
0000
,  // measure 32
1000
0000
0001
0100
0001
1000
1000
0100
,  // measure 33
0001
1000
0001
0000
0010
0100
1000
0000
,  // measure 34
1000
0001
1000
0000
0100
0010
0001
0000
,  // measure 35
0100
0010
0100
0000
0001
0100
1000
0000
,  // measure 36
0010
0000
0100
0000
0010
0000
1000
0000
0010
0000
0000
0010
0000
0000
0010
0000
,  // measure 37
1000
0001
1000
0100
0010
0100
1000
0000
,  // measure 38
0001
1000
0001
0010
0100
0010
0001
0000
,  // measure 39
0010
0100
1000
0001
0100
0001
1000
0000
,  // measure 40
0100
0010
0001
1000
0010
1000
0001
0000
,  // measure 41
1001
0000
0000
0001
0000
0000
0001
0000
0000
0000
1000
0000
0010
0000
0000
0000
,  // measure 42
1000
0000
0000
0100
0000
0000
1000
0000
0000
0000
0001
0000
0100
0000
0000
0000
,  // measure 43
0001
0000
0000
0010
0000
0000
0001
0000
0000
0000
1000
0000
0010
0000
0000
0000
,  // measure 44
1000
0000
0000
0001
0000
0000
1000
0000
0000
0000
0010
0000
0100
0000
0000
0000
,  // measure 45
0001
0000
0000
1000
0000
0000
0001
0000
0000
0000
0100
0000
0010
0000
0000
0000
,  // measure 46
1000
0000
0000
0100
0000
0000
0010
0000
0100
0000
1000
0000
0001
0000
0000
0000
,  // measure 47
0001
0000
0000
0010
0000
0000
0100
0000
0010
0000
0001
0000
1000
0000
0000
0000
,  // measure 48
0001
0000
0000
0010
0000
0000
0100
0000
0010
0000
0000
0010
0000
0000
0010
0000
,  // measure 49
0001
1000
0001
0000
0001
1000
0001
0000
,  // measure 50
0100
0010
0100
0001
0010
0100
1000
0000
,  // measure 51
1000
0000
1000
0000
0001
0000
0100
0010
,  // measure 52
0100
0100
0001
0001
,  // measure 53
1000
0001
1000
0000
1000
0001
1000
0000
,  // measure 54
0010
0100
0010
1000
0100
0010
0001
0000
,  // measure 55
0001
0000
0100
0000
0100
0010
1000
0000
,  // measure 56
0100
0010
0001
0000
0101
0000
0101
0000
,  // measure 57
2200
0000
0000
0000
,  // measure 58
3300
0000
0000
0000
;

//---------------dance-single - ----------------
#NOTES:
     dance-single:
     :
     Challenge:
     8:
     0.460,0.446,0.046,0.064,0.244: // measure 1
0000
0000
0000
0000
,  // measure 2
0000
0000
0000
0000
,  // measure 3
0000
0000
0000
0000
,  // measure 4
0000
0000
0000
0000
,  // measure 5
1000
0010
1000
0000
0010
0100
0010
0000
,  // measure 6
1000
0010
1000
0000
0010
0100
0010
0000
,  // measure 7
1000
0001
1000
0000
0001
0010
0001
0000
,  // measure 8
1000
0001
1000
0000
0001
0010
0001
0000
,  // measure 9
1000
0010
0100
0001
1000
0000
1000
0000
,  // measure 10
0001
0100
0010
1000
0001
0000
0001
0000
,  // measure 11
1000
0100
0010
0001
1000
0000
1000
0000
,  // measure 12
0001
0010
0100
1000
0001
0000
0001
0000
,  // measure 13
0010
0100
2000
0000
0001
0000
3001
0000
,  // measure 14
0100
0010
0002
0000
1000
0000
1003
0000
,  // measure 15
1000
0100
0010
0100
0000
1000
0001
0000
,  // measure 16
0001
0000
0100
0010
1000
0000
1000
0000
,  // measure 17
0100
0010
0002
0000
1000
0000
1003
0000
,  // measure 18
0010
0100
2000
0000
0001
0000
3001
0000
,  // measure 19
0001
0010
0100
0010
0000
0001
1000
0000
,  // measure 20
0010
0100
0010
1000
0001
0000
0010
1000
,  // measure 21
1001
0000
0001
0100
0010
0000
0001
0100
,  // measure 22
0010
0000
1000
0010
0100
0000
1000
0010
,  // measure 23
0100
0001
0010
0100
1000
0000
0010
0100
,  // measure 24
1000
0000
0100
0010
0001
0000
0100
0010
,  // measure 25
0001
0100
0001
0100
0010
1000
0010
1000
,  // measure 26
0100
0010
0100
0010
0001
1000
0001
1000
,  // measure 27
0001
0010
0001
0010
0100
1000
0100
1000
,  // measure 28
0100
0010
0100
0010
0002
0000
0000
0000
,  // measure 29
1003
0000
0000
0010
0000
0000
1000
0000
0000
0000
0001
0000
1000
0000
0000
0000
,  // measure 30
0001
0000
0000
0100
0000
0000
0001
0000
0000
0000
1000
0000
0001
0000
0000
0000
,  // measure 31
1000
0000
0000
0100
0000
0000
0010
0000
0000
0000
0001
0000
1000
0000
0000
0000
,  // measure 32
0001
0000
0000
0010
0000
0000
0100
0000
0000
0000
1000
0000
0001
0000
0010
0000
,  // measure 33
1000
0000
0000
0010
0000
0000
0100
0000
0000
0001
1000
0000
1000
0000
0000
0000
,  // measure 34
0001
0000
0000
0100
0000
0000
0010
0000
0000
1000
0001
0000
0001
0000
0000
0000
,  // measure 35
1000
0000
0000
0100
0000
0000
0010
0000
0000
0001
1000
0000
1000
0000
0000
0000
,  // measure 36
0001
0000
0000
0100
0000
0000
1000
0000
0001
0000
0100
0000
0001
0100
0001
0000
,  // measure 37
1000
0100
0000
0100
0000
0000
1000
0000
0000
0001
0100
0000
0100
0000
0000
0000
,  // measure 38
0001
0010
0000
0010
0000
0000
0001
0000
0000
1000
0010
0000
0010
0000
0000
0000
,  // measure 39
1000
0010
0000
0100
0000
0000
0010
0000
0000
1000
0001
0000
0001
0000
0000
0000
,  // measure 40
0001
0100
0000
0010
0000
0000
1000
0000
0000
0001
1000
0000
1000
0000
0100
0000
,  // measure 41
0001
1000
0000
0100
0000
0000
0001
0000
0000
0010
0100
0000
0100
0000
0000
0000
,  // measure 42
1000
0001
0000
0010
0000
0000
1000
0000
0000
0100
0010
0000
0010
0000
0000
0000
,  // measure 43
0001
0100
0000
0010
0000
0000
0100
0010
0000
0100
0001
0000
1000
0000
0000
0000
,  // measure 44
0100
0010
0000
0001
0000
0000
0100
0010
0000
0100
0001
0000
1000
0000
0000
0000
,  // measure 45
0010
1000
0000
0100
0000
0000
1000
0010
0000
0100
0010
0000
1000
0000
0000
0000
,  // measure 46
0001
0100
0000
0010
0000
0000
0100
0001
0000
0100
0010
0000
1000
0000
0000
0000
,  // measure 47
0100
0010
0000
0001
0000
0000
0010
0100
0000
0010
0100
0000
1000
0000
0000
0000
,  // measure 48
0010
0100
0000
0001
0000
0000
0010
0000
1010
0000
0000
1000
0000
0000
1000
0000
,  // measure 49
0100
0010
0001
0010
1000
0010
0001
0010
,  // measure 50
0100
1000
0100
0001
0010
0001
1000
0000
,  // measure 51
1000
0001
1000
0000
0001
0010
0001
0000
,  // measure 52
0100
0010
1000
0000
1000
0000
1000
0001
,  // measure 53
0010
0100
1000
0100
0001
0100
1000
0100
,  // measure 54
0010
0001
0010
1000
0100
0000
0100
0000
,  // measure 55
1000
0010
1000
0000
0001
0100
0001
0010
,  // measure 56
1000
0100
0010
0001
0101
0000
0101
0000
,  // measure 57
2002
0000
0000
0000
,  // measure 58
3003
0000
0000
0000
;

//---------------dance-single - ----------------
#NOTES:
     dance-single:
     :
     Beginner:
     1:
     0.055,0.103,0.009,0.000,0.000: // measure 1
0000
0000
0000
0000
,  // measure 2
0000
0000
0000
0000
,  // measure 3
0000
0000
0000
0000
,  // measure 4
0000
0000
0000
0000
,  // measure 5
1000
0000
0000
0000
,  // measure 6
0000
0000
0000
0000
,  // measure 7
0001
0000
0000
0000
,  // measure 8
0000
0000
0000
0000
,  // measure 9
1000
0000
0000
0000
,  // measure 10
0000
0000
0000
0000
,  // measure 11
1000
0000
0000
0000
,  // measure 12
0000
0000
0000
0000
,  // measure 13
0001
0000
0000
0000
,  // measure 14
0000
0000
0000
0000
,  // measure 15
0001
0000
0000
0000
,  // measure 16
0000
0000
0000
0000
,  // measure 17
1000
0000
0000
0000
,  // measure 18
0000
0000
0000
0000
,  // measure 19
0001
0000
0000
0000
,  // measure 20
0000
0000
0000
0000
,  // measure 21
0100
0000
0000
0000
,  // measure 22
0000
0000
0000
0000
,  // measure 23
0000
0000
0000
0000
,  // measure 24
0000
0000
0000
0000
,  // measure 25
0100
0000
0000
0000
,  // measure 26
0010
0000
0000
0000
,  // measure 27
0100
0000
0000
0000
,  // measure 28
0000
0000
0000
0000
,  // measure 29
0001
0000
0000
0000
,  // measure 30
1000
0000
0000
0000
,  // measure 31
0001
0000
0000
0000
,  // measure 32
0001
0000
0000
0000
,  // measure 33
1000
0000
0000
0000
,  // measure 34
0001
0000
0000
0000
,  // measure 35
1000
0000
0000
0000
,  // measure 36
1000
0000
0000
0000
,  // measure 37
0010
0000
0000
0000
,  // measure 38
0100
0000
0000
0000
,  // measure 39
0010
0000
0000
0000
,  // measure 40
1000
0000
0000
0000
,  // measure 41
0010
0000
0000
0000
,  // measure 42
0100
0000
0000
0000
,  // measure 43
0010
0000
0000
0000
,  // measure 44
0010
0000
0000
0000
,  // measure 45
1000
0000
0000
0000
,  // measure 46
0001
0000
0000
0000
,  // measure 47
1000
0000
0000
0000
,  // measure 48
1000
0000
0000
0000
,  // measure 49
0001
0000
0000
0000
,  // measure 50
0001
0000
0000
0000
,  // measure 51
1000
0000
0000
0000
,  // measure 52
1000
0000
0000
0000
,  // measure 53
0100
0000
0000
0000
,  // measure 54
0100
0000
0000
0000
,  // measure 55
0010
0000
0000
0000
,  // measure 56
0010
0000
0000
0000
,  // measure 57
1001
0000
0000
0000
;
