#TITLE:WALKIN' IN THE SUN;
#SUBTITLE:;
#ARTIST:YUKIHIRO FUKUTOMI featuring MOMOKO SUZUKI;
#TITLETRANSLIT:;
#SUBTITLETRANSLIT:;
#ARTISTTRANSLIT:;
#CREDIT:DMAxel;
#BANNER:WALKIN' IN THE SUN.png;
#BACKGROUND:WALKIN' IN THE SUN-bg.png;
#LYRICSPATH:;
#CDTITLE:Beatmania.png;
#MUSIC:WALKIN' IN THE SUN.mp3;
#OFFSET:-0.080;
#SAMPLESTART:61.942;
#SAMPLELENGTH:12.000;
#SELECTABLE:YES;
#BPMS:0.000=128.000;
#STOPS:;
#BGCHANGES:;

//---------------dance-single - ----------------
#NOTES:
     dance-single:
     :
     Easy:
     3:
     0.163,0.254,0.156,0.000,0.000: // measure 1
0000
0000
0000
0000
,  // measure 2
0000
0000
0000
0000
,  // measure 3
0000
0000
0000
0000
,  // measure 4
0000
0000
0000
0000
,  // measure 5
0000
0000
0000
0000
,  // measure 6
0100
0000
0000
0000
,  // measure 7
0010
0000
0000
0000
,  // measure 8
0100
0000
0000
0000
,  // measure 9
1001
0000
0000
0000
,  // measure 10
1001
1000
0000
0001
,  // measure 11
0000
1000
0000
0001
,  // measure 12
0000
0100
0000
0010
,  // measure 13
0000
0100
0000
0010
,  // measure 14
0000
1000
0000
0001
,  // measure 15
0000
1000
0000
0001
,  // measure 16
0000
0100
0000
0010
,  // measure 17
0000
0100
0000
0010
,  // measure 18
1001
1000
0000
0001
,  // measure 19
0000
0010
0000
0001
,  // measure 20
0000
0010
0000
0100
,  // measure 21
0000
1000
0010
0100
,  // measure 22
0001
1000
0000
0001
,  // measure 23
0000
1000
0000
0010
,  // measure 24
0000
0100
0000
0010
,  // measure 25
0100
1001
0010
1001
,  // measure 26
1001
0000
0010
0000
,  // measure 27
0100
0000
0010
0000
,  // measure 28
1000
0000
0001
0000
,  // measure 29
1000
0000
0010
0000
,  // measure 30
1001
0000
0100
0000
,  // measure 31
0010
0000
1000
0000
,  // measure 32
0010
0000
0100
0000
,  // measure 33
0001
1001
1000
1001
,  // measure 34
0010
0010
0010
0000
,  // measure 35
0100
0100
0100
0000
,  // measure 36
0001
1000
1001
0000
,  // measure 37
1000
0001
1001
0000
,  // measure 38
0010
0010
0010
0000
,  // measure 39
0100
0100
0100
0000
,  // measure 40
0001
1000
1001
0000
,  // measure 41
1000
0001
1001
0000
,  // measure 42
0100
0100
0100
0000
,  // measure 43
0010
0010
0010
0000
,  // measure 44
0001
1000
1001
0000
,  // measure 45
1000
0001
1001
0000
,  // measure 46
0010
0010
0010
0000
,  // measure 47
0100
0100
0100
0000
,  // measure 48
1000
0001
1001
0000
,  // measure 49
0010
0010
0101
1010
,  // measure 50
1001
0000
0000
0000
,  // measure 51
0000
0001
0000
0000
,  // measure 52
1000
0000
0000
0000
,  // measure 53
0001
0000
0000
0000
,  // measure 54
0100
0000
0000
0000
,  // measure 55
0010
0000
0000
0000
,  // measure 56
0100
0000
0000
0000
,  // measure 57
0010
0000
0000
0000
,  // measure 58
1001
0000
0000
0000
,  // measure 59
1000
0000
0000
0000
,  // measure 60
0001
0000
0000
0000
,  // measure 61
1000
0000
0000
0000
,  // measure 62
0010
0000
0000
0000
,  // measure 63
0100
0000
0000
0000
,  // measure 64
0010
0000
0000
0000
,  // measure 65
0100
0000
0000
0000
,  // measure 66
0001
0000
0000
0000
;

//---------------dance-single - ----------------
#NOTES:
     dance-single:
     :
     Hard:
     6:
     0.341,0.380,0.156,0.086,0.016: // measure 1
0000
0000
0000
0000
,  // measure 2
0000
0000
0000
0000
,  // measure 3
0000
0000
0000
0000
,  // measure 4
0100
0010
0100
0010
,  // measure 5
0100
0001
1000
0001
,  // measure 6
1000
0001
0010
0001
,  // measure 7
0010
0100
1000
0100
,  // measure 8
1000
0001
1000
0001
,  // measure 9
0010
0101
0010
1010
,  // measure 10
1001
0000
0010
0000
0100
0001
0010
0000
,  // measure 11
0001
0000
1000
0000
0010
1000
0100
0000
,  // measure 12
0010
0000
0001
0000
0100
0010
1000
0000
,  // measure 13
0010
0000
0100
0000
0001
0010
0100
0000
,  // measure 14
1000
0000
0100
0000
1000
0100
0010
0000
,  // measure 15
0001
0000
0100
0000
0010
1000
0100
0000
,  // measure 16
0010
0000
0001
0000
0010
0001
0100
0000
,  // measure 17
0010
0000
1000
0000
0100
1000
0010
0100
,  // measure 18
1001
0000
0010
0000
0001
0100
0010
0000
,  // measure 19
1000
0000
0010
0000
0100
0010
0100
0001
,  // measure 20
0010
0000
0001
0000
0100
0010
1000
0000
,  // measure 21
0100
0000
1000
0000
0010
0100
0010
1000
,  // measure 22
0100
0000
0010
0000
0001
0100
0010
0000
,  // measure 23
1000
0000
0010
0000
0100
0001
1000
0000
,  // measure 24
0010
0000
0100
0000
0010
0100
0001
0000
,  // measure 25
0010
0011
0100
1100
,  // measure 26
1001
0000
0100
0000
0010
0001
0100
1000
,  // measure 27
0010
0000
0100
0000
0010
1000
0100
0001
,  // measure 28
0010
0000
0001
0000
1000
0100
0010
0001
,  // measure 29
0100
0010
0100
0010
,  // measure 30
1001
0000
0010
0000
0100
0001
0010
1000
,  // measure 31
0100
0000
0010
0000
0100
0001
0010
1000
,  // measure 32
0100
0010
0001
1001
,  // measure 33
0011
1100
0011
1100
,  // measure 34
0001
0100
0010
0100
0001
0000
0100
0000
,  // measure 35
0010
1000
0100
1000
0010
0000
0100
0000
,  // measure 36
0001
0000
1000
0000
0001
0010
1000
0000
,  // measure 37
0010
0000
0100
0000
0001
0100
1000
0000
,  // measure 38
0001
0100
0010
0100
0001
0000
0100
0000
,  // measure 39
0010
1000
0100
1000
0010
0000
0100
0000
,  // measure 40
0001
0100
1000
0000
1001
0000
0010
0000
,  // measure 41
1000
0010
0001
0000
1001
0000
0100
0000
,  // measure 42
0010
1000
0100
1000
0010
0000
0100
0000
,  // measure 43
0001
0100
0010
0100
0001
0000
0010
0000
,  // measure 44
0001
0010
1000
0000
1001
0000
0100
0000
,  // measure 45
1000
0100
0001
0000
1001
0000
0010
0000
,  // measure 46
0100
0010
1000
0010
0100
0000
0010
0000
,  // measure 47
0100
0001
0010
0001
0100
0000
0010
0000
,  // measure 48
0100
0001
0010
0100
1001
0000
1100
0000
,  // measure 49
0010
0100
0000
0000
0100
0001
0000
0000
0001
1000
0000
1000
0001
0000
0000
0000
,  // measure 50
1001
0020
0000
0000
,  // measure 51
0000
0230
0000
0000
,  // measure 52
0301
1000
0001
0000
,  // measure 53
0100
0010
0100
0000
,  // measure 54
0020
0000
0000
0000
,  // measure 55
0230
0000
0000
0000
,  // measure 56
0310
0100
0010
0000
,  // measure 57
1000
0001
1000
0000
,  // measure 58
0002
0000
0000
0000
,  // measure 59
0023
0000
0000
0000
,  // measure 60
0230
0000
0000
0000
,  // measure 61
2300
0000
0000
0000
,  // measure 62
3001
0010
0100
1000
,  // measure 63
0010
0100
0010
1000
,  // measure 64
0002
0100
0100
0000
,  // measure 65
0203
0000
0320
0000
,  // measure 66
1030
0000
0000
0000
;

//---------------dance-single - ----------------
#NOTES:
     dance-single:
     :
     Medium:
     4:
     0.236,0.304,0.179,0.226,0.000: // measure 1
0000
0000
0000
0000
,  // measure 2
0000
0000
0000
0000
,  // measure 3
0000
0000
0000
0000
,  // measure 4
0000
0000
0000
0000
,  // measure 5
0000
0000
0000
0000
,  // measure 6
0001
1000
0001
1000
,  // measure 7
0010
0100
0010
0100
,  // measure 8
0001
1000
0001
1000
,  // measure 9
0010
1010
0100
0101
,  // measure 10
1001
0010
0002
0000
,  // measure 11
0103
0010
2000
0000
,  // measure 12
3010
0100
0002
0000
,  // measure 13
0013
0100
2000
0000
,  // measure 14
3100
0010
0002
0000
,  // measure 15
0103
0010
2000
0000
,  // measure 16
3010
0100
0002
0000
,  // measure 17
1003
0000
0010
1000
,  // measure 18
1001
0100
0020
0000
,  // measure 19
1030
0001
0200
0000
,  // measure 20
0310
1000
0002
0000
,  // measure 21
0013
0001
0200
0000
,  // measure 22
0310
1000
0200
0000
,  // measure 23
1300
0010
0200
0000
,  // measure 24
0301
0010
0002
0000
,  // measure 25
0103
1001
0010
1001
,  // measure 26
1001
0010
0100
0001
,  // measure 27
0010
0000
0100
1000
,  // measure 28
0010
0100
0000
0001
,  // measure 29
0000
1000
0010
0100
,  // measure 30
1001
0000
0010
0100
,  // measure 31
0001
0000
0100
0010
,  // measure 32
1000
0000
0010
0010
,  // measure 33
1001
0100
1001
0010
,  // measure 34
1001
0010
0200
0000
,  // measure 35
1300
0010
0200
0000
,  // measure 36
0301
0010
1001
0000
,  // measure 37
1000
0010
1001
0000
,  // measure 38
0010
0100
0002
0000
,  // measure 39
0103
0010
2000
0000
,  // measure 40
3010
0100
1001
0000
,  // measure 41
0100
0010
1001
0000
,  // measure 42
0010
1000
1001
0000
,  // measure 43
0010
0001
1001
0000
,  // measure 44
0100
0010
2000
0000
,  // measure 45
3010
0100
0002
0000
,  // measure 46
0103
0010
1000
0000
,  // measure 47
0010
0100
0001
0000
,  // measure 48
0010
0001
1001
0000
,  // measure 49
1100
1100
0011
0011
,  // measure 50
1001
0100
0000
0000
,  // measure 51
0000
0010
0000
0000
,  // measure 52
0100
0000
0000
0000
,  // measure 53
0001
0000
0000
0000
,  // measure 54
2000
0000
0000
0000
,  // measure 55
3002
0000
0000
0000
,  // measure 56
0103
0000
0000
0000
,  // measure 57
0010
0000
0000
0000
,  // measure 58
2000
0000
0000
0000
,  // measure 59
3020
0000
0000
0000
,  // measure 60
0130
0000
0000
0000
,  // measure 61
0002
0000
0000
0000
,  // measure 62
0023
0000
0000
0000
,  // measure 63
0230
0000
0000
0000
,  // measure 64
2300
0000
0000
0000
0000
0000
0000
3010
,  // measure 65
0100
0020
0000
0000
0000
0000
0000
0000
,  // measure 66
1030
0000
0000
0000
;

//---------------dance-single - ----------------
#NOTES:
     dance-single:
     :
     Challenge:
     7:
     0.423,0.457,0.140,0.055,0.269: // measure 1
0000
0000
0000
0000
,  // measure 2
0000
0000
0000
0000
,  // measure 3
0000
0000
0000
0000
,  // measure 4
0000
0000
0100
0000
0000
0100
0000
0000
0000
0010
0000
0000
0010
0000
0000
0000
,  // measure 5
0000
0000
1000
0000
0000
1000
0000
0000
0000
0001
0000
0000
0001
0000
0000
0000
,  // measure 6
0000
0000
0100
0000
0000
0100
0000
0000
0000
0001
0000
0000
0001
0000
0000
0000
,  // measure 7
0000
0000
0100
0000
0000
0100
0000
0000
0000
0010
0000
0000
0010
0000
0000
0000
,  // measure 8
0000
0000
1000
0000
0000
1000
0000
0000
0000
0100
0000
0000
0100
0000
0000
0000
,  // measure 9
0010
0001
0000
0000
0001
0100
0000
0000
0100
0010
0000
0010
1000
0000
0001
0000
,  // measure 10
1001
0000
0000
0000
0010
0000
0000
0010
0100
0000
0000
0100
0010
0000
0000
0000
,  // measure 11
1000
0000
0010
0000
0100
0000
0000
0001
1000
0000
0000
1000
0001
0000
0000
0000
,  // measure 12
0010
0000
0000
0000
0100
0000
0000
1000
0010
0000
0000
0010
0100
0000
0001
0000
,  // measure 13
0010
0000
0000
0000
0001
0000
0000
0001
1000
0000
0000
1000
0100
0000
1000
0000
,  // measure 14
0010
0000
0000
0000
0100
0000
0000
0010
1000
0000
0000
1000
0100
0000
0000
0000
,  // measure 15
1000
0000
0100
0000
0010
0000
0000
0001
0100
0000
0000
0100
0010
0000
0000
0000
,  // measure 16
0100
0000
0000
0000
0010
0000
0000
1000
0010
0000
0100
0000
0010
0000
0100
0000
,  // measure 17
0001
0100
0000
0000
0010
0000
1000
0000
0100
0000
0000
0001
0000
0000
0010
0000
,  // measure 18
1001
0000
0000
0000
0010
0000
0000
0001
0100
0000
0000
0100
0010
0000
1000
0000
,  // measure 19
0010
0000
0000
0000
0100
0000
0000
0000
0001
0000
0000
0100
0000
0000
0010
0000
,  // measure 20
0100
0000
0000
0000
0001
0000
0000
0100
0010
0000
0000
0010
1000
0000
0100
0000
,  // measure 21
1000
0000
0000
0000
0010
0000
0100
0000
0010
0000
0000
1000
0000
0000
0010
0000
,  // measure 22
0100
0000
0000
0000
0001
0000
0000
0010
0001
0000
0000
0001
0100
0000
0010
0000
,  // measure 23
0100
0000
0000
0000
0010
0000
0000
1000
0010
0000
0000
0010
0100
0000
0000
0000
,  // measure 24
0010
0000
0100
0001
0010
0100
1000
0010
,  // measure 25
0101
0000
0000
0000
0011
0000
0000
0000
0100
1000
0000
1000
0010
0000
1000
0000
,  // measure 26
1001
0000
0001
0000
0000
0010
0000
0000
0010
0000
0001
0000
0100
0000
1000
0000
,  // measure 27
0010
0000
0100
0000
0000
0010
0000
0000
0010
0000
1000
0000
0100
0000
0001
0000
,  // measure 28
0010
0000
0001
0000
0000
0001
0000
0000
1000
0000
0100
0000
0010
0000
0001
0000
,  // measure 29
0100
0000
0010
0000
0000
1000
0000
0000
0100
0000
1000
0000
0010
0000
0000
0000
,  // measure 30
1001
0000
0001
0000
0000
0100
0000
0000
0100
0000
0001
0000
0010
0000
1000
0000
,  // measure 31
0100
0000
1000
0000
0000
0010
0000
0000
0100
0000
0001
0000
0010
0000
1000
0000
,  // measure 32
0100
0000
1000
0000
0000
0010
0000
0000
0100
0000
0000
0000
1001
0000
0000
0000
,  // measure 33
0011
0000
0000
0000
1100
0000
0000
0000
0001
0100
0000
0100
0010
0000
1000
0000
,  // measure 34
1001
0100
0010
0100
0001
0100
1000
0000
,  // measure 35
0010
0000
1000
0000
0100
0000
1000
0000
0010
0000
0000
0100
0000
0000
0001
0000
,  // measure 36
1000
0100
0001
0100
1000
1001
0000
0000
,  // measure 37
0001
0010
1000
0010
0001
1001
0000
0000
,  // measure 38
0001
0100
0010
0100
0001
0100
1000
0000
,  // measure 39
0010
1000
0100
1000
0010
0100
0010
0000
,  // measure 40
1000
0010
0001
0010
1000
1001
0000
0000
,  // measure 41
0001
0100
1000
0100
0001
1001
0000
0000
,  // measure 42
0010
1000
0100
1000
0010
0100
0001
0000
,  // measure 43
0100
0001
0010
0001
0100
0010
1000
0000
,  // measure 44
0001
0010
1000
0010
0001
1001
0000
0000
,  // measure 45
1000
0100
0001
0100
1000
1001
0000
0000
,  // measure 46
0100
0000
0010
0000
1000
0000
0010
0000
0100
0000
0000
0100
0010
0000
0000
0000
,  // measure 47
0100
0001
0010
0001
1000
0010
0001
0000
,  // measure 48
0100
0001
0010
0100
1001
0100
1000
0000
,  // measure 49
0010
0100
0000
0000
0100
0001
0000
0000
0001
1000
0000
1000
0001
0000
0100
0000
,  // measure 50
1001
0020
0000
0000
,  // measure 51
0000
0230
0000
0000
,  // measure 52
0301
0010
0001
0000
,  // measure 53
1000
0000
0000
0000
0010
0000
0000
0000
1000
0000
0000
0010
0000
0000
0100
0000
,  // measure 54
0020
0000
0000
0000
,  // measure 55
2030
0000
0000
0000
0000
0000
0000
0000
0000
0000
3100
0000
0000
0010
0000
0000
,  // measure 56
0002
0000
0000
0000
0000
0000
0000
0103
,  // measure 57
0010
0000
0000
1000
0000
0010
0000
0100
0000
0000
0001
0000
0100
0000
0010
0000
,  // measure 58
2000
0000
0000
0000
,  // measure 59
3020
0000
0000
0000
,  // measure 60
0130
0010
1000
0000
,  // measure 61
0010
0000
0000
0000
0100
0000
0000
0000
0001
0000
0100
0000
0001
0000
0000
0010
,  // measure 62
0000
0100
0000
0000
1000
0000
0000
0000
0100
0000
0000
1000
0000
0001
0000
0000
,  // measure 63
1000
0000
0010
0000
1000
0000
0000
0010
0000
0100
0000
0000
0001
0000
1000
0000
,  // measure 64
0001
0000
0010
0000
0001
0000
0000
0100
,  // measure 65
0010
0000
0100
0000
0000
0010
0000
1000
0000
0000
0100
0000
0010
0000
0000
0000
,  // measure 66
0001
0000
0000
0000
;

//---------------dance-single - ----------------
#NOTES:
     dance-single:
     :
     Beginner:
     2:
     0.084,0.178,0.062,0.000,0.000: // measure 1
0000
0000
0000
0000
,  // measure 2
0000
0000
0000
0000
,  // measure 3
0000
0000
0000
0000
,  // measure 4
0000
0000
0000
0000
,  // measure 5
0000
0000
0000
0000
,  // measure 6
0001
0000
0000
0000
,  // measure 7
1000
0000
0000
0000
,  // measure 8
0001
0000
0000
0000
,  // measure 9
0100
0000
0000
0000
,  // measure 10
1001
0000
0010
0000
,  // measure 11
0000
0000
0010
0000
,  // measure 12
0000
0000
0100
0000
,  // measure 13
0000
0000
0100
0000
,  // measure 14
0000
0000
0001
0000
,  // measure 15
0000
0000
0001
0000
,  // measure 16
0000
0000
1000
0000
,  // measure 17
0000
0000
1000
0000
,  // measure 18
1001
0000
0100
0000
,  // measure 19
0000
0000
0100
0000
,  // measure 20
0000
0000
1000
0000
,  // measure 21
0000
0000
1000
0000
,  // measure 22
0000
0000
0001
0000
,  // measure 23
0000
0000
0001
0000
,  // measure 24
0000
0000
0010
0000
,  // measure 25
0010
0000
0000
0000
,  // measure 26
1001
0000
1000
0000
,  // measure 27
1000
0000
0001
0000
,  // measure 28
0001
0000
0000
0000
,  // measure 29
0000
0000
0000
0000
,  // measure 30
0100
0000
0100
0000
,  // measure 31
0100
0000
0010
0000
,  // measure 32
0010
0000
0000
0000
,  // measure 33
1001
0000
1001
0000
,  // measure 34
1001
0000
0000
0000
,  // measure 35
1000
0000
0000
0000
,  // measure 36
0010
0000
0010
0000
,  // measure 37
0100
0000
0100
0000
,  // measure 38
0001
0000
0000
0000
,  // measure 39
0001
0000
0000
0000
,  // measure 40
0100
0000
0100
0000
,  // measure 41
0010
0000
0010
0000
,  // measure 42
1001
0000
0000
0000
,  // measure 43
0001
0000
0000
0000
,  // measure 44
0100
0000
0100
0000
,  // measure 45
0010
0000
0010
0000
,  // measure 46
1000
0000
0000
0000
,  // measure 47
1000
0000
0000
0000
,  // measure 48
0010
0000
0010
0000
,  // measure 49
0100
0000
0000
0000
,  // measure 50
1001
0000
0000
0000
,  // measure 51
0000
0000
0000
0000
,  // measure 52
1000
0000
0000
0000
,  // measure 53
0000
0000
0000
0000
,  // measure 54
0001
0000
0000
0000
,  // measure 55
0000
0000
0000
0000
,  // measure 56
0001
0000
0000
0000
,  // measure 57
0000
0000
0000
0000
,  // measure 58
0100
0000
0000
0000
,  // measure 59
0000
0000
0000
0000
,  // measure 60
0100
0000
0000
0000
,  // measure 61
0000
0000
0000
0000
,  // measure 62
0010
0000
0000
0000
,  // measure 63
0000
0000
0000
0000
,  // measure 64
0010
0000
0000
0000
,  // measure 65
1000
0000
0000
0000
,  // measure 66
0001
0000
0000
0000
;
