#TITLE:TwinBee;
#SUBTITLE:~Generation X~ (another);
#ARTIST:FinalOffset;
#TITLETRANSLIT:;
#SUBTITLETRANSLIT:;
#ARTISTTRANSLIT:;
#CREDIT:DMAxel;
#BANNER:TwinBee ~Generation X~ (another).png;
#BACKGROUND:TwinBee ~Generation X~ (another)-bg.png;
#LYRICSPATH:;
#CDTITLE:beatmania III.png;
#MUSIC:TwinBee ~Generation X~ (another).mp3;
#OFFSET:0.020;
#SAMPLESTART:19.158;
#SAMPLELENGTH:12.000;
#SELECTABLE:YES;
#DISPLAYBPM:169.000;
#BPMS:0.000=169.000,12.000=84.500,15.000=169.000,183.000=84.500,185.000=169.000;
#STOPS:;
#BGCHANGES:;

//---------------dance-single - ----------------
#NOTES:
     dance-single:
     :
     Easy:
     4:
     0.363,0.443,0.473,0.072,0.000: // measure 1
0000
0000
0000
0000
,  // measure 2
0000
0000
0000
0000
,  // measure 3
0000
0000
0000
0000
,  // measure 4
0000
0000
0000
0010
,  // measure 5
0010
0010
0010
0100
,  // measure 6
0010
0100
0000
0000
,  // measure 7
1001
0000
1001
0010
,  // measure 8
0100
0010
0000
0000
,  // measure 9
1001
0000
1001
0100
,  // measure 10
0010
0100
0000
0000
,  // measure 11
1001
0000
1001
0010
,  // measure 12
0100
0010
0000
0000
,  // measure 13
1001
0000
1001
0000
,  // measure 14
0010
0010
0010
0001
,  // measure 15
0100
0001
0100
0001
,  // measure 16
0100
0010
0010
0020
,  // measure 17
0000
2000
3030
0100
,  // measure 18
0100
0100
1001
0010
,  // measure 19
1000
0010
1000
0010
,  // measure 20
0100
0011
1100
0001
,  // measure 21
0100
0001
0100
0010
,  // measure 22
0100
0011
1100
0010
,  // measure 23
0001
0100
0001
0010
,  // measure 24
0001
0100
0100
0200
,  // measure 25
0000
0002
0303
1010
,  // measure 26
0101
0110
0110
1001
,  // measure 27
0010
0001
0000
0100
,  // measure 28
0010
1000
0000
0010
,  // measure 29
0100
0001
0000
0010
,  // measure 30
0101
1010
1001
0100
,  // measure 31
1000
0100
1000
0100
,  // measure 32
1000
0100
0010
0101
,  // measure 33
0000
0101
0000
1100
,  // measure 34
1100
1000
1000
1001
,  // measure 35
0010
0001
0100
0001
,  // measure 36
0010
0001
0100
0000
,  // measure 37
0010
0000
1000
0000
,  // measure 38
0010
1000
0100
1000
,  // measure 39
1000
1001
0000
0010
,  // measure 40
0100
0000
0001
0010
,  // measure 41
0001
0010
0100
1010
,  // measure 42
0000
0010
0000
0000
0101
0000
0010
0000
,  // measure 43
0100
0001
0000
0010
,  // measure 44
0100
1000
0010
0101
,  // measure 45
0000
1010
0000
1001
,  // measure 46
0010
0001
0010
1100
,  // measure 47
0000
0020
0000
0000
,  // measure 48
0000
0000
0030
0000
;

//---------------dance-single - ----------------
#NOTES:
     dance-single:
     :
     Hard:
     8:
     0.564,0.545,0.416,0.230,0.029: // measure 1
0000
0000
0000
0000
,  // measure 2
0000
0000
0000
0000
,  // measure 3
0000
0000
0000
0000
,  // measure 4
0000
0000
0000
0100
,  // measure 5
0100
0100
0100
1010
,  // measure 6
0010
0000
0100
0200
0000
0301
0000
1000
,  // measure 7
0100
0001
0000
1000
0100
0001
1000
0000
,  // measure 8
1100
0000
0010
0020
0000
0031
0000
0001
,  // measure 9
0010
1000
0000
0001
0010
1000
0001
0000
,  // measure 10
0011
0000
0100
0200
0000
1300
0000
1000
,  // measure 11
0010
0001
0000
1000
0010
0001
1000
0000
,  // measure 12
1010
0000
0100
0200
0000
0301
0000
0001
,  // measure 13
0100
1000
0000
0001
0100
1000
0020
0000
,  // measure 14
0100
0100
0130
0001
,  // measure 15
0100
0001
0000
0100
0010
2000
0000
0000
,  // measure 16
3010
0100
0010
0200
,  // measure 17
0000
0001
0301
0000
0010
0000
0002
0000
,  // measure 18
1000
0000
1003
0000
1001
0000
0010
0100
,  // measure 19
0000
0100
0001
0000
0001
1000
0100
1000
,  // measure 20
0001
0000
0110
0000
1001
0000
0100
0010
,  // measure 21
0000
0010
1000
0000
1000
0001
0010
0001
,  // measure 22
1000
0110
1001
0010
,  // measure 23
0100
0001
0000
0010
0100
2000
0000
0000
,  // measure 24
3010
0100
0010
1002
,  // measure 25
0000
0010
0013
0000
0200
0000
1000
0000
,  // measure 26
1300
0000
1001
0000
1001
0000
0100
0001
,  // measure 27
0010
0001
0100
0200
0000
0301
0000
0010
,  // measure 28
1000
0100
1000
0020
0000
1030
0000
0100
,  // measure 29
0001
0010
0001
0100
0000
0010
1000
0000
,  // measure 30
0011
0000
1100
0000
1001
0000
0010
0001
,  // measure 31
0010
0001
0100
0100
0010
1000
0000
0001
,  // measure 32
0010
1000
0000
0001
0010
1000
1001
0000
,  // measure 33
0010
1001
0100
1001
,  // measure 34
0010
0000
1000
0001
1000
0001
1000
0000
,  // measure 35
0100
1000
0100
1000
0100
0001
0000
1000
,  // measure 36
0100
0001
0000
1000
0100
0001
0000
0001
,  // measure 37
0010
1000
0000
0001
0010
1000
0000
0001
,  // measure 38
0010
1000
0000
1000
0100
0010
0001
0000
,  // measure 39
0110
0000
1000
1001
0000
0000
0001
0010
,  // measure 40
0100
2000
0000
0000
3100
0010
0001
0000
,  // measure 41
0110
0000
1001
0000
1000
0001
1000
1001
,  // measure 42
0000
0010
0110
0000
1001
0000
0100
0000
,  // measure 43
0001
0010
0100
1000
0000
0100
1000
0100
,  // measure 44
0010
0002
0000
0000
0103
0000
1001
0000
,  // measure 45
0010
1001
0100
1001
,  // measure 46
0010
0000
1000
0100
0010
0001
1001
0000
,  // measure 47
0000
0000
0000
0100
0000
0001
0010
0001
1000
0010
0000
0100
,  // measure 48
0002
0000
0003
0000
;

//---------------dance-single - ----------------
#NOTES:
     dance-single:
     :
     Challenge:
     8:
     0.654,0.579,0.775,0.072,0.029: // measure 1
0000
0000
0000
0000
,  // measure 2
0000
0000
0000
0000
,  // measure 3
0000
0000
0000
0000
,  // measure 4
0000
0000
0000
0011
,  // measure 5
1100
0000
0011
0000
1001
0000
0001
0100
,  // measure 6
0001
0100
0010
1000
0000
1001
0000
0001
,  // measure 7
0100
1000
0000
0001
0100
1000
0100
1000
,  // measure 8
0001
0010
0001
0010
0000
1001
0000
1000
,  // measure 9
0100
0001
0000
1000
0100
0001
0100
0001
,  // measure 10
1000
0010
1000
0010
0000
1001
0000
0001
,  // measure 11
0010
1000
0000
0001
0010
1000
0010
1000
,  // measure 12
0001
0100
0001
0100
0000
1001
0000
1000
,  // measure 13
0010
0001
0000
1000
0010
0001
0010
0010
,  // measure 14
0011
0000
1100
0000
1001
0000
0100
1000
,  // measure 15
0010
1000
0100
0010
0001
0010
0000
0001
,  // measure 16
0100
0010
1001
0000
0110
0000
1002
0000
,  // measure 17
0000
1000
1003
0000
0010
0100
0101
0000
,  // measure 18
1010
0000
1001
0000
1001
0000
0010
0001
,  // measure 19
0100
0001
0100
1000
0100
0001
0100
0010
,  // measure 20
1000
0000
0001
0001
1001
0000
0100
1000
,  // measure 21
0010
1000
0010
0001
0010
1000
0010
0100
,  // measure 22
0001
0000
1000
1000
1001
0000
0010
0100
,  // measure 23
0001
0100
0001
0010
0100
1000
0000
0010
,  // measure 24
0100
0001
0011
0000
1100
0000
1000
1010
,  // measure 25
0000
0001
0101
0000
1010
0000
0110
0000
,  // measure 26
0101
0000
1000
0010
0001
0100
1000
0010
,  // measure 27
1000
0010
0100
0001
0000
0101
0000
0010
,  // measure 28
0001
0100
0010
1000
0000
1010
0000
0100
,  // measure 29
1000
0100
0010
0001
0000
0100
0101
0000
,  // measure 30
1010
0000
0110
0000
0101
0000
0010
0001
,  // measure 31
0100
0001
0010
0001
0100
0010
0000
1000
,  // measure 32
0010
0001
0000
1000
0100
0001
1001
0000
,  // measure 33
0110
1001
0110
1001
,  // measure 34
1100
0000
0010
0001
0010
0001
0010
1000
,  // measure 35
0010
0001
0010
0100
1000
0100
0000
1000
,  // measure 36
0010
0001
0000
1000
0010
0001
0000
0001
,  // measure 37
0100
1000
0000
0001
0100
1000
0000
0010
,  // measure 38
0100
0001
0010
0001
0010
0100
1000
0000
,  // measure 39
1100
0000
0001
0011
0000
0000
0001
0010
,  // measure 40
0100
2000
0000
0000
3010
0100
0101
0000
,  // measure 41
0110
0000
1010
0000
0001
1000
0100
1100
,  // measure 42
0000
0010
0011
0000
1001
0000
1000
0100
,  // measure 43
0010
0001
0010
0200
0000
0000
1300
0100
,  // measure 44
0010
0001
0020
0000
0031
0000
0110
0000
,  // measure 45
1001
0110
1001
1010
,  // measure 46
0101
0000
0001
0100
1000
0010
1001
0000
,  // measure 47
0000
0000
0000
0010
0000
1000
0100
1000
0001
0100
0000
0010
,  // measure 48
0200
0000
0300
0000
;

//---------------dance-single - ----------------
#NOTES:
     dance-single:
     :
     Medium:
     6:
     0.459,0.477,0.316,0.230,0.000: // measure 1
0000
0000
0000
0000
,  // measure 2
0000
0000
0000
0000
,  // measure 3
0000
0000
0000
0000
,  // measure 4
0000
0000
0000
0010
,  // measure 5
0010
0010
0010
0100
,  // measure 6
0001
0000
0100
0010
0000
1001
0000
0100
,  // measure 7
1000
0000
0000
0100
1000
0000
0010
0000
,  // measure 8
1000
0000
0010
0100
0000
1001
0000
0010
,  // measure 9
0001
0000
0000
0010
0001
0000
0100
0000
,  // measure 10
0001
0000
0100
0010
0000
1001
0000
0010
,  // measure 11
1000
0000
0000
0010
1000
0000
0010
0000
,  // measure 12
0100
0000
0010
1000
0000
1001
0000
0100
,  // measure 13
0001
0000
0000
0100
0001
0000
0100
0000
,  // measure 14
0100
0100
0100
0010
,  // measure 15
1000
0010
0000
0100
0001
0200
0000
0000
,  // measure 16
0000
0310
1000
0002
,  // measure 17
0000
1000
2003
0000
0000
0000
3010
0000
,  // measure 18
0010
0010
1001
2000
,  // measure 19
0000
3020
0000
0000
2030
0000
0000
3020
,  // measure 20
0000
0000
1030
0100
0010
0000
0002
0000
,  // measure 21
0000
0203
0000
0000
0302
0000
0000
0203
,  // measure 22
0000
0000
0301
0010
0100
0000
1000
0000
,  // measure 23
0001
0100
0000
0010
1000
0020
0000
0000
,  // measure 24
0000
0000
0130
0000
0001
0000
1000
0100
,  // measure 25
0000
0010
0001
0000
0100
0000
0100
0000
,  // measure 26
0100
0000
0100
0100
0100
0100
0100
0001
,  // measure 27
0100
0000
0010
0100
0000
1001
0000
0010
,  // measure 28
1000
0000
0010
1000
0000
1001
0000
0010
,  // measure 29
0001
0000
0010
0001
0000
0100
0100
0000
,  // measure 30
0011
1100
1001
0010
,  // measure 31
1000
0000
0100
0000
0010
0001
0000
0001
,  // measure 32
0010
0000
0000
0100
1000
0000
0110
0000
,  // measure 33
0000
1001
0000
0110
,  // measure 34
1001
0000
0010
0010
0010
0010
0010
0000
,  // measure 35
0100
0000
0001
0000
0010
0100
0000
1000
,  // measure 36
0010
0000
0000
1000
0010
0000
0000
0100
,  // measure 37
0001
0000
0000
0100
0001
0000
0000
1000
,  // measure 38
0001
0000
0000
0001
1000
0000
0100
0000
,  // measure 39
1100
0000
0010
0001
0000
0000
0100
0010
,  // measure 40
0100
0020
0000
0000
1030
0001
1000
0000
,  // measure 41
0100
0000
0010
0000
0001
0000
0100
0100
,  // measure 42
0000
0010
0010
0000
1001
0000
0010
0000
,  // measure 43
0011
0000
0100
1000
0000
0000
0010
0100
,  // measure 44
0010
0200
0000
0000
0301
1000
0001
0000
,  // measure 45
1001
0100
1001
0010
,  // measure 46
1001
0000
1000
0100
0010
0000
1001
0000
,  // measure 47
0000
0220
0000
0000
,  // measure 48
0000
0000
0330
0000
;

//---------------dance-single - ----------------
#NOTES:
     dance-single:
     :
     Beginner:
     2:
     0.148,0.197,0.086,0.000,0.000: // measure 1
0000
0000
0000
0000
,  // measure 2
0000
0000
0000
0000
,  // measure 3
0000
0000
0000
0000
,  // measure 4
0000
0000
0000
0000
,  // measure 5
0000
0000
0000
0010
,  // measure 6
0000
0010
0000
0000
,  // measure 7
0000
0000
0000
0100
,  // measure 8
0000
0100
0000
0000
,  // measure 9
0000
0000
0000
0010
,  // measure 10
0000
0010
0000
0000
,  // measure 11
0000
0000
0000
1000
,  // measure 12
0000
1000
0000
0000
,  // measure 13
0000
0000
0000
0001
,  // measure 14
0000
0000
0000
1000
,  // measure 15
0000
0001
0000
1000
,  // measure 16
0000
0001
0000
1000
,  // measure 17
0000
0000
0000
0010
,  // measure 18
0000
0000
0000
0100
,  // measure 19
0000
0010
0000
0100
,  // measure 20
0000
0010
0000
1000
,  // measure 21
0000
0001
0000
1000
,  // measure 22
0000
0001
0000
1000
,  // measure 23
0000
0010
0000
1000
,  // measure 24
0000
0010
0000
1000
,  // measure 25
0000
0000
0000
0001
,  // measure 26
0000
0000
0000
0100
,  // measure 27
0000
0001
0000
0100
,  // measure 28
0000
0001
0000
0100
,  // measure 29
0000
0010
0000
1001
,  // measure 30
0000
0000
0000
1000
,  // measure 31
0000
0001
0000
1000
,  // measure 32
0000
0001
0000
1001
,  // measure 33
0000
1000
0000
1001
,  // measure 34
0000
0001
0000
0010
,  // measure 35
0000
0001
0000
0010
,  // measure 36
0000
0001
0000
1000
,  // measure 37
0000
0001
0000
1000
,  // measure 38
0000
0100
0000
1000
,  // measure 39
0000
0001
0000
0010
,  // measure 40
0000
0000
0000
0001
,  // measure 41
0000
1000
0000
0100
,  // measure 42
0000
0000
0000
1000
,  // measure 43
0000
0010
0000
0100
,  // measure 44
0000
0000
0000
1001
,  // measure 45
0000
0001
0000
1001
,  // measure 46
0000
1000
0000
1001
;
