#TITLE:Treasures!!;
#SUBTITLE:;
#ARTIST:スフィア;
#TITLETRANSLIT:;
#SUBTITLETRANSLIT:;
#ARTISTTRANSLIT:sphere;
#CREDIT:DMAxel;
#BANNER:Treasures!!.png;
#BACKGROUND:Treasures!!-bg.png;
#LYRICSPATH:Treasures!!.lrc;
#CDTITLE:DMAxel Original Simfile.png;
#MUSIC:Treasures!!.MP3;
#OFFSET:-1.080;
#SAMPLESTART:73.050;
#SAMPLELENGTH:12.000;
#SELECTABLE:YES;
#BPMS:0.000=165.000;
#STOPS:;
#BGCHANGES:;

//---------------dance-single - ----------------
#NOTES:
     dance-single:
     :
     Easy:
     3:
     0.235,0.302,0.129,0.057,0.000: // measure 1
0000
0000
0000
0000
,  // measure 2
0000
0000
0000
0000
,  // measure 3
0000
0000
0000
0000
,  // measure 4
0000
0000
0000
0000
,  // measure 5
0001
0000
1000
0000
,  // measure 6
0001
0000
1000
0000
,  // measure 7
0001
0000
0010
0000
,  // measure 8
0001
0000
0000
0000
,  // measure 9
1001
0000
1000
0000
,  // measure 10
0100
1000
0100
0000
,  // measure 11
1001
0000
0001
0000
,  // measure 12
0010
0001
0010
0000
,  // measure 13
1001
0000
1000
0000
,  // measure 14
0010
1000
0010
0000
,  // measure 15
1001
0000
0001
0000
,  // measure 16
0100
0001
0100
0001
,  // measure 17
2000
0000
0000
0000
,  // measure 18
0000
0000
0000
0000
,  // measure 19
3001
0000
0000
0000
,  // measure 20
0001
0000
0000
0000
,  // measure 21
0001
0000
0000
0000
,  // measure 22
0000
0000
0000
0000
,  // measure 23
1000
0000
0000
0000
,  // measure 24
1000
0000
0000
0000
,  // measure 25
1000
0000
0000
0000
,  // measure 26
0000
0000
0000
0000
,  // measure 27
1001
0000
1000
0000
,  // measure 28
1000
0000
1000
0000
,  // measure 29
0001
0000
0001
0000
,  // measure 30
0001
0000
0001
0000
,  // measure 31
1000
0000
1000
0000
,  // measure 32
1000
0000
1000
0000
,  // measure 33
1001
0001
0000
0000
,  // measure 34
0100
0001
1001
0000
,  // measure 35
0001
0000
1000
0000
,  // measure 36
0001
1000
0001
0000
,  // measure 37
1000
0000
0001
0000
,  // measure 38
1000
0001
1000
0000
,  // measure 39
0001
0000
0100
0000
,  // measure 40
0001
1000
0001
0000
,  // measure 41
2000
0000
0000
0010
0000
3010
0000
1001
,  // measure 42
0000
0000
0000
0000
,  // measure 43
1000
0000
0001
0000
,  // measure 44
1000
0001
1000
0000
,  // measure 45
0001
0000
1000
0000
,  // measure 46
0001
0100
0001
0000
,  // measure 47
0000
0101
0000
1001
,  // measure 48
0000
1010
0000
1001
,  // measure 49
0001
0000
1000
0000
0000
0000
0000
1000
,  // measure 50
0000
1001
0000
0000
,  // measure 51
1001
0000
1000
0001
,  // measure 52
1000
0000
0001
0010
,  // measure 53
0001
0000
0001
1000
,  // measure 54
0001
0000
1000
0100
,  // measure 55
1000
0000
0001
1000
,  // measure 56
0001
0000
1000
0010
,  // measure 57
1000
0100
0010
0001
,  // measure 58
1000
0000
0001
1000
,  // measure 59
0001
0000
1000
0100
,  // measure 60
0010
0001
1000
0001
,  // measure 61
0010
0000
0001
0100
,  // measure 62
0001
0010
0100
1000
,  // measure 63
0010
1000
0010
1000
,  // measure 64
0010
0100
0010
0100
,  // measure 65
0001
0001
1000
1000
,  // measure 66
0001
1000
0001
1000
,  // measure 67
0002
0000
0000
0003
,  // measure 68
1000
1000
0001
0001
,  // measure 69
1000
0001
1000
0010
,  // measure 70
0200
0000
0000
0000
,  // measure 71
0000
0000
0000
0000
,  // measure 72
0320
0000
0000
0000
,  // measure 73
0000
0000
0000
0030
,  // measure 74
1001
0000
0001
0000
,  // measure 75
0001
1000
0001
0010
,  // measure 76
0001
0000
1000
0000
,  // measure 77
1000
0001
1000
0100
,  // measure 78
1000
0000
0001
0000
,  // measure 79
0001
1000
0001
0100
,  // measure 80
0001
0000
1000
0000
,  // measure 81
1000
0010
1000
0001
,  // measure 82
1000
0000
0000
0000
,  // measure 83
2002
0000
0000
0000
,  // measure 84
3003
0000
0000
0000
;

//---------------dance-single - ----------------
#NOTES:
     dance-single:
     :
     Medium:
     6:
     0.357,0.604,0.380,0.121,0.000: // measure 1
0000
0000
0000
0000
,  // measure 2
0000
0000
0000
0000
,  // measure 3
0000
0000
0000
0000
,  // measure 4
0000
0000
0000
0000
,  // measure 5
0001
1000
0001
1000
,  // measure 6
0001
0010
0001
0010
,  // measure 7
0001
1000
0001
1000
,  // measure 8
0100
1000
0100
0010
,  // measure 9
1001
0000
0101
0000
0001
0100
0000
0100
,  // measure 10
0000
0100
0001
0000
1000
0000
0000
0000
,  // measure 11
1001
0000
1010
0000
1000
0010
0000
0010
,  // measure 12
0000
0010
1000
0000
0001
0000
0000
0000
,  // measure 13
1001
0000
0101
0000
0001
0100
0000
0100
,  // measure 14
0000
0100
0001
0000
1000
0000
0000
0000
,  // measure 15
1001
0000
1010
0000
1000
0010
0000
0010
,  // measure 16
0000
0010
1000
0000
0001
0000
0110
0000
,  // measure 17
2000
0000
0000
0000
,  // measure 18
0000
0000
0000
0000
,  // measure 19
3002
0000
0000
0000
,  // measure 20
0023
0000
0000
0000
,  // measure 21
0230
0000
0000
0000
,  // measure 22
2300
0000
0000
0000
,  // measure 23
3200
0000
0000
0000
,  // measure 24
0320
0000
0000
0000
,  // measure 25
0032
0000
0000
0000
,  // measure 26
2000
0000
0000
3003
,  // measure 27
1001
0000
1000
0000
,  // measure 28
1000
0000
0001
0000
,  // measure 29
0100
0000
0001
0000
,  // measure 30
0010
0000
0001
0000
,  // measure 31
1000
0000
0010
0000
,  // measure 32
1000
0000
0100
0000
,  // measure 33
1001
1001
1000
0010
,  // measure 34
0000
0100
0010
0100
0010
0000
0000
0000
,  // measure 35
1000
0010
1000
0010
,  // measure 36
1000
0001
1000
0001
,  // measure 37
0100
0001
0100
0001
,  // measure 38
0100
0000
0100
0000
,  // measure 39
1001
0010
0100
1000
,  // measure 40
0100
0010
0001
1000
,  // measure 41
0001
0000
0100
0001
0000
0101
0000
1001
,  // measure 42
0000
0000
0000
1000
0000
0000
0000
0000
,  // measure 43
0001
0100
0001
0010
,  // measure 44
0001
1000
0100
0010
,  // measure 45
0001
0101
0000
1001
,  // measure 46
0000
1100
0000
0000
,  // measure 47
1000
0110
0000
0110
,  // measure 48
0000
0101
0000
1001
,  // measure 49
0010
0000
1000
0100
0000
1000
0100
1000
,  // measure 50
0000
0001
0100
0000
0110
0000
0000
0000
,  // measure 51
0001
0100
0001
0010
,  // measure 52
0100
1000
0010
1000
,  // measure 53
0100
1000
0100
0010
,  // measure 54
0001
1000
0001
1000
,  // measure 55
0010
0000
0100
0010
,  // measure 56
1000
0000
0100
0010
,  // measure 57
0001
1000
0001
0010
,  // measure 58
0100
0000
0000
1001
0000
0000
1000
0001
,  // measure 59
1000
0010
0100
0010
,  // measure 60
1000
0010
0100
0001
,  // measure 61
1000
0001
1000
0001
,  // measure 62
0010
0100
1000
0010
,  // measure 63
1010
1010
1010
1010
,  // measure 64
0011
0011
0011
0011
,  // measure 65
1001
1100
1001
1100
,  // measure 66
0010
0001
0010
0100
,  // measure 67
1000
0000
1000
0001
,  // measure 68
1001
0011
1001
1100
,  // measure 69
1001
0110
1000
0010
,  // measure 70
0220
0000
0000
0000
,  // measure 71
0000
0000
0330
0000
,  // measure 72
2002
0000
0000
0000
,  // measure 73
0000
0000
0000
3003
,  // measure 74
0010
0001
0010
0100
,  // measure 75
1000
0010
1000
0100
,  // measure 76
0010
0001
1000
0001
,  // measure 77
0010
0001
1000
1010
,  // measure 78
1001
0000
0001
0000
1000
0010
0000
1000
,  // measure 79
0010
0000
0100
0001
0000
0100
0001
0000
,  // measure 80
0001
0010
0000
0100
1000
0000
0010
1000
,  // measure 81
0000
0001
0100
0000
1100
0000
1000
0010
,  // measure 82
0100
0000
0000
0000
0000
0000
0000
0002
,  // measure 83
2000
0000
0000
0000
,  // measure 84
3003
0000
0000
0000
;

//---------------dance-single - ----------------
#NOTES:
     dance-single:
     :
     Beginner:
     2:
     0.080,0.199,0.073,0.000,0.000: // measure 1
0000
0000
0000
0000
,  // measure 2
0000
0000
0000
0000
,  // measure 3
0000
0000
0000
0000
,  // measure 4
0000
0000
0000
0000
,  // measure 5
1000
0000
0000
0000
,  // measure 6
0000
0000
0000
0000
,  // measure 7
1000
0000
0000
0000
,  // measure 8
0000
0000
0000
0000
,  // measure 9
0001
0000
0000
0000
,  // measure 10
0001
0000
0000
0000
,  // measure 11
1000
0000
0000
0000
,  // measure 12
1000
0000
0000
0000
,  // measure 13
0010
0000
0000
0000
,  // measure 14
0010
0000
0000
0000
,  // measure 15
0100
0000
0000
0000
,  // measure 16
0100
0000
0000
0000
,  // measure 17
1001
0000
0000
0000
,  // measure 18
0000
0000
0000
0000
,  // measure 19
0001
0000
0000
0000
,  // measure 20
0000
0000
0000
0000
,  // measure 21
0000
0000
0000
0000
,  // measure 22
0000
0000
0000
0000
,  // measure 23
1000
0000
0000
0000
,  // measure 24
0000
0000
0000
0000
,  // measure 25
0000
0000
0000
0000
,  // measure 26
0000
0000
0000
0000
,  // measure 27
1001
0000
0000
0000
,  // measure 28
0000
0000
0000
0000
,  // measure 29
1000
0000
0000
0000
,  // measure 30
0000
0000
0000
0000
,  // measure 31
1000
0000
0000
0000
,  // measure 32
0000
0000
0000
0000
,  // measure 33
1001
0000
0000
0000
,  // measure 34
0000
0000
0000
0000
,  // measure 35
0001
0000
0000
0000
,  // measure 36
1000
0000
0000
0000
,  // measure 37
0001
0000
0000
0000
,  // measure 38
0000
0000
0000
0000
,  // measure 39
1000
0000
0000
0000
,  // measure 40
0001
0000
0000
0000
,  // measure 41
1000
0000
0000
0000
,  // measure 42
0000
0000
0000
0000
,  // measure 43
0001
0000
0000
0000
,  // measure 44
1000
0000
0000
0000
,  // measure 45
0001
0000
0000
0000
,  // measure 46
0000
0000
0000
0000
,  // measure 47
0100
0000
0000
0000
,  // measure 48
0100
0000
0000
0000
,  // measure 49
0100
0000
0000
0000
,  // measure 50
0000
0000
0000
0000
,  // measure 51
1001
0000
0000
0000
,  // measure 52
0000
0000
0000
0000
,  // measure 53
1000
0000
0000
0000
,  // measure 54
0000
0000
0000
0000
,  // measure 55
0001
0000
0000
0000
,  // measure 56
0001
0000
0000
0000
,  // measure 57
0001
0000
0000
0000
,  // measure 58
0000
0000
0000
0000
,  // measure 59
1001
0000
0000
0000
,  // measure 60
0000
0000
0000
0000
,  // measure 61
0001
0000
0000
0000
,  // measure 62
0000
0000
0000
0000
,  // measure 63
0001
0000
1000
0000
,  // measure 64
0001
0000
1000
0000
,  // measure 65
1001
0000
0000
0000
,  // measure 66
1000
0000
0001
0000
,  // measure 67
1000
0000
0000
0000
,  // measure 68
1001
0000
0000
0000
,  // measure 69
0001
0000
1000
0000
,  // measure 70
0001
0000
0000
0000
,  // measure 71
0000
0000
0000
0000
,  // measure 72
0001
0000
0000
0000
,  // measure 73
1000
0000
0000
0000
,  // measure 74
1001
0000
0000
0000
,  // measure 75
1000
0000
0000
0000
,  // measure 76
0010
0000
0000
0000
,  // measure 77
1000
0000
0000
0000
,  // measure 78
0001
0000
0000
0000
,  // measure 79
0100
0000
0000
0000
,  // measure 80
0001
0000
0000
0000
,  // measure 81
1000
0000
0000
0000
,  // measure 82
0001
0000
0000
0000
,  // measure 83
1001
0000
0000
0000
;

//---------------dance-single - ----------------
#NOTES:
     dance-single:
     :
     Hard:
     7:
     0.525,0.570,0.590,0.202,0.000: // measure 1
0000
0000
0000
0000
,  // measure 2
0000
0000
0000
0000
,  // measure 3
0000
0000
0000
0000
,  // measure 4
0000
0000
0000
0000
,  // measure 5
1001
0000
0001
0100
0000
0010
1000
0100
,  // measure 6
0010
0001
0011
0011
,  // measure 7
1001
0000
1000
0010
0000
0100
0001
0010
,  // measure 8
0100
1000
1000
0000
1010
0000
1010
0000
,  // measure 9
1001
0000
1010
0000
1000
0020
0000
0100
,  // measure 10
0000
0130
0001
0010
0001
1000
0000
0000
,  // measure 11
1001
0000
0101
0000
0001
0200
0000
0010
,  // measure 12
0000
0310
1000
0100
1000
0001
1000
0000
,  // measure 13
1001
0000
1010
0000
1000
0200
0000
0010
,  // measure 14
0000
0310
0001
0100
0001
1000
0000
0000
,  // measure 15
1001
0000
0101
0000
0001
0020
0000
0100
,  // measure 16
0000
0130
1000
0010
1000
0001
1000
0000
,  // measure 17
2002
0000
0000
0000
,  // measure 18
0000
0000
0000
3003
,  // measure 19
0200
0000
1000
0000
,  // measure 20
2300
0000
0001
0000
,  // measure 21
3002
0000
0010
0000
,  // measure 22
0203
0000
0000
0000
,  // measure 23
0302
0000
0100
0000
,  // measure 24
2003
0000
0010
0000
,  // measure 25
3020
0000
0100
0000
,  // measure 26
0230
0000
0000
0000
0000
0010
0300
0000
,  // measure 27
1001
0001
1000
0001
,  // measure 28
1000
0100
0010
0001
,  // measure 29
0010
0100
1000
0001
,  // measure 30
0100
0010
1000
0001
,  // measure 31
1000
0100
0010
0001
,  // measure 32
1000
0100
0010
0001
,  // measure 33
1001
0000
1001
0000
0001
0100
0010
1000
,  // measure 34
0000
1000
0100
0010
1001
0000
0000
0000
,  // measure 35
0011
0000
0011
0000
0001
1000
0010
0000
,  // measure 36
1010
0100
0001
1000
,  // measure 37
1000
0001
0100
0000
0101
0000
0010
1000
,  // measure 38
0100
1000
0000
1000
0001
0010
0001
0000
,  // measure 39
1100
0000
1100
0000
1000
0001
0100
0000
,  // measure 40
0101
0010
1000
0001
,  // measure 41
1000
0010
0100
0001
0000
0011
0000
1001
,  // measure 42
0000
0010
0100
2000
0000
0010
3010
0000
,  // measure 43
1010
0000
1010
0000
1000
0001
0010
0000
,  // measure 44
0011
0100
1000
0001
,  // measure 45
0011
1010
0100
1001
,  // measure 46
0010
0000
1010
0000
0100
0000
0001
0100
,  // measure 47
0010
0110
1000
0110
,  // measure 48
0001
0110
1000
1001
,  // measure 49
1000
0010
0100
0001
0000
0001
0010
0100
,  // measure 50
0000
1000
1001
0000
0110
0000
0000
0000
,  // measure 51
0010
1000
0010
0000
1000
0100
0010
0001
,  // measure 52
1000
0100
0010
0000
1001
0000
1100
0000
,  // measure 53
0100
0001
0100
0000
0001
0010
0100
1000
,  // measure 54
0001
0010
0100
0000
1001
0000
1100
0000
,  // measure 55
0100
0001
0100
0000
1001
0000
0011
0000
,  // measure 56
0010
1000
0010
0000
1001
0000
1100
0000
,  // measure 57
1010
0000
1010
0000
1000
0010
0100
0001
,  // measure 58
1000
1000
0000
1001
0000
0000
0001
0010
,  // measure 59
1000
0000
0010
1000
0010
1000
0100
0010
,  // measure 60
0001
1000
0100
0000
1000
0100
0001
0000
,  // measure 61
0100
0001
0100
0001
0010
0100
1000
0001
,  // measure 62
0010
0001
0100
0110
,  // measure 63
1010
0110
1010
0110
,  // measure 64
0101
0110
0101
0110
,  // measure 65
0100
0001
0100
0000
0100
0001
0100
0000
,  // measure 66
0100
0001
0010
0100
1000
0001
0010
0100
,  // measure 67
1000
0001
0110
0110
,  // measure 68
0010
1000
0010
0000
0010
1000
0010
0000
,  // measure 69
0010
1000
0100
0010
0001
1000
0100
0000
,  // measure 70
0220
0000
0000
0030
,  // measure 71
0302
0000
0000
0000
,  // measure 72
2003
0000
0000
0000
,  // measure 73
3010
0010
0010
0110
,  // measure 74
1000
0010
1000
0100
0010
0000
0001
0100
,  // measure 75
0000
0100
0010
0000
1001
0000
1001
0000
,  // measure 76
0001
0100
0001
0010
0100
0000
1000
0010
,  // measure 77
0000
0010
0100
0000
0110
0000
1001
0000
,  // measure 78
1000
0010
1000
0100
0001
0100
1000
0002
,  // measure 79
0000
0103
0010
1000
0010
0000
1001
0000
,  // measure 80
0001
0100
0001
0010
1000
0010
0001
2000
,  // measure 81
0000
3010
0100
0001
0100
0000
1001
0000
,  // measure 82
0220
0000
0000
0000
0330
0000
0000
0001
,  // measure 83
2002
0000
0000
0000
,  // measure 84
3003
0000
0000
0000
;

//---------------dance-single - ----------------
#NOTES:
     dance-single:
     :
     Challenge:
     8:
     0.605,0.671,0.590,0.121,0.044: // measure 1
0000
0000
0000
0000
,  // measure 2
0000
0000
0000
0000
,  // measure 3
0000
0000
0000
0000
,  // measure 4
0000
0000
0000
0000
,  // measure 5
1001
0000
1000
0010
0100
0001
0010
1000
,  // measure 6
0010
0001
0010
0100
1000
0000
1100
0000
,  // measure 7
1001
0000
0001
0100
0010
1000
0100
0001
,  // measure 8
0100
0000
1000
0000
1010
0000
0000
0000
0110
0000
0000
0100
0001
0000
0000
0000
,  // measure 9
1001
0000
0101
0000
0001
0100
0010
0100
,  // measure 10
0000
0100
0001
0100
1000
0100
0010
0000
,  // measure 11
1001
0000
1010
0000
1000
0010
0100
0010
,  // measure 12
0000
0010
1000
0010
0001
0010
0100
0000
,  // measure 13
1001
0000
0101
0000
0001
0100
0010
0100
,  // measure 14
0000
0100
0001
0100
1000
0100
0010
0000
,  // measure 15
1001
0000
1010
0000
1000
0010
0100
0010
,  // measure 16
0000
0010
1000
0010
0001
0100
1000
0100
,  // measure 17
2002
0000
0000
0000
,  // measure 18
0000
0000
0000
3003
,  // measure 19
0010
0001
0010
0000
,  // measure 20
0100
1000
0100
0010
,  // measure 21
0001
0000
1000
0000
0001
0000
0100
0020
,  // measure 22
0000
0000
0000
0030
,  // measure 23
1000
0010
1000
0000
,  // measure 24
0001
0100
0001
1000
,  // measure 25
0100
0000
0000
0100
0000
0000
0100
0000
,  // measure 26
1000
0000
0001
0100
0000
0100
0010
0100
,  // measure 27
1001
0000
1000
0000
0001
0100
0000
0001
,  // measure 28
0100
0010
1000
0100
,  // measure 29
0001
0010
0100
1000
,  // measure 30
0010
0000
0100
0002
0000
0000
0000
0000
,  // measure 31
1003
0010
0100
0010
,  // measure 32
1000
0010
0001
0100
,  // measure 33
1001
0000
1001
0000
1000
0010
0100
0001
,  // measure 34
0000
0000
0001
0000
0010
0000
0100
0000
1001
0000
0000
0000
1001
0000
0100
1000
,  // measure 35
0100
1000
0010
1000
0100
0001
0010
0100
,  // measure 36
1000
0001
0010
0001
0100
0001
0010
0000
,  // measure 37
1001
0000
0100
0010
0001
0010
0000
0001
,  // measure 38
0010
0000
0100
0000
0000
0000
1000
0000
0001
0000
0100
0000
0001
0000
0010
0001
,  // measure 39
0010
0001
0100
0001
0010
1000
0100
0010
,  // measure 40
0001
1000
0100
1000
0010
1000
0100
0000
,  // measure 41
1000
0100
0010
0101
0000
0101
0000
1001
,  // measure 42
0000
0010
0100
2000
0000
0001
3001
0000
,  // measure 43
0100
0010
0100
0001
0100
1000
0100
0010
,  // measure 44
0001
0100
0010
0100
0001
0010
0100
0000
,  // measure 45
1000
0100
0020
0000
0031
0010
0200
0000
,  // measure 46
1300
0100
0010
0001
0010
1000
0010
0000
,  // measure 47
0101
1001
0101
1001
,  // measure 48
1010
1001
1010
1001
,  // measure 49
0001
0100
0010
1000
0000
1000
0100
0010
,  // measure 50
0000
1001
1001
0000
0110
0000
0000
0000
,  // measure 51
0100
0001
0100
0010
0100
0001
0100
1000
,  // measure 52
0100
0010
0001
0000
0101
0000
1001
0000
,  // measure 53
0010
1000
0010
0100
0010
1000
0010
0001
,  // measure 54
0010
0100
1000
0000
1010
0000
1001
0000
,  // measure 55
0010
0001
0100
0000
0101
0000
1001
0000
,  // measure 56
0100
1000
0010
0000
1010
0000
1001
0000
,  // measure 57
0100
0001
0100
0010
0100
0001
0100
1000
,  // measure 58
0100
0000
0010
0001
0010
0000
1001
0000
0000
0000
0010
1000
0010
0000
0100
0001
,  // measure 59
0100
0010
0100
0001
0100
0001
0010
0100
,  // measure 60
1000
0001
1000
0000
1010
0000
1001
0000
,  // measure 61
0010
0100
0010
1000
0010
1000
0100
0010
,  // measure 62
0001
1000
0001
0000
0101
0000
1001
0000
,  // measure 63
0011
0101
0011
0101
,  // measure 64
1010
0000
0000
0000
1100
0000
0000
0000
1000
0010
0000
0000
0010
0100
0000
0000
,  // measure 65
1001
0011
1001
0011
,  // measure 66
0001
0100
0010
1000
0010
0001
0010
0100
,  // measure 67
1000
0001
1000
0000
1000
0100
0010
0001
,  // measure 68
1001
1100
1001
1100
,  // measure 69
1000
0010
0100
0001
0100
1000
0100
0010
,  // measure 70
2002
0000
0000
3003
,  // measure 71
0220
0000
0000
0330
,  // measure 72
2002
0000
0000
3003
,  // measure 73
0101
0110
1100
1001
,  // measure 74
0001
0100
0001
0010
1000
0100
0001
0010
,  // measure 75
0100
1000
0100
0010
1001
0000
1001
0000
,  // measure 76
1000
0010
1000
0100
0001
0010
1000
0100
,  // measure 77
0010
0001
0010
0100
1001
0000
1001
0000
,  // measure 78
0001
0100
0001
0010
1000
0010
0001
1000
,  // measure 79
0001
0010
0100
1000
0010
0100
1001
0000
,  // measure 80
1000
0010
1000
0100
0001
0100
1000
0001
,  // measure 81
1000
0000
0100
0000
0010
0000
0001
0000
0100
0000
0001
0100
0001
0000
1000
0010
,  // measure 82
2000
0000
0000
0000
0000
0000
0000
0000
0000
0000
0000
0000
3000
0000
0001
0010
,  // measure 83
0002
0000
0000
0000
,  // measure 84
1003
0000
0000
0000
;
