#TITLE:Treasures!!;
#ARTIST:sphere;
#FILE:Treasures!!.MP3;
#BPM:165.000;
#GAP:1080;
#SAMPLESTART:73.050;
#SAMPLELENGTH:12.000;
#CDTITLE:DMAxel Original Simfile.png;
#SINGLE:BASIC:3:
00000000
00000000
00000000
00000000
60004000
60004000
60008000
60000000
B0004000
20402000
B0006000
80608000
B0004000
80408000
B0006000
20602060
4!40000000
00000000
B0000000
60000000
60000000
00000000
40000000
40000000
40000000
00000000
B0004000
40004000
60006000
60006000
40004000
40004000
B0600000
2060B000
60004000
60406000
40006000
40604000
60002000
60406000
4!4008070B
00000000
40006000
40604000
60004000
60206000
003000B0
007000B0
60400004
00B00000
B0004060
40006080
60006040
60004020
40006040
60004080
40208060
40006040
60004020
80604060
80006020
60802040
80408040
80208020
60604040
60406040
6!60000060
40406060
40604080
2!20000000
00000000
A!80000000
00000080
B0006000
60406080
60004000
40604020
40006000
60406020
60004000
40804060
40000000
B!B0000000
B0000000
;
#SINGLE:ANOTHER:6:
00000000
00000000
00000000
00000000
60406040
60806080
60406040
20402080
B0306202
02604000
B0704808
08406000
B0306202
02604000
B0704808
084060A0
4!40000000
00000000
B!60000000
9!80000000
A!20000000
1!40000000
1!20000000
A!80000000
9!60000000
4!400000B0
B0004000
40006000
20006000
80006000
40008000
40002000
B0B04080
02828000
40804080
40604060
20602060
20002000
B0802040
20806040
6026030B
00040000
60206080
60402080
603000B0
00100000
40A000A0
003000B0
80420424
0620A000
60206080
20408040
20402080
60406040
80002080
40002080
60406080
200B0046
40802080
40802060
40604060
80204080
70707070
90909090
B010B010
80608020
40004060
B090B010
B0A04080
A!A0000000
0000A000
B!B0000000
000000B0
80608020
40804020
80604060
80604070
B0604804
80260260
68024084
06201048
20000006!6
4!40000000
B0000000
;
#SINGLE:BEGINNER:2:
00000000
00000000
00000000
00000000
40000000
00000000
40000000
00000000
60000000
60000000
40000000
40000000
80000000
80000000
20000000
20000000
B0000000
00000000
60000000
00000000
00000000
00000000
40000000
00000000
00000000
00000000
B0000000
00000000
40000000
00000000
40000000
00000000
B0000000
00000000
60000000
40000000
60000000
00000000
40000000
60000000
40000000
00000000
60000000
40000000
60000000
00000000
20000000
20000000
20000000
00000000
B0000000
00000000
40000000
00000000
60000000
60000000
60000000
00000000
B0000000
00000000
60000000
00000000
60004000
60004000
B0000000
40006000
40000000
B0000000
60004000
60000000
00000000
60000000
40000000
B0000000
40000000
80000000
40000000
60000000
20000000
60000000
40000000
60000000
B0000000
;
#SINGLE:MANIAC:7:
00000000
00000000
00000000
00000000
B0620842
80609090
B0480268
24407070
B07048!802
0A686400
B03062!208
0A424640
B07042!208
0A626400
B03068!802
0A484640
B!B0000000
000000B0
2!20004000
1!40006000
B!60008000
3!20000000
3!60002000
B!40008000
7!80002000
A!20000820
B0604060
40208060
80204060
20804060
40208060
40208060
B0B06284
0428B000
90906480
70206040
46203084
24046860
10104620
30804060
4826090B
0824!40870
70704680
90204060
907020B0
80702062
80A040A0
60A040B0
48260682
04B0A000
84804286
4280B010
26206824
6820B010
2620B090
8480B010
70704826
440B0068
40848428
64204260
26268246
806020A0
70A070A0
30A030A0
26202620
26824682
4060A0A0
84808480
84286420
A!A0000080
3!60000000
B!40000000
708080A0
48428062
0280B0B0
62682048
0820A0B0
48426246!6
038480B0
62684864!4
072620B0
A!A000A006
B!B0000000
B0000000
;
#SINGLE:SMANIAC:8:
00000000
00000000
00000000
00000000
B0482684
86824010
B0628426
(20407000A0026000)
B0306282
02624280
B0704828
08486820
B0306282
02624280
B0704828
08486242
B!B0000000
000000B0
80608000
20402080
60406028!8
00000080
40804000
60206040
20020020
40620282
B0406206
20804020
60802040
8026!60000
B0802080
40806020
B0B04826
(00608020B000B024)
24842682
46862680
B0286806
(8020004060206086)
86268428
64248420
4283030B
0824!406B0
28262428
62826820
428!80982!20
12868480
30B030B0
70B070B0
62840428
0BB0A000
26282624
286030B0
84828486
824070B0
862030B0
248070B0
26282624
(208680B000848026)
28262682
464070B0
82848428
646030B0
90309030
(7000100048008200)
B090B090
62848682
46404286
B010B010
48262428
B!B00000B0
A!A00000A0
B!B00000B0
30A010B0
62684268
2428B0B0
48426842
8682B0B0
62684864
682482B0
48426246
(4020806020626048)
(4!4000000000004068)
6!60000000
B0000000
;
