#TITLE:隣に・・・;
#SUBTITLE:(nostalmix);
#ARTIST:nullP;
#TITLETRANSLIT:Tonari ni...;
#SUBTITLETRANSLIT:;
#ARTISTTRANSLIT:;
#CREDIT:DMAxel;
#BANNER:Tonari ni... (nostalmix).png;
#BACKGROUND:Tonari ni... (nostalmix)-bg.png;
#LYRICSPATH:Tonari ni... (nostalmix).lrc;
#CDTITLE:BEMANI game remix.png;
#MUSIC:Tonari ni... (nostalmix).mp3;
#OFFSET:-0.192;
#SAMPLESTART:74.840;
#SAMPLELENGTH:15.180;
#SELECTABLE:YES;
#DISPLAYBPM:90.000:180.000;
#BPMS:0.000=180.000,128.000=90.000,176.000=180.000,208.000=90.000;
#STOPS:;
#BGCHANGES:;

//---------------dance-single - ----------------
#NOTES:
     dance-single:
     :
     Easy:
     3:
     0.169,0.202,0.000,0.000,0.000: // measure 1
0000
0000
0000
0000
,  // measure 2
0000
0000
0000
0000
,  // measure 3
0000
0000
0000
0000
,  // measure 4
0000
0000
0000
0000
,  // measure 5
0001
0000
0000
0000
,  // measure 6
1000
0000
0000
0000
,  // measure 7
0001
0000
0000
0000
,  // measure 8
1000
0000
0000
1000
,  // measure 9
0000
0000
0001
0000
0000
0001
0000
0000
,  // measure 10
0000
0000
1000
0000
0000
1000
0000
0000
,  // measure 11
0000
0000
0100
0000
0000
0100
0000
0000
,  // measure 12
0000
0000
0010
0000
0000
0010
0000
0000
,  // measure 13
0000
0000
0001
0000
0000
0001
0000
0000
,  // measure 14
0000
0000
1000
0000
0000
1000
0000
0000
,  // measure 15
0000
0000
0010
0000
0000
0010
0000
0000
,  // measure 16
0000
0000
0100
0000
0000
0100
0000
0000
,  // measure 17
0001
0001
0000
1000
,  // measure 18
0000
0010
0000
0001
,  // measure 19
0000
0010
0000
0100
,  // measure 20
0000
1000
0000
0001
,  // measure 21
0010
0010
0000
0100
,  // measure 22
0000
1000
0000
0001
,  // measure 23
0000
0100
0000
0010
,  // measure 24
0000
1000
0000
0001
,  // measure 25
0010
0000
0010
0000
0000
0100
0000
0000
,  // measure 26
1000
1000
1000
0000
,  // measure 27
0001
0000
0001
0000
0000
0100
0000
0000
,  // measure 28
0010
0010
0010
0000
,  // measure 29
1000
0000
1000
0000
0000
0100
0000
0000
,  // measure 30
0010
0010
0010
0000
,  // measure 31
0001
0000
0001
0000
0000
0100
0000
0000
,  // measure 32
0010
0000
0010
0000
0000
1000
0000
0000
,  // measure 33
0001
0000
0000
0000
,  // measure 34
0001
0000
0000
0000
,  // measure 35
1000
0000
0000
0000
,  // measure 36
1000
0000
0000
0000
,  // measure 37
0001
0001
0001
0000
,  // measure 38
0010
0000
0010
0000
,  // measure 39
0100
0100
0100
0000
,  // measure 40
1000
0000
1000
0000
,  // measure 41
0010
0010
0010
0000
,  // measure 42
0100
0000
0100
0000
,  // measure 43
0001
0001
0001
0000
,  // measure 44
1000
0000
1000
0000
,  // measure 45
0010
0010
0010
0100
,  // measure 46
0001
0000
0000
0001
,  // measure 47
0100
0000
0000
0010
,  // measure 48
1000
0000
0000
0100
,  // measure 49
0010
0010
0010
0001
,  // measure 50
1000
0000
0000
0010
,  // measure 51
0100
0000
0000
0001
,  // measure 52
0010
0000
0000
0100
,  // measure 53
1000
0000
0000
0000
,  // measure 54
0001
0000
0000
0000
;

//---------------dance-single - ----------------
#NOTES:
     dance-single:
     :
     Medium:
     6:
     0.317,0.346,0.000,0.000,0.000: // measure 1
0000
0000
0000
0000
,  // measure 2
0000
0000
0000
0000
,  // measure 3
0000
0000
0000
0000
,  // measure 4
0000
0000
0000
0000
,  // measure 5
0001
0010
0100
1000
,  // measure 6
1000
0010
0100
0001
,  // measure 7
0001
1000
0010
0100
,  // measure 8
0001
0010
0100
1000
,  // measure 9
0001
0000
0001
0000
0100
0010
0000
0000
,  // measure 10
1000
0000
1000
0000
0100
0010
0001
0000
,  // measure 11
0100
0000
0100
0000
0010
1000
0000
0000
,  // measure 12
0001
0000
0001
0000
0010
0100
1000
0000
,  // measure 13
0010
0000
0010
0000
0100
0001
0000
0000
,  // measure 14
1000
0000
1000
0000
0100
0010
0001
0000
,  // measure 15
1000
0000
1000
0000
0010
0100
0000
0000
,  // measure 16
0001
0000
0001
0000
0010
0100
1000
0000
,  // measure 17
0001
0000
0001
0000
0000
0010
0000
0000
,  // measure 18
0100
0000
0100
0000
0000
1000
0000
0000
,  // measure 19
0001
0000
0001
0000
0000
0100
0000
0000
,  // measure 20
0010
0000
0010
0000
0000
1000
0000
0000
,  // measure 21
0100
0000
0100
0000
0000
0010
0000
0000
,  // measure 22
0001
0000
0001
0000
0000
1000
0000
0000
,  // measure 23
0010
0010
0100
0100
,  // measure 24
0001
0010
0100
1000
,  // measure 25
0010
0100
0010
0000
1000
0000
1000
0000
,  // measure 26
0001
0010
0001
0000
0100
0000
0100
0000
,  // measure 27
0010
1000
0010
0000
0100
0000
0100
0000
,  // measure 28
0001
0010
0001
0000
1000
0000
0010
0000
,  // measure 29
0100
0001
0100
0000
0010
0000
0010
0000
,  // measure 30
1000
0100
1000
0000
0001
0000
0001
0000
,  // measure 31
0100
0010
0100
0000
0001
0000
0001
0000
,  // measure 32
1000
0010
1000
0000
0100
0000
0100
0000
,  // measure 33
0100
0000
0000
0000
,  // measure 34
0100
0000
0000
0000
,  // measure 35
0010
0000
0000
0000
,  // measure 36
0010
0000
0010
0000
,  // measure 37
0010
0000
0001
0000
0100
0100
0010
0000
,  // measure 38
1000
0000
0001
0000
0010
0010
0100
0000
,  // measure 39
1000
0000
0010
0000
0100
0100
0001
0000
,  // measure 40
1000
0000
0100
0000
0010
0010
0001
0000
,  // measure 41
0100
0000
0010
0000
1000
1000
0001
0000
,  // measure 42
0100
0000
0010
0000
1000
1000
0100
0000
,  // measure 43
0010
0000
0001
0000
0100
0100
0010
0000
,  // measure 44
1000
0000
0001
0000
0010
0010
0000
0000
,  // measure 45
0001
0000
0100
0000
0010
0100
0010
0000
,  // measure 46
1000
0000
0001
0000
1000
0000
0001
0010
,  // measure 47
0100
0000
1000
0000
0100
0000
1000
0001
,  // measure 48
0010
0000
0100
0000
1000
0001
1000
0000
,  // measure 49
0010
0000
0100
0000
0001
0010
0100
0000
,  // measure 50
1000
0010
0100
0000
0001
1000
0010
0000
,  // measure 51
0100
0000
0001
0000
0010
0100
1000
0000
,  // measure 52
0001
0100
0010
1000
,  // measure 53
0001
0000
0000
0000
,  // measure 54
0010
0000
0000
0000
;

//---------------dance-single - ----------------
#NOTES:
     dance-single:
     :
     Hard:
     8:
     0.487,0.490,0.000,0.000,0.087: // measure 1
0000
0000
0000
0000
,  // measure 2
0000
0000
0000
0000
,  // measure 3
0000
0000
0000
0000
,  // measure 4
0000
0000
0000
0000
,  // measure 5
0001
0000
0001
0000
,  // measure 6
1000
0010
0000
0100
0000
0000
0000
0000
,  // measure 7
0001
0000
0001
0000
,  // measure 8
0010
0100
0000
1000
0000
0001
0000
0000
,  // measure 9
0100
0010
1000
0001
0010
0100
0000
0000
,  // measure 10
1000
0001
0100
0010
1000
0001
0000
0000
,  // measure 11
0010
0100
1000
0010
0100
0001
0000
0000
,  // measure 12
1000
0010
0100
0001
0010
0100
0000
0000
,  // measure 13
1000
0001
0100
0010
1000
0001
0000
0000
,  // measure 14
0010
0100
1000
0010
0100
0001
1000
0000
,  // measure 15
0100
0010
0001
0100
0010
1000
0001
0010
,  // measure 16
0100
1000
0001
0100
0010
1000
0001
0000
,  // measure 17
0100
0010
1000
0000
0100
0010
0001
0000
,  // measure 18
1000
0010
0100
0001
1000
0100
0010
0000
,  // measure 19
0001
0100
0010
0000
1000
0100
0010
0000
,  // measure 20
0001
0100
0010
1000
0100
0010
0001
0000
,  // measure 21
1000
0010
0100
0000
0001
0010
0100
0000
,  // measure 22
1000
0001
0010
0100
1000
0010
0100
0000
,  // measure 23
0001
0010
0001
0000
1000
0010
1000
0000
,  // measure 24
0001
0100
0001
0000
1000
0100
1000
0000
,  // measure 25
0001
0010
0100
1000
0010
0100
0100
0000
,  // measure 26
0001
1000
0010
0100
0001
0010
0010
0000
,  // measure 27
0100
1000
0010
0100
0001
0010
0010
0100
,  // measure 28
1000
0001
0100
0010
1000
0001
0001
0000
,  // measure 29
0100
0010
1000
0100
0010
0001
0001
0000
,  // measure 30
0100
0010
1000
0001
0010
0100
0100
0000
,  // measure 31
1000
0001
0100
0010
1000
0100
0010
0001
,  // measure 32
1000
0010
0100
0001
0010
0100
1000
0000
,  // measure 33
0010
0000
0000
0000
0000
0010
0100
0010
,  // measure 34
1000
0000
1000
0000
,  // measure 35
0010
0000
0000
0000
0000
0010
0100
0010
,  // measure 36
1000
0000
0000
0001
1000
0000
0000
0000
,  // measure 37
0010
0000
0010
0000
0100
0000
0000
0001
0010
0001
1000
0000
0010
0000
0000
0000
,  // measure 38
0100
0000
0100
0000
0001
0000
0000
0010
0100
0010
0001
0000
1000
0000
0000
0000
,  // measure 39
0010
0000
0010
0000
0100
0000
0000
0001
1000
0010
0100
0000
0001
0000
0000
0000
,  // measure 40
1000
0000
1000
0000
0100
0000
0000
0010
0001
1000
0010
0000
0100
0000
0000
0000
,  // measure 41
0001
0000
0001
0000
1000
0000
0000
0100
0010
0001
0100
0000
0010
0000
0000
0000
,  // measure 42
1000
0000
1000
0000
0001
0000
0000
0010
0100
1000
0010
0000
0100
0000
0000
0000
,  // measure 43
0001
0000
0001
0000
0010
0000
0000
0100
1000
0001
0100
0000
0010
0000
0000
0000
,  // measure 44
1000
0000
1000
0000
0100
0000
0000
0010
0001
1000
0010
0000
0000
0000
0000
0000
,  // measure 45
0100
0100
0010
1000
0001
0010
0100
1000
,  // measure 46
1000
1000
0010
0100
0001
0010
0100
1000
,  // measure 47
1000
1000
0001
0100
0010
1000
0100
0010
,  // measure 48
0010
0010
0001
0100
0010
1000
0001
0010
,  // measure 49
0010
0010
0100
1000
0001
0100
0010
1000
,  // measure 50
1000
1000
0001
0010
0100
1000
0010
0100
,  // measure 51
0100
0100
0001
1000
0010
0100
0001
0010
,  // measure 52
0010
0010
0100
1000
0010
0100
0001
0000
,  // measure 53
1000
0000
0000
0000
,  // measure 54
0010
0000
0000
0000
;

//---------------dance-single - ----------------
#NOTES:
     dance-single:
     :
     Beginner:
     2:
     0.123,0.141,0.011,0.000,0.000: // measure 1
0000
0000
0000
0000
,  // measure 2
0000
0000
0000
0000
,  // measure 3
0000
0000
0000
0000
,  // measure 4
0000
0000
0000
0000
,  // measure 5
0100
0000
0000
0000
,  // measure 6
0010
0000
0000
0000
,  // measure 7
0100
0000
0000
0000
,  // measure 8
0010
0000
0000
0000
,  // measure 9
1000
1000
0000
0000
,  // measure 10
0001
0001
0000
0000
,  // measure 11
1000
1000
0000
0000
,  // measure 12
0001
0001
0000
0000
,  // measure 13
0100
0100
0000
0000
,  // measure 14
0010
0010
0000
0000
,  // measure 15
1000
0000
0000
0000
,  // measure 16
0001
0001
0001
0000
,  // measure 17
1000
0000
0000
0000
,  // measure 18
0001
0001
0000
0000
,  // measure 19
1000
0000
0000
0000
,  // measure 20
0001
0001
0000
0000
,  // measure 21
0100
0000
0000
0000
,  // measure 22
0010
0010
0000
0000
,  // measure 23
0100
0000
0000
0000
,  // measure 24
0010
0010
0000
0000
,  // measure 25
1000
1000
1000
0000
,  // measure 26
1000
0000
0000
0000
,  // measure 27
0001
0001
0001
0000
,  // measure 28
0001
0000
0000
0000
,  // measure 29
0100
0000
0000
0000
,  // measure 30
0010
0000
0000
0000
,  // measure 31
0100
0000
0000
0000
,  // measure 32
0010
0010
0010
0000
,  // measure 33
0100
0000
0000
0000
,  // measure 34
0000
0000
0000
0000
,  // measure 35
0100
0000
0000
0000
,  // measure 36
0000
0000
0000
0000
,  // measure 37
0000
0100
0000
0010
,  // measure 38
0000
1000
0000
0001
,  // measure 39
0000
1000
0000
0001
,  // measure 40
0000
0100
0000
0010
,  // measure 41
0000
1000
0000
1000
,  // measure 42
0000
0001
0000
0001
,  // measure 43
0000
0100
0000
0100
,  // measure 44
0000
0010
0000
0010
,  // measure 45
0000
0000
0100
0100
,  // measure 46
0000
0000
0100
0100
,  // measure 47
0000
0000
0010
0010
,  // measure 48
0000
0000
0010
0010
,  // measure 49
0000
0000
1000
1000
,  // measure 50
0000
0000
0001
0001
,  // measure 51
0000
0000
0000
0100
,  // measure 52
0000
0000
0000
0000
,  // measure 53
1001
0000
0000
0000
;

//---------------dance-single - ----------------
#NOTES:
     dance-single:
     :
     Challenge:
     8:
     0.549,0.663,0.087,0.109,0.120: // measure 1
0000
0000
0000
0000
,  // measure 2
0000
0000
0000
0000
,  // measure 3
0000
0000
0000
0000
,  // measure 4
0000
0000
0000
0000
,  // measure 5
1000
0000
1000
0000
0010
0000
0010
0100
,  // measure 6
0010
1000
0000
0010
0000
0010
0000
0000
,  // measure 7
1000
0000
1000
0000
0010
0000
0100
0010
,  // measure 8
0100
0001
0000
0100
0000
0100
0000
0000
,  // measure 9
0010
0100
0010
0000
1000
0010
1000
0001
,  // measure 10
0100
1000
0010
0100
0010
0000
0100
0000
,  // measure 11
0100
0010
0100
0000
0001
0100
0001
1000
,  // measure 12
0010
0001
0100
0010
0100
0000
0010
0000
,  // measure 13
0010
0100
0010
1000
0000
0001
0100
0010
,  // measure 14
0100
0000
0010
0100
0001
1000
0001
0000
,  // measure 15
0100
0001
0100
0000
0101
0000
1001
0000
,  // measure 16
0010
1000
0010
0000
1010
0000
1001
0000
,  // measure 17
0010
0100
1000
0100
0010
0100
1000
0100
,  // measure 18
0010
0100
1000
0010
0100
0001
1000
0000
,  // measure 19
0100
0010
0001
0010
0100
0010
0001
0010
,  // measure 20
0100
0010
0001
0100
0010
1000
0001
0000
,  // measure 21
0010
0100
1000
0010
1000
0100
1000
0010
,  // measure 22
1000
0100
0010
0001
0010
0100
1000
0000
,  // measure 23
0100
0010
0001
0100
0001
0010
0001
0100
,  // measure 24
0001
0010
0100
1000
0100
0010
0001
0000
,  // measure 25
0100
0010
2000
0000
0001
0000
3001
0000
,  // measure 26
0100
0010
0100
0001
1000
0100
0010
0001
,  // measure 27
1000
0010
1000
0000
0010
0100
0010
1000
,  // measure 28
0001
0000
1001
0000
0100
0001
1000
0000
,  // measure 29
1001
0000
1001
0000
0010
0100
0010
1000
,  // measure 30
0001
0010
0100
1000
0001
0100
0001
0010
,  // measure 31
2000
0000
0001
0000
3001
0000
1000
0100
,  // measure 32
0002
0000
1000
0000
1003
0100
1000
0100
,  // measure 33
0010
0020
0000
0000
0030
0001
0010
0001
,  // measure 34
0010
0000
0100
1000
0000
0010
1000
0000
0100
0000
0000
0000
0000
0000
0000
0000
,  // measure 35
0100
0000
0200
0000
0000
0000
0000
0000
0300
0000
1000
0000
0100
0000
1000
0002
,  // measure 36
0000
0000
0000
1000
1003
0000
0000
0100
,  // measure 37
1001
0000
0001
0000
0010
0000
0100
1000
0100
1000
0001
0000
0100
0000
0010
0000
,  // measure 38
1000
0000
1000
0000
0001
0000
1000
0100
0010
0100
1000
0000
0001
0000
0100
0000
,  // measure 39
0001
0000
0001
0000
0010
0000
0100
1000
0001
0100
0010
0000
1000
0000
0100
0000
,  // measure 40
0001
0000
0001
0000
0010
0000
0100
1000
0010
0100
0010
0000
1000
0000
0100
0000
,  // measure 41
0001
0000
1000
0010
1000
0000
0010
0100
0010
0000
1000
0000
0100
0000
0010
0000
,  // measure 42
0001
0000
0001
0100
0001
0000
0100
0010
0100
0000
0001
0000
0010
0000
0100
0000
,  // measure 43
1000
0000
1000
0100
1000
0000
0001
0100
0001
0000
0100
0010
0100
0000
0010
1000
,  // measure 44
0010
0000
0100
0010
1000
0000
0100
0010
0001
0010
0200
0000
0000
0000
0000
0000
,  // measure 45
1300
0010
1000
0001
1000
0010
1000
0001
,  // measure 46
0010
0100
1000
0001
0000
1000
0001
0010
,  // measure 47
0200
0000
1000
0000
1300
0000
1000
0010
,  // measure 48
0100
0010
1000
0100
0001
0100
1000
0001
,  // measure 49
1000
0000
0010
0100
0010
0000
1000
0100
,  // measure 50
0020
0000
0001
0000
0031
0000
0001
0100
,  // measure 51
0010
0000
1000
0010
1000
0001
0010
0001
,  // measure 52
1000
0001
1000
0001
0010
0100
0010
0001
,  // measure 53
1000
0020
0000
0000
0000
0000
0000
0000
,  // measure 54
0130
0000
0000
0000
;
