#TITLE:Tension;
#SUBTITLE:;
#ARTIST:Inspector K;
#TITLETRANSLIT:;
#SUBTITLETRANSLIT:;
#ARTISTTRANSLIT:;
#CREDIT:DMAxel;
#BANNER:Tension.png;
#BACKGROUND:Tension-bg.png;
#LYRICSPATH:;
#CDTITLE:in the groove.png;
#MUSIC:Tension.mp3;
#OFFSET:-0.060;
#SAMPLESTART:33.333;
#SAMPLELENGTH:12.000;
#SELECTABLE:YES;
#BPMS:0.000=180.000,132.000=90.000,136.000=180.000,200.000=90.000,216.000=180.000,248.000=90.000,252.000=180.000;
#STOPS:;
#BGCHANGES:;

//---------------dance-single - ----------------
#NOTES:
     dance-single:
     :
     Easy:
     4:
     0.299,0.344,0.077,0.086,0.000: // measure 1
0000
0000
0000
0000
,  // measure 2
0000
0000
0000
0000
,  // measure 3
0000
0000
0000
0000
,  // measure 4
0000
0000
0000
0000
,  // measure 5
0000
0000
0000
0000
,  // measure 6
0001
0000
0000
0000
,  // measure 7
0000
0000
0000
0000
,  // measure 8
1000
0000
0000
0000
,  // measure 9
0000
0000
0000
0000
,  // measure 10
0001
0000
0001
0000
,  // measure 11
1000
0000
1000
0000
,  // measure 12
0010
0000
0010
0000
,  // measure 13
1000
0000
1000
0000
,  // measure 14
0001
0000
0001
0000
,  // measure 15
0100
0000
0100
0000
,  // measure 16
0001
0000
0001
0000
,  // measure 17
1001
0000
0000
0000
,  // measure 18
1000
0100
1000
0000
,  // measure 19
0001
0010
0001
0000
,  // measure 20
1000
0100
1000
0000
,  // measure 21
0001
0010
0001
0000
,  // measure 22
0100
0010
0100
0000
,  // measure 23
0010
0100
0010
0000
,  // measure 24
1000
0001
1000
0000
,  // measure 25
0010
1000
0010
0000
,  // measure 26
1000
1000
1001
0000
,  // measure 27
0100
0001
0100
0000
,  // measure 28
0001
0001
1001
0000
,  // measure 29
0010
1000
0010
0000
,  // measure 30
1000
1000
1001
0000
,  // measure 31
0100
0001
0100
0000
,  // measure 32
0001
0001
1001
0000
,  // measure 33
0002
0000
0000
0000
,  // measure 34
1003
0100
0010
0001
,  // measure 35
1000
0001
1000
0000
,  // measure 36
1000
0010
1000
0000
,  // measure 37
0010
0100
0010
0000
,  // measure 38
0010
1000
0001
0000
,  // measure 39
0001
1000
0001
0000
,  // measure 40
1000
0010
1000
0000
,  // measure 41
0010
0100
0010
0000
,  // measure 42
1000
0001
0100
0000
,  // measure 43
0001
1000
0001
0001
,  // measure 44
1000
0001
1000
1000
,  // measure 45
0010
0100
0010
0010
,  // measure 46
0100
0010
0100
0100
,  // measure 47
0001
1000
0001
0001
,  // measure 48
1000
0001
1000
1000
,  // measure 49
0010
0100
0010
0010
,  // measure 50
1000
0001
2000
0000
,  // measure 51
3002
0000
0000
0000
,  // measure 52
0203
0000
0000
0000
,  // measure 53
0320
0000
0000
0000
,  // measure 54
2030
0000
3000
0000
,  // measure 55
1001
0010
0100
1000
,  // measure 56
0001
0010
0100
1000
,  // measure 57
0001
1000
0001
1000
,  // measure 58
0001
1000
0001
1000
,  // measure 59
0100
0010
0001
1000
,  // measure 60
0100
0010
0001
1000
,  // measure 61
0010
0100
0010
0100
,  // measure 62
0010
1000
0001
0010
,  // measure 63
0022
0033
0000
0000
,  // measure 64
1001
0100
0010
0001
,  // measure 65
1000
0100
0010
0001
,  // measure 66
0100
0010
0100
0001
,  // measure 67
0010
0100
1000
0001
,  // measure 68
1000
0010
0100
0010
,  // measure 69
1000
0001
0100
0010
,  // measure 70
0100
0001
0010
0100
,  // measure 71
1000
0001
0010
0100
,  // measure 72
1000
0001
1000
0001
,  // measure 73
1000
0100
1000
0100
,  // measure 74
1000
0001
1000
0001
,  // measure 75
0010
0001
0010
0001
,  // measure 76
1000
0001
1000
0001
,  // measure 77
1000
0010
1000
0010
,  // measure 78
0100
0001
0100
0001
,  // measure 79
0010
0100
1000
0001
,  // measure 80
0220
0000
0000
0000
,  // measure 81
0330
0000
0000
0000
;

//---------------dance-single - ----------------
#NOTES:
     dance-single:
     :
     Medium:
     6:
     0.439,0.482,0.181,0.172,0.000: // measure 1
0000
0000
0000
0000
,  // measure 2
0000
0000
0000
0000
,  // measure 3
0000
0000
0000
0000
,  // measure 4
0000
0000
0000
0000
,  // measure 5
0000
0000
0000
0000
,  // measure 6
0011
1000
0000
0000
,  // measure 7
0000
0000
0000
0000
,  // measure 8
1100
0001
0000
0000
,  // measure 9
0000
0000
0000
0000
,  // measure 10
0020
0000
0100
0000
,  // measure 11
0100
0000
0100
0030
,  // measure 12
2000
0000
0001
0000
,  // measure 13
0001
0000
0001
3000
,  // measure 14
0200
0000
0010
0000
,  // measure 15
0010
0000
0010
0300
,  // measure 16
0002
0000
1000
0003
,  // measure 17
2002
0000
0000
3003
,  // measure 18
0010
0100
1000
0001
,  // measure 19
0100
1000
0100
0001
,  // measure 20
1000
0010
0100
0001
,  // measure 21
1000
0100
0001
0100
,  // measure 22
1000
0010
0100
0001
,  // measure 23
0010
1000
0010
0001
,  // measure 24
1000
0100
0010
0001
,  // measure 25
1000
0010
0100
0101
,  // measure 26
1001
0000
0001
1000
0010
0000
0010
0000
,  // measure 27
0000
0100
0000
0001
0000
1000
0000
0000
,  // measure 28
1001
0000
1000
0001
0100
0000
0100
0000
,  // measure 29
0000
0010
0000
1000
0000
0001
0000
0000
,  // measure 30
1001
0000
1000
0001
0010
0000
0010
0000
,  // measure 31
0000
0001
0000
1000
0000
0100
0000
0000
,  // measure 32
1001
0000
0001
1000
0100
0000
0100
0000
,  // measure 33
0000
1000
0000
0001
0000
0100
0001
0000
,  // measure 34
2001
0100
0000
3002
,  // measure 35
1003
0100
1000
0000
0010
0100
0001
0000
,  // measure 36
0100
0001
0000
1000
0000
0001
1000
0000
,  // measure 37
0001
0010
0001
0000
0100
0010
1000
0000
,  // measure 38
0010
1000
0000
0001
0000
1000
0001
0000
,  // measure 39
1000
0010
1000
0000
0100
0010
0001
0000
,  // measure 40
0100
0001
0000
1000
0000
0001
1000
0000
,  // measure 41
0001
0100
0001
0000
0010
0100
1000
0000
,  // measure 42
0010
1000
0000
0001
0000
1000
0001
0000
,  // measure 43
0100
0000
0100
0001
0000
1000
0010
0000
,  // measure 44
0100
0010
0100
0000
0010
0100
0010
0000
,  // measure 45
1000
0100
0010
0001
,  // measure 46
0100
0001
0010
1000
,  // measure 47
0010
0000
0010
1000
0000
0001
0100
0000
,  // measure 48
0010
0100
0010
0000
0100
0010
0100
0000
,  // measure 49
0001
0010
0100
1000
,  // measure 50
0010
1000
1010
0000
,  // measure 51
1001
0022
0000
0000
0000
0000
0000
0033
,  // measure 52
1001
2200
0000
0000
0000
0000
0000
3300
,  // measure 53
0110
0202
0000
0000
0000
0000
0000
0303
,  // measure 54
0110
2020
0000
0000
0000
0000
3030
0000
,  // measure 55
1000
0010
0100
0000
0010
0100
0010
0000
,  // measure 56
1000
0100
0001
0001
,  // measure 57
0001
0100
0010
0000
0100
0010
0100
0000
,  // measure 58
0001
0010
1000
1000
,  // measure 59
1000
0100
0010
0000
0100
0010
0100
0000
,  // measure 60
1000
0100
0001
0001
,  // measure 61
0001
0010
0100
0000
0010
0100
0010
0000
,  // measure 62
0001
0000
0010
0000
1000
0010
0100
0000
,  // measure 63
0220
0000
0000
0330
,  // measure 64
0001
0100
0010
1000
0001
0000
0001
0000
,  // measure 65
0100
0010
0100
0000
0010
1000
0001
0000
,  // measure 66
1000
0010
0100
0001
1000
0000
1000
0000
,  // measure 67
0010
0100
0010
0000
0100
0001
1000
0000
,  // measure 68
0001
0100
0010
1000
0001
0000
0001
0000
,  // measure 69
0100
0010
0100
0000
0010
1000
0001
0000
,  // measure 70
1000
0010
0100
0001
1000
0000
1000
0000
,  // measure 71
0010
0100
0010
0000
0100
0001
1000
0000
,  // measure 72
0101
0000
0001
1000
0000
0010
1000
0010
,  // measure 73
1000
0000
1000
0001
0000
0100
0001
0100
,  // measure 74
0001
0000
0001
1000
0000
0100
1000
0100
,  // measure 75
1000
0000
1000
0001
0000
0010
0001
0010
,  // measure 76
0001
0000
0001
1000
0000
0010
1000
0100
,  // measure 77
1000
0000
1000
0001
0000
0100
0001
0010
,  // measure 78
0001
0000
0001
1000
0000
0100
1000
0010
,  // measure 79
1000
0000
1000
0001
1000
0001
0010
0100
,  // measure 80
2002
0000
0000
0000
,  // measure 81
3003
0000
0000
0000
;

//---------------dance-single - ----------------
#NOTES:
     dance-single:
     :
     Hard:
     9:
     0.609,0.758,0.232,0.129,0.245: // measure 1
0000
0000
0000
0000
,  // measure 2
0000
0000
0000
0000
,  // measure 3
0000
0000
0000
0000
,  // measure 4
0000
0000
0000
0000
,  // measure 5
0000
0000
0000
0000
,  // measure 6
1000
0010
0022
0000
0000
0000
0000
0000
,  // measure 7
0000
0000
0033
0000
,  // measure 8
0001
0100
2200
0000
0000
0000
0000
0000
,  // measure 9
0000
0000
3300
0000
,  // measure 10
0001
0010
0100
1000
,  // measure 11
0100
0001
0100
1000
,  // measure 12
0001
0110
1000
0100
,  // measure 13
0010
0001
0010
1000
,  // measure 14
0001
0110
1000
0001
,  // measure 15
0010
1000
0010
0001
,  // measure 16
1000
0110
0001
1000
,  // measure 17
1001
0000
0000
0000
0010
0010
0010
0000
,  // measure 18
0001
0000
1000
0000
1000
0000
0100
0000
0000
0000
1000
0000
0000
0001
0000
0000
,  // measure 19
0100
0002
0000
0000
1000
0000
1003
0000
,  // measure 20
1000
0000
0001
0000
0001
0000
0010
0000
0000
0000
0001
0000
0000
1000
0000
0000
,  // measure 21
0100
2000
0000
0000
0001
0000
3001
0000
,  // measure 22
0001
0000
1000
0000
0100
0000
0010
0000
0000
0000
0001
0000
0000
1000
0000
0000
,  // measure 23
0100
0020
0000
0000
0001
0000
0031
0000
,  // measure 24
1000
0000
0001
0000
0010
0000
0100
0000
0000
0000
1000
0000
0000
0001
0000
0000
,  // measure 25
0010
0200
0000
0000
1000
0000
1300
0000
,  // measure 26
1001
0000
1100
0000
1001
0000
1000
0001
,  // measure 27
0000
0100
0000
0001
0010
1000
0010
0000
,  // measure 28
1001
0000
0011
0000
1001
0000
0010
1000
,  // measure 29
0000
0010
0000
1000
0100
0001
0100
0000
,  // measure 30
1001
0000
1010
0000
1001
0000
0010
0001
,  // measure 31
0000
0100
0010
0100
0001
0100
1000
0000
,  // measure 32
1001
0000
0101
0000
1001
0000
0100
1000
,  // measure 33
0000
0010
0100
0010
1000
0010
0001
0000
,  // measure 34
1001
0000
0000
0000
0100
0100
0000
0000
0000
0000
0000
0000
0110
0000
0000
0000
,  // measure 35
0100
0001
1000
1000
0010
0100
0001
1000
,  // measure 36
0100
2000
0000
0001
0000
3001
0100
0000
,  // measure 37
0010
1000
0001
0001
0100
0010
1000
0001
,  // measure 38
0010
0002
0000
1000
0000
1003
0010
0000
,  // measure 39
0100
0001
1000
0100
1000
0001
0010
0100
,  // measure 40
1000
0020
0000
0001
0000
1000
1030
0000
,  // measure 41
0010
1000
0001
0010
0001
1000
0100
0010
,  // measure 42
0001
0200
0000
1000
0000
0001
0301
0000
,  // measure 43
0100
0000
0000
0100
0000
0000
0001
0000
0000
0001
0000
0000
1000
0000
0010
0000
,  // measure 44
0100
0000
0000
0100
0000
0000
0001
0000
0000
0001
0000
0000
0010
0000
0100
0000
,  // measure 45
1000
0000
0000
1000
0000
0000
0010
0000
0000
0010
0000
0000
0100
0000
0001
0000
,  // measure 46
1000
0100
0001
0100
1000
0000
1001
0000
,  // measure 47
0010
0000
0000
0010
0000
0000
1000
0000
0000
1000
0000
0000
0001
0000
0100
0000
,  // measure 48
0010
0000
0000
0010
0000
0000
1000
0000
0000
1000
0000
0000
0100
0000
0010
0000
,  // measure 49
0001
0000
0000
0001
0000
0000
0100
0000
0000
0100
0000
0000
0010
0000
1000
0000
,  // measure 50
0001
0010
1000
0010
0002
0000
0000
0000
,  // measure 51
1003
0100
1000
0001
0000
0001
0100
0001
0000
0000
0000
0000
0100
0000
0100
0000
,  // measure 52
0001
0010
0001
1000
0000
1000
0010
1000
0000
0000
0000
1000
0010
0000
0010
0000
,  // measure 53
0010
0100
0001
1000
0000
0010
1000
0001
0000
0000
0000
0001
0100
0000
0100
0000
,  // measure 54
0100
0010
1000
0001
0000
0100
0001
1000
0000
0000
0000
0000
0110
0000
0110
0000
,  // measure 55
1000
0010
0100
0001
1000
0100
0010
0100
,  // measure 56
1000
0001
0010
1000
0001
0000
1001
0000
,  // measure 57
0001
0100
0010
1000
0001
0010
0100
0010
,  // measure 58
0001
1000
0100
0001
1000
0000
1001
0000
,  // measure 59
1000
0100
0010
0001
0010
0100
0010
0001
,  // measure 60
1000
0100
0001
0100
1000
0001
0100
0000
,  // measure 61
0001
0010
0100
1000
0100
0010
0100
1000
,  // measure 62
0001
0010
1000
0010
0001
1000
0010
0000
,  // measure 63
0110
0000
0000
0000
1000
1000
0000
0000
0000
0000
0000
0000
0001
0001
0000
0000
,  // measure 64
0001
0000
0000
0010
0000
0000
0100
0000
0010
0000
0001
0000
1000
0000
0010
0000
,  // measure 65
1000
0000
0000
0100
0000
0000
0010
0000
0100
0000
1000
0000
0001
0000
0010
0000
,  // measure 66
1000
0000
0000
0001
0000
0000
0100
0000
0001
0000
0010
0000
0100
0000
1000
0000
,  // measure 67
0001
0000
0000
1000
0000
0000
0010
0000
1000
0000
0100
0000
0010
0000
0001
0000
,  // measure 68
1000
0000
0000
0010
1000
0000
0001
0000
0010
0000
0001
0000
1000
0000
0100
0000
,  // measure 69
1000
0000
0000
0010
1000
0000
0001
0000
0010
0000
0001
0000
1000
0000
0100
0000
,  // measure 70
0001
0000
0000
0100
0001
0000
1000
0000
0100
0000
1000
0000
0001
0000
0010
0000
,  // measure 71
0001
0000
0000
0100
0001
0000
1000
0000
0100
0000
1000
0000
0001
0000
0010
0000
,  // measure 72
1000
0000
0000
0001
0010
0000
0001
0000
1000
0000
0100
0000
0010
0000
0001
0000
,  // measure 73
1000
0000
0000
0001
0100
0000
0001
0000
1000
0000
0010
0000
0100
0000
0001
0000
,  // measure 74
0001
0000
0000
1000
0100
0000
1000
0000
0001
0000
0010
0000
0100
0000
1000
0000
,  // measure 75
0001
0000
0000
1000
0010
0000
1000
0000
0001
0000
0100
0000
0010
0000
1000
0000
,  // measure 76
0001
0010
0000
0001
0010
0000
0001
0000
1000
0000
0100
0000
0001
0000
0010
0000
,  // measure 77
0100
1000
0000
0100
1000
0000
0001
0000
0001
0000
0010
0000
1000
0000
0100
0000
,  // measure 78
0010
0001
0000
0010
0001
0000
1000
0000
1000
0000
0100
0000
0001
0000
0010
0000
,  // measure 79
0100
1000
0000
0100
1000
0000
0001
0000
0001
0000
0010
0000
1000
0000
0010
0000
,  // measure 80
0220
0000
0000
0000
,  // measure 81
0330
0000
0000
0000
;

//---------------dance-single - ----------------
#NOTES:
     dance-single:
     :
     Beginner:
     2:
     0.138,0.204,0.026,0.000,0.000: // measure 1
0000
0000
0000
0000
,  // measure 2
0000
0000
0000
0000
,  // measure 3
0000
0000
0000
0000
,  // measure 4
0000
0000
0000
0000
,  // measure 5
0000
0000
0000
0000
,  // measure 6
0000
0000
0000
0000
,  // measure 7
0000
0000
0000
0000
,  // measure 8
0000
0000
0000
0000
,  // measure 9
0000
0000
0000
0000
,  // measure 10
0001
0000
0000
0000
,  // measure 11
0000
0000
0000
0000
,  // measure 12
1000
0000
0000
0000
,  // measure 13
0000
0000
0000
0000
,  // measure 14
0001
0000
0000
0000
,  // measure 15
0000
0000
0000
0000
,  // measure 16
1000
0000
0000
0000
,  // measure 17
0000
0000
0000
0000
,  // measure 18
1000
0000
1000
0000
,  // measure 19
1000
0000
0000
0000
,  // measure 20
0001
0000
0001
0000
,  // measure 21
0001
0000
0000
0000
,  // measure 22
0100
0000
0100
0000
,  // measure 23
0100
0000
0000
0000
,  // measure 24
0010
0000
0010
0000
,  // measure 25
0010
0000
0000
0000
,  // measure 26
1000
0000
1000
0000
,  // measure 27
0001
0000
0000
0000
,  // measure 28
0001
0000
0001
0000
,  // measure 29
1000
0000
0000
0000
,  // measure 30
0010
0000
0010
0000
,  // measure 31
1000
0000
0000
0000
,  // measure 32
0001
0000
0001
0000
,  // measure 33
0100
0000
0000
0000
,  // measure 34
0100
0000
0000
0000
,  // measure 35
0100
0000
0010
0000
,  // measure 36
0100
0000
0000
0000
,  // measure 37
0010
0000
0100
0000
,  // measure 38
0010
0000
0000
0000
,  // measure 39
1000
0000
0001
0000
,  // measure 40
1000
0000
0000
0000
,  // measure 41
0001
0000
1000
0000
,  // measure 42
0001
0000
0000
0000
,  // measure 43
1000
0000
0001
0000
,  // measure 44
1000
0000
0001
0000
,  // measure 45
1000
0000
0010
0000
,  // measure 46
1000
0000
0000
0000
,  // measure 47
0001
0000
1000
0000
,  // measure 48
0001
0000
1000
0000
,  // measure 49
0001
0000
0100
0000
,  // measure 50
0001
0000
0000
0000
,  // measure 51
0001
0000
0000
0000
,  // measure 52
0001
0000
0000
0000
,  // measure 53
1000
0000
0000
0000
,  // measure 54
1000
0000
0000
0000
,  // measure 55
1001
0000
1000
0000
,  // measure 56
1000
0000
1000
0000
,  // measure 57
0100
0000
0100
0000
,  // measure 58
0100
0000
0100
0000
,  // measure 59
0010
0000
0010
0000
,  // measure 60
0010
0000
0010
0000
,  // measure 61
0001
0000
0001
0000
,  // measure 62
0001
0000
0001
0000
,  // measure 63
1001
0000
0000
0000
,  // measure 64
0001
0000
0001
0000
,  // measure 65
0010
0000
0010
0000
,  // measure 66
0001
0000
0001
0000
,  // measure 67
1000
0000
1000
0000
,  // measure 68
0100
0000
0100
0000
,  // measure 69
1000
0000
1000
0000
,  // measure 70
0010
0000
0010
0000
,  // measure 71
0100
0000
0100
0000
,  // measure 72
0001
0000
0001
0000
,  // measure 73
0010
0000
0010
0000
,  // measure 74
0100
0000
0100
0000
,  // measure 75
1000
0000
1000
0000
,  // measure 76
0001
0000
1000
0000
,  // measure 77
0001
0000
0010
0000
,  // measure 78
0100
0000
0010
0000
,  // measure 79
0100
0000
0010
0000
,  // measure 80
1001
0000
0000
0000
;
