#TITLE:テクノトリス四面楚歌;
#SUBTITLE:;
#ARTIST:Saka-ROW組;
#TITLETRANSLIT:TECHNOTRIS SHIMENSOKA;
#SUBTITLETRANSLIT:;
#ARTISTTRANSLIT:Saka-ROW KUMI;
#CREDIT:DMAxel;
#BANNER:TECHNOTRIS SHIMENSOKA.png;
#BACKGROUND:TECHNOTRIS SHIMENSOKA-bg.png;
#LYRICSPATH:TECHNOTRIS SHIMENSOKA.lrc;
#CDTITLE:DMAxel original simfile.png;
#MUSIC:TECHNOTRIS SHIMENSOKA.mp3;
#OFFSET:-6.580;
#SAMPLESTART:53.252;
#SAMPLELENGTH:12.000;
#SELECTABLE:YES;
#BPMS:0.000=185.000;
#STOPS:;
#BGCHANGES:-20.000=TECHNOTRIS SHIMENSOKA.avi=1.000=1=1=0,
99999=-nosongbg-=1.000=0=0=0 // don't automatically add -songbackground-
;

//---------------dance-single - ----------------
#NOTES:
     dance-single:
     :
     Easy:
     4:
     0.342,0.321,0.126,0.194,0.000: // measure 1
1000
0000
0010
0000
,  // measure 2
0100
0000
0001
0000
,  // measure 3
1001
0000
1001
0000
,  // measure 4
1000
0001
2000
0000
,  // measure 5
3001
0000
0100
0000
,  // measure 6
0010
0000
1000
0000
,  // measure 7
0001
1000
0001
0000
,  // measure 8
1000
0001
1000
0001
,  // measure 9
1000
0000
0010
0000
,  // measure 10
0100
0000
0001
0000
,  // measure 11
0010
0000
0100
0000
,  // measure 12
1001
0000
1001
0000
,  // measure 13
0001
1000
0001
0000
,  // measure 14
0100
0001
0100
0000
,  // measure 15
0010
1000
0010
0000
,  // measure 16
1000
0001
1000
0000
,  // measure 17
0010
0100
0010
0000
,  // measure 18
0100
0010
0100
0000
,  // measure 19
1001
0000
1001
0000
,  // measure 20
0001
1000
0001
0000
,  // measure 21
0100
0001
0100
0001
,  // measure 22
1000
1000
0000
0000
,  // measure 23
0100
1000
0100
1000
,  // measure 24
0001
0001
0000
0100
,  // measure 25
0010
0100
0010
0100
,  // measure 26
0001
1000
0000
0010
,  // measure 27
0100
0010
0100
0010
,  // measure 28
1000
0001
0000
0000
,  // measure 29
1001
0000
1001
0000
,  // measure 30
1000
0010
0100
0001
,  // measure 31
1000
0000
1001
0000
,  // measure 32
0001
0100
0010
1000
,  // measure 33
0001
0000
1001
0000
,  // measure 34
1000
0100
0010
0001
,  // measure 35
1000
0000
1001
0000
,  // measure 36
0001
0010
0100
1000
,  // measure 37
0000
0000
0000
0000
,  // measure 38
0001
0000
0100
0000
,  // measure 39
0001
0010
0100
1000
,  // measure 40
0001
0000
0100
0000
,  // measure 41
0001
0010
0200
0000
,  // measure 42
0000
0000
0310
0001
,  // measure 43
2000
0000
3010
0100
,  // measure 44
0002
0000
0103
0010
,  // measure 45
2000
0000
3100
0010
,  // measure 46
0001
0000
0100
0001
,  // measure 47
2000
0000
3010
0100
,  // measure 48
0002
0000
0013
0100
,  // measure 49
2000
0000
3100
0010
,  // measure 50
0001
0000
0000
0000
,  // measure 51
1000
0000
0010
0000
,  // measure 52
1000
0100
0010
0001
,  // measure 53
1001
0000
1001
0000
,  // measure 54
0010
0100
0010
0000
,  // measure 55
0200
0000
0302
0000
,  // measure 56
2003
0000
3002
0000
,  // measure 57
1003
0100
0010
0001
,  // measure 58
1000
0001
1000
0001
,  // measure 59
2000
0000
3020
0000
,  // measure 60
0230
0000
0302
0000
,  // measure 61
1003
0010
0100
0001
,  // measure 62
1000
0001
1000
0001
,  // measure 63
0100
0100
0200
0000
,  // measure 64
0310
0010
0020
0000
,  // measure 65
0130
0100
0200
0000
,  // measure 66
0310
0010
0020
0000
,  // measure 67
1030
0100
0010
0001
,  // measure 68
0010
0100
1000
1000
,  // measure 69
0001
0010
0100
1000
,  // measure 70
0100
0010
0001
0001
,  // measure 71
1000
0010
0100
0001
,  // measure 72
0100
0010
1000
1000
,  // measure 73
0001
0100
0010
1000
,  // measure 74
0001
0001
0100
0000
;

//---------------dance-single - ----------------
#NOTES:
     dance-single:
     :
     Hard:
     8:
     0.701,0.609,0.407,0.068,0.000: // measure 1
0001
0001
1000
1000
0001
0010
0100
1000
,  // measure 2
0010
0100
0001
0000
0100
0010
1000
0000
,  // measure 3
1100
0001
0101
1000
,  // measure 4
1001
0000
0110
0000
0001
0001
1000
1000
,  // measure 5
0010
0100
0010
0000
1000
0100
0001
0000
,  // measure 6
0100
0010
0100
0000
0001
0100
1000
0000
,  // measure 7
0100
0010
0100
0010
0001
1000
0001
0000
,  // measure 8
0010
0100
0010
0100
1000
0001
1000
0000
,  // measure 9
0010
1000
0001
0010
0001
0000
0011
0000
,  // measure 10
0100
0001
1000
0100
1000
0000
1100
0000
,  // measure 11
0010
0100
0010
1000
0001
0100
0001
0000
,  // measure 12
0100
0010
0100
0001
1000
0010
1000
0000
,  // measure 13
0001
0010
0100
1000
0001
0010
0100
0000
,  // measure 14
1000
0100
0010
0001
1000
0100
0010
0000
,  // measure 15
0001
0100
0010
1000
0001
0010
0100
0000
,  // measure 16
1000
0010
0100
0001
1000
0100
0010
0000
,  // measure 17
0001
0100
1000
0000
0100
0010
0100
0000
,  // measure 18
1000
0100
0001
0000
0100
0010
0100
0000
,  // measure 19
1001
1000
1100
0001
,  // measure 20
0101
0000
0101
0000
1000
0001
1000
0000
,  // measure 21
0001
0100
0010
0000
0100
0010
0100
0000
,  // measure 22
0001
0010
0100
1000
0001
0010
0001
0000
,  // measure 23
1000
0010
0100
0000
0010
0100
0010
0000
,  // measure 24
1000
0100
0010
0001
1000
0100
1000
0000
,  // measure 25
0001
0010
0100
0000
0010
0100
0010
0000
,  // measure 26
0001
0010
0100
1000
0001
0010
0001
0000
,  // measure 27
1000
0100
0010
0000
0100
0010
0100
0000
,  // measure 28
1000
0100
0010
0001
0001
1000
1000
0000
,  // measure 29
1100
0000
1100
0000
0001
0100
1000
0000
,  // measure 30
0101
0000
0101
0000
1000
0100
0001
0000
,  // measure 31
0110
0000
0110
0000
0001
0100
1000
0000
,  // measure 32
0110
0000
0110
0000
1000
0100
0001
0000
,  // measure 33
0100
0001
0100
0001
1000
0100
0010
0000
,  // measure 34
0100
1000
0100
1000
0001
0010
0100
0000
,  // measure 35
1000
0010
0100
0001
1000
1000
0001
0000
,  // measure 36
0010
0100
1000
0001
0001
0100
0010
0000
,  // measure 37
0000
0000
2000
0000
,  // measure 38
3001
0000
0001
0100
1000
0000
0100
1000
,  // measure 39
0001
0001
1000
1000
0100
0010
0100
0000
,  // measure 40
1000
0000
1000
0100
0001
0000
0100
0001
,  // measure 41
1000
1000
0001
0001
0100
0010
0000
0000
,  // measure 42
2000
0000
0000
0000
3001
0010
0100
1000
,  // measure 43
0020
0000
1030
0000
1000
0100
0010
0001
,  // measure 44
0200
0000
0301
0000
0001
0010
0100
1000
,  // measure 45
0020
0000
1030
0000
1000
0100
0010
0001
,  // measure 46
0200
0000
0301
0000
0100
0010
0100
0001
,  // measure 47
1000
1000
0001
0001
0100
0010
0100
0001
,  // measure 48
1000
0100
0010
0000
0001
1000
0001
0100
,  // measure 49
0100
0010
0010
1000
0001
1000
0010
0100
,  // measure 50
0001
0000
0002
0000
,  // measure 51
1003
0000
1000
0100
0001
0000
0100
0001
,  // measure 52
1000
1000
0001
0001
0100
0010
0100
0000
,  // measure 53
0110
0001
1001
1000
,  // measure 54
1001
0000
0110
0000
0001
0001
1000
1000
,  // measure 55
1100
1100
0011
0001
,  // measure 56
0011
1100
0110
1001
,  // measure 57
0100
1000
0001
0010
0100
1000
0001
0000
,  // measure 58
0010
0001
1000
0100
0010
0001
1000
0000
,  // measure 59
0011
0011
1100
1000
,  // measure 60
1100
0011
0110
1001
,  // measure 61
0010
1000
0001
0010
0100
1000
0001
0000
,  // measure 62
0100
0001
1000
0100
0010
0001
1000
0000
,  // measure 63
0110
0000
0110
0000
0001
0100
1000
0100
,  // measure 64
0001
0000
1001
0000
1000
0010
0001
0010
,  // measure 65
1000
0000
1001
0000
0001
0100
1000
0100
,  // measure 66
0001
1001
1000
1001
,  // measure 67
1000
1000
0001
0001
1000
0010
0100
0001
,  // measure 68
1000
1000
0001
0001
1000
0100
0010
0001
,  // measure 69
1000
1000
0001
0001
1000
0100
0010
0001
,  // measure 70
1000
1000
0001
0001
1000
0100
1000
0000
,  // measure 71
0001
0001
1000
1000
0001
0010
0100
1000
,  // measure 72
0001
0001
1000
1000
0001
0100
0010
1000
,  // measure 73
0001
0001
1000
1000
0001
0010
0100
1000
,  // measure 74
0001
0001
1000
1000
0100
0001
0100
1000
;

//---------------dance-single - ----------------
#NOTES:
     dance-single:
     :
     Challenge:
     10:
     0.883,0.824,0.204,0.000,0.315: // measure 1
1000
0010
0100
0001
0100
1000
0100
0010
,  // measure 2
1000
0010
0100
0001
0100
1000
0100
0010
,  // measure 3
1001
0010
0100
1000
0110
0001
0010
0100
,  // measure 4
1001
0000
1001
0000
1000
1000
0001
0001
,  // measure 5
0100
0010
0100
0001
0010
0001
1000
0010
,  // measure 6
1000
0001
0010
0100
1000
0001
0100
0001
,  // measure 7
1000
0100
1000
0001
0100
1000
0100
0010
,  // measure 8
1000
0000
0001
0000
0100
0000
0001
0000
1000
0000
0100
0000
1000
0100
0010
0000
,  // measure 9
0001
0100
0010
1000
0100
1000
0001
0100
,  // measure 10
0001
1000
0100
0010
0001
1000
0010
1000
,  // measure 11
0001
0010
0001
1000
0100
0001
0100
0010
,  // measure 12
0001
1000
0010
1000
0001
0010
0001
0000
,  // measure 13
0101
0000
1100
0000
0010
0001
1000
1000
,  // measure 14
1100
0000
0101
0000
0010
1000
0001
0001
,  // measure 15
0101
0000
1100
0000
0010
0001
1000
1000
,  // measure 16
1100
0000
0000
0000
0101
0000
0000
0000
0010
1000
0010
0000
1000
0100
0010
0000
,  // measure 17
0001
0100
0010
1000
0100
0001
0100
1000
,  // measure 18
0001
0100
0010
1000
0100
0001
0100
1000
,  // measure 19
0110
0000
0001
0100
0101
0000
1000
0100
,  // measure 20
1100
0000
1001
0000
0001
0100
0010
1000
,  // measure 21
0001
0010
0001
1000
0010
1000
0001
0010
,  // measure 22
0100
1000
0100
0001
0000
0100
1000
0010
,  // measure 23
0100
0001
1000
0100
1000
0001
0100
0001
,  // measure 24
0010
0000
0100
0000
1000
0000
0100
0000
0010
0100
0010
0000
0001
0010
0100
0000
,  // measure 25
1000
0010
0100
0001
0010
0100
0010
0001
,  // measure 26
1000
0100
0001
0100
0000
1000
0100
0010
,  // measure 27
0001
0100
0010
1000
0100
0010
0100
1000
,  // measure 28
0001
0000
0100
0000
1000
0000
0100
0000
0010
0100
0010
0000
0001
0000
1000
0000
,  // measure 29
0100
0010
0100
0000
1000
0010
0100
0000
,  // measure 30
0001
0010
0100
1000
0100
0001
0101
0000
,  // measure 31
0010
0100
0010
0000
0001
0100
0010
0000
,  // measure 32
1000
0000
0100
0000
0010
0000
0001
0000
0100
0000
1000
0000
0100
0010
0100
0010
,  // measure 33
0100
1000
0001
0010
0100
1000
0001
0000
,  // measure 34
0010
0001
1000
0100
0010
0001
1000
0000
,  // measure 35
0010
1000
0001
0010
0100
1000
0010
0000
,  // measure 36
0100
0001
1000
0100
0010
0001
0100
0010
,  // measure 37
0000
0000
0000
0000
0000
0000
0000
0000
1000
0001
1000
0001
1000
0001
1000
0001
,  // measure 38
1000
0000
0100
0000
0010
0000
0100
0000
1000
0000
0001
0000
0100
0001
0100
0000
,  // measure 39
0001
0000
0001
0000
1000
0010
0100
0000
0001
0100
0001
0100
0001
0000
1000
0000
,  // measure 40
0001
0000
0010
0000
0100
0000
0010
0000
0001
0000
1000
0000
0010
1000
0010
0000
,  // measure 41
1000
0000
1000
0000
0001
0100
0010
0000
1000
0010
1000
0000
0000
0000
0000
0000
,  // measure 42
0001
1000
0001
1000
0001
1000
0001
1000
0001
0000
0100
0000
1000
0000
0100
0000
,  // measure 43
0010
0100
1000
0001
1000
0100
0001
0100
,  // measure 44
0010
0000
0100
0001
0100
0000
0001
0000
1000
0000
0100
0000
0010
0000
0001
0000
,  // measure 45
0100
1000
0100
0001
1000
0100
0010
0001
,  // measure 46
1000
0000
0000
0000
0001
1000
0001
1000
0001
0000
0100
0000
0010
0000
1000
0000
,  // measure 47
0100
0001
0100
1000
0100
0010
0001
0100
,  // measure 48
1000
0000
0100
0010
0100
0000
1000
0000
0001
0000
0100
0000
0010
0000
1000
0000
,  // measure 49
0100
0001
0100
1000
0100
0010
0001
1000
,  // measure 50
0010
0100
0010
0000
0000
0000
0000
0000
1000
0001
1000
0001
1000
0001
1000
0001
,  // measure 51
1000
0000
0010
0000
0100
0000
0001
0000
0100
0000
1000
0000
0100
0010
0100
0000
,  // measure 52
1000
0000
1000
0000
0001
0100
0010
0000
1000
0010
1000
0000
0001
0000
0100
0000
,  // measure 53
0101
0000
0000
0000
1000
0000
0100
0000
1100
0000
0000
0000
0001
1000
0001
0000
,  // measure 54
1000
0010
0100
0001
1000
1000
0001
0001
,  // measure 55
1000
0000
0010
1000
0010
0000
1000
0000
0001
0000
0100
0001
0100
0000
0001
0000
,  // measure 56
1000
0000
0100
1000
0100
0000
1000
0000
0001
0000
0010
0001
0010
0000
0001
0000
,  // measure 57
1000
0100
0010
0100
1000
0001
0100
0000
,  // measure 58
0001
0010
0100
0010
0001
1000
0010
0000
,  // measure 59
1000
0000
0010
1000
0010
0000
1000
0000
0001
0000
0100
0001
0100
0000
0001
0000
,  // measure 60
1000
0000
0100
1000
0100
0000
1000
0000
0001
0000
0010
0001
0010
0000
0001
0000
,  // measure 61
1000
0100
0010
0100
1000
0001
0010
0000
,  // measure 62
0001
0000
0010
0000
0100
0000
0010
0000
0001
0000
1000
0000
0001
1000
0001
0000
,  // measure 63
0100
0010
0100
0000
0010
0100
0010
0000
1000
0000
0100
0000
0010
0000
0001
0000
,  // measure 64
0100
0010
0100
0000
0010
0100
0010
0000
1000
0000
0100
0000
0010
0000
0001
0000
,  // measure 65
1000
0100
1000
0000
0001
0100
0001
0000
1000
0000
0100
0000
0010
0000
0001
0000
,  // measure 66
1000
0100
1000
0000
0001
0100
0001
0000
1000
0000
0100
0000
1000
0001
1000
0001
,  // measure 67
1000
0100
0010
0001
0100
1000
0100
0001
,  // measure 68
0100
0001
1000
0000
0100
1000
0100
0000
1000
0000
0100
0000
0010
0000
0001
0000
,  // measure 69
0010
0100
0010
0001
0100
1000
0100
0001
,  // measure 70
0100
0001
1000
0000
0100
1000
0100
0000
1000
0000
1000
0000
0001
1000
0001
1000
,  // measure 71
0001
0100
0010
1000
0100
0001
0100
1000
,  // measure 72
0100
1000
0001
0000
0100
0001
0100
0000
0001
0000
0100
0000
0010
0000
1000
0000
,  // measure 73
1010
0000
0001
0100
0101
0000
1000
0100
,  // measure 74
1000
0100
0010
0000
0001
0100
0001
0000
1000
0000
1000
0000
0001
0000
0001
0000
;

//---------------dance-single - ----------------
#NOTES:
     dance-single:
     :
     Medium:
     7:
     0.599,0.573,0.427,0.087,0.000: // measure 1
1000
0010
0100
0000
0010
0100
0010
0000
,  // measure 2
1000
0010
0100
0000
0010
0100
0010
0000
,  // measure 3
1001
0000
0110
0000
,  // measure 4
1001
0000
1000
0000
0001
1000
0001
1000
,  // measure 5
0001
0000
0101
0000
1000
0100
1000
0000
,  // measure 6
0001
0000
0101
0000
1000
0100
1000
0000
,  // measure 7
0001
0100
0010
1000
,  // measure 8
0100
0001
0100
1000
,  // measure 9
1010
0000
0001
0000
1000
0100
1000
0000
,  // measure 10
1010
0000
0001
0000
1000
0100
1000
0000
,  // measure 11
0001
0100
0010
1000
,  // measure 12
0001
0100
1000
0100
,  // measure 13
0001
0100
0010
0000
1000
0010
1000
0000
,  // measure 14
0001
0100
0010
0000
1000
0010
1000
0000
,  // measure 15
0010
0100
0010
0100
0010
1000
0001
0000
,  // measure 16
0100
0010
0100
0010
0100
0001
1000
0000
,  // measure 17
0010
0100
0010
0100
0010
1000
0001
0000
,  // measure 18
0100
0010
0100
0010
0100
0001
1000
0000
,  // measure 19
1001
0001
1001
1000
,  // measure 20
1001
0000
1001
0000
0001
1000
0001
0000
,  // measure 21
1000
0001
0100
1000
,  // measure 22
0100
0001
1000
0100
1000
0000
0000
0000
,  // measure 23
0001
1000
0010
0001
,  // measure 24
0010
1000
0001
0010
0001
0000
0000
0000
,  // measure 25
1000
0001
0010
1000
,  // measure 26
0010
0001
1000
0010
1000
0000
0001
0000
,  // measure 27
1000
0000
0100
0000
0001
0000
0100
1000
,  // measure 28
0001
0100
0002
0000
1000
0000
1003
0000
,  // measure 29
1001
0000
0100
0000
0100
1000
0100
0000
,  // measure 30
1001
0000
0010
0000
0010
0001
0010
0000
,  // measure 31
1001
0000
0100
0000
0100
1000
0100
0000
,  // measure 32
1001
0000
0010
0000
0010
0001
0010
0000
,  // measure 33
0001
1000
0001
1000
0001
1000
0001
0000
,  // measure 34
1000
0001
1000
0001
1000
0001
1000
0000
,  // measure 35
0010
0100
0010
0100
0010
0100
0010
0000
,  // measure 36
0100
0010
0100
0010
0100
0010
1000
0001
,  // measure 37
0000
0000
0000
0000
,  // measure 38
0200
0000
0301
1000
0002
0000
1003
0100
,  // measure 39
1000
1100
0011
1001
,  // measure 40
0020
0000
1030
0001
2000
0000
3001
0010
,  // measure 41
0001
0011
1100
0000
,  // measure 42
0000
0000
0000
0000
0001
0010
0100
1000
,  // measure 43
0001
0000
0001
0000
1000
0100
0010
0001
,  // measure 44
1000
0000
1000
0000
0001
0010
0100
1000
,  // measure 45
0001
0000
0001
0000
1000
0100
0010
0001
,  // measure 46
1000
0000
0001
1000
0001
0010
0100
1000
,  // measure 47
0001
0000
0001
0000
1000
0100
0010
0001
,  // measure 48
1000
0000
1000
0000
0001
0100
0010
1000
,  // measure 49
0001
0000
0001
0000
1000
0010
0100
0001
,  // measure 50
1000
0000
0000
0000
,  // measure 51
0200
0000
1300
0001
2000
0000
3001
0010
,  // measure 52
0001
0011
1100
1001
,  // measure 53
0020
0000
0031
1000
0002
0000
1003
0100
,  // measure 54
1000
0000
1100
0000
0001
1000
0001
1000
,  // measure 55
0001
1001
1000
1001
,  // measure 56
0001
1001
1000
1001
,  // measure 57
0010
0100
1000
0001
,  // measure 58
0010
0100
1000
0001
,  // measure 59
1000
1001
0001
1001
,  // measure 60
1000
1001
0001
1001
,  // measure 61
0100
0010
0001
1000
,  // measure 62
0010
0000
0100
0000
0001
0000
1000
0001
,  // measure 63
1000
0100
1000
0000
0100
0000
1100
0000
,  // measure 64
0001
0010
0001
0000
0010
0000
0011
0000
,  // measure 65
1000
0010
1000
0000
0010
0000
1010
0000
,  // measure 66
0001
0100
0001
0000
0100
0000
0101
0000
,  // measure 67
1000
0010
0100
0000
0010
0100
0010
0000
,  // measure 68
0101
0000
0101
0000
1000
0001
1000
0000
,  // measure 69
0001
0100
0010
0000
0100
0010
0100
0000
,  // measure 70
1010
0000
1010
0000
0001
1000
0001
0000
,  // measure 71
1000
0100
0010
0000
0100
0010
0100
0000
,  // measure 72
0110
0000
1001
0000
1000
0001
1000
0000
,  // measure 73
0001
0010
0100
0000
0010
0100
0010
0000
,  // measure 74
0110
0000
1001
0000
1000
0001
1000
0001
;

//---------------dance-single - ----------------
#NOTES:
     dance-single:
     :
     Beginner:
     2:
     0.100,0.177,0.058,0.000,0.000: // measure 1
1000
0000
0000
0000
,  // measure 2
1000
0000
0000
0000
,  // measure 3
1001
0000
0000
0000
,  // measure 4
0001
0000
0000
0000
,  // measure 5
0001
0000
0000
0000
,  // measure 6
0001
0000
0000
0000
,  // measure 7
0100
0000
0000
0000
,  // measure 8
0010
0000
0000
0000
,  // measure 9
0100
0000
0000
0000
,  // measure 10
0010
0000
0000
0000
,  // measure 11
1000
0000
0000
0000
,  // measure 12
1000
0000
0000
0000
,  // measure 13
0001
0000
0000
0000
,  // measure 14
1000
0000
0000
0000
,  // measure 15
0001
0000
0000
0000
,  // measure 16
1000
0000
0000
0000
,  // measure 17
0001
0000
0000
0000
,  // measure 18
0001
0000
0000
0000
,  // measure 19
1000
0000
0000
0000
,  // measure 20
1001
0000
0000
0000
,  // measure 21
1000
0000
0000
0000
,  // measure 22
0000
0000
0000
0000
,  // measure 23
0001
0000
0000
0000
,  // measure 24
0000
0000
0000
0000
,  // measure 25
1000
0000
0000
0000
,  // measure 26
0000
0000
0000
0000
,  // measure 27
0001
0000
0000
0000
,  // measure 28
0000
0000
0000
0000
,  // measure 29
1000
0000
0000
0000
,  // measure 30
1000
0000
0000
0000
,  // measure 31
0001
0000
0000
0000
,  // measure 32
0001
0000
0000
0000
,  // measure 33
1000
0000
0000
0000
,  // measure 34
1000
0000
0000
0000
,  // measure 35
0001
0000
0000
0000
,  // measure 36
0001
0000
0000
0000
,  // measure 37
0000
0000
0000
0000
,  // measure 38
1001
0000
0000
0000
,  // measure 39
1000
0000
0000
0000
,  // measure 40
1001
0000
0000
0000
,  // measure 41
0001
0000
0000
0000
,  // measure 42
0000
0000
0100
0000
,  // measure 43
0000
0000
0010
0000
,  // measure 44
0000
0000
0100
0000
,  // measure 45
0000
0000
0010
0000
,  // measure 46
0000
0000
1000
0000
,  // measure 47
0000
0000
0001
0000
,  // measure 48
0000
0000
1000
0000
,  // measure 49
0000
0000
0001
0000
,  // measure 50
0000
0000
0000
0000
,  // measure 51
1001
0000
0000
0000
,  // measure 52
0001
0000
0000
0000
,  // measure 53
1001
0000
0000
0000
,  // measure 54
1000
0000
0000
0000
,  // measure 55
0010
0000
0000
0000
,  // measure 56
0010
0000
0000
0000
,  // measure 57
0100
0000
0000
0000
,  // measure 58
0100
0000
0000
0000
,  // measure 59
0001
0000
0000
0000
,  // measure 60
0001
0000
0000
0000
,  // measure 61
1000
0000
0000
0000
,  // measure 62
1000
0000
0000
0000
,  // measure 63
0001
0000
0000
0000
,  // measure 64
1000
0000
0000
0000
,  // measure 65
0001
0000
0000
0000
,  // measure 66
1000
0000
0000
0000
,  // measure 67
0010
0000
0000
0000
,  // measure 68
0000
0000
0000
0000
,  // measure 69
0100
0000
0000
0000
,  // measure 70
0000
0000
0000
0000
,  // measure 71
0010
0000
0000
0000
,  // measure 72
0010
0000
0000
0000
,  // measure 73
1000
0000
0000
0000
,  // measure 74
0001
0000
0000
0000
;
