#TITLE:Sunshine Dance;
#SUBTITLE:(Latino YOKAN-Mix);
#ARTIST:Togo Project feat. Megu & Scotty D.;
#TITLETRANSLIT:;
#SUBTITLETRANSLIT:;
#ARTISTTRANSLIT:;
#CREDIT:DMAxel;
#BANNER:Sunshine Dance (Latino YOKAN-Mix).png;
#BACKGROUND:Sunshine Dance (Latino YOKAN-Mix)-bg.png;
#LYRICSPATH:;
#CDTITLE:beatmania.png;
#MUSIC:Sunshine Dance (Latino YOKAN-Mix).mp3;
#OFFSET:-9.604;
#SAMPLESTART:61.238;
#SAMPLELENGTH:12.000;
#SELECTABLE:YES;
#BPMS:0.000=130.000;
#STOPS:;
#BGCHANGES:;

//---------------dance-single - ----------------
#NOTES:
     dance-single:
     :
     Easy:
     3:
     0.236,0.319,0.255,0.112,0.000: // measure 1
0001
0001
0001
0100
,  // measure 2
1000
1000
1000
0100
,  // measure 3
0001
0001
0001
0010
,  // measure 4
1000
1000
1000
0010
,  // measure 5
0002
0000
0000
0000
,  // measure 6
2003
0000
0000
0000
,  // measure 7
3001
0000
1000
0000
,  // measure 8
0001
0000
1000
0000
,  // measure 9
0020
0000
0000
0000
,  // measure 10
0230
0000
0000
0000
,  // measure 11
0310
0000
0100
0000
,  // measure 12
0001
0000
0010
0000
,  // measure 13
0002
0000
1000
0000
,  // measure 14
2003
0000
0001
0000
,  // measure 15
3001
0000
1000
0000
,  // measure 16
0100
0000
0010
0000
,  // measure 17
0002
0000
0000
0000
1000
0000
0000
1003
,  // measure 18
0000
0000
0000
0000
,  // measure 19
0001
0000
1000
0000
,  // measure 20
0010
0000
0100
0100
,  // measure 21
0001
0000
1000
0000
,  // measure 22
1000
0000
0001
0000
,  // measure 23
1000
0000
1000
0000
,  // measure 24
0010
0000
0100
0000
,  // measure 25
0001
0000
0001
0000
,  // measure 26
1001
0000
0100
0000
,  // measure 27
0200
0000
0010
0000
,  // measure 28
0310
0000
0000
0000
,  // measure 29
1001
0001
0100
0100
,  // measure 30
0110
1000
1000
0010
,  // measure 31
0110
0001
0001
0100
,  // measure 32
0110
0000
1001
0000
,  // measure 33
1001
1000
0100
0100
,  // measure 34
0110
0001
0010
0010
,  // measure 35
0110
1000
0100
0100
,  // measure 36
0110
0000
1001
0000
,  // measure 37
2001
0000
0000
0000
,  // measure 38
3002
0000
0000
0000
,  // measure 39
2003
0000
0000
0000
,  // measure 40
3002
0000
0000
0000
,  // measure 41
1003
0000
0100
0000
,  // measure 42
0010
0000
0001
0000
,  // measure 43
1000
0000
0010
0000
,  // measure 44
0100
0000
0001
0000
,  // measure 45
1001
1000
0100
0100
,  // measure 46
0110
0001
0001
0010
,  // measure 47
0110
1000
1000
0100
,  // measure 48
0110
0001
1001
0000
,  // measure 49
0110
1000
0010
1000
,  // measure 50
0110
0001
0100
0001
,  // measure 51
0110
1000
0100
1000
,  // measure 52
0110
0001
0110
1000
,  // measure 53
1001
1000
0100
0001
,  // measure 54
0001
0010
1000
1000
,  // measure 55
1001
1000
0100
0001
,  // measure 56
1001
0010
1001
0000
,  // measure 57
0001
0001
0010
1000
,  // measure 58
1001
1000
0100
0001
,  // measure 59
1001
0001
0010
1000
,  // measure 60
1001
0110
1001
0000
,  // measure 61
0000
0000
0000
0000
,  // measure 62
2002
0000
3003
0000
;

//---------------dance-single - ----------------
#NOTES:
     dance-single:
     :
     Hard:
     7:
     0.490,0.441,0.311,0.120,0.064: // measure 1
0100
0010
0001
0100
0010
0100
0001
0000
,  // measure 2
0010
0100
1000
0010
0100
0010
1000
0000
,  // measure 3
0100
0010
0001
0100
0010
0100
0001
0000
,  // measure 4
0010
0100
1000
0010
0100
0001
1000
0000
,  // measure 5
1002
0000
0023
0000
,  // measure 6
0230
0000
2300
0000
,  // measure 7
3001
0010
0100
1000
0001
0001
0001
0000
,  // measure 8
1000
0100
0010
0001
0010
1000
0010
0000
,  // measure 9
2001
0000
3200
0000
,  // measure 10
0320
0000
0032
0000
,  // measure 11
1003
0100
0010
0001
1000
1000
1000
0010
,  // measure 12
1000
0000
0100
0000
0010
0000
0001
0000
0100
0000
0000
0100
0000
0000
0000
0000
,  // measure 13
1002
0000
0203
0000
,  // measure 14
0320
0000
2030
0000
,  // measure 15
3001
0010
0100
1000
0001
0001
0001
0000
,  // measure 16
1000
0100
0010
0001
0100
0010
0100
0001
,  // measure 17
1000
0000
0000
0100
0000
0000
1000
0000
0001
0000
0000
0010
0000
0000
1001
0000
,  // measure 18
0000
1000
0000
0001
1000
0100
1000
0100
,  // measure 19
0010
0000
0000
0001
0000
0000
1000
0000
0100
0000
0000
1000
0000
0000
0010
0000
,  // measure 20
0100
0000
0110
0000
0001
0010
0100
1000
,  // measure 21
0001
0000
1001
0000
0001
0010
0001
1000
,  // measure 22
0200
0000
1000
1300
0000
0100
1000
0001
,  // measure 23
0020
0000
0001
0001
0031
0000
1001
0000
,  // measure 24
0100
0010
0001
1000
0010
0100
0001
1000
,  // measure 25
1001
0000
0000
0000
0100
0000
0000
0000
0110
0000
0000
0110
0000
0000
0010
0000
,  // measure 26
2000
0000
0000
0000
3100
0010
0001
0100
,  // measure 27
0010
1001
0110
1001
,  // measure 28
1000
1100
0001
0011
,  // measure 29
1000
0100
1000
0100
1000
0001
0010
1000
,  // measure 30
0100
0000
0010
0000
0001
0000
1000
0000
0100
0000
0100
0000
0000
1000
0001
0000
,  // measure 31
0001
0100
0001
0100
0001
1000
0010
0001
,  // measure 32
1001
1001
0110
0110
,  // measure 33
0001
0010
0001
0010
0001
1000
0100
0001
,  // measure 34
0010
0000
0100
0000
1000
0000
0001
0000
0010
0000
0010
0000
0000
0001
1000
0000
,  // measure 35
1000
0010
1000
0010
1000
0001
0010
1000
,  // measure 36
1001
1001
0110
0110
,  // measure 37
0010
0001
0010
0000
0010
0001
0010
0000
,  // measure 38
0100
1000
0100
0001
0100
1000
1001
0000
,  // measure 39
0100
0001
0100
1000
0100
0001
1001
0000
,  // measure 40
0010
1000
0010
0000
0010
1000
0100
0000
,  // measure 41
1000
0001
0010
0001
0010
0100
1000
0000
,  // measure 42
0001
1000
0010
1000
0010
0100
0001
0000
,  // measure 43
1000
0001
0010
0001
0010
0100
1000
0000
,  // measure 44
0001
1000
0010
1000
0010
0100
0001
0000
,  // measure 45
0010
0100
1000
0001
0010
1000
0001
0010
,  // measure 46
0001
0000
1000
0000
0100
0000
0010
0000
0001
0000
1000
0000
0000
0001
1000
0000
,  // measure 47
0100
0010
0001
1000
0100
0001
1000
0100
,  // measure 48
1100
1100
0101
0101
,  // measure 49
0100
0010
0001
1000
0100
0001
1000
0100
,  // measure 50
1000
0000
0001
0000
0010
0000
0100
0000
1000
0000
0001
0000
0000
1000
0001
0000
,  // measure 51
0010
0100
1000
0001
0010
1000
0001
0010
,  // measure 52
0011
0011
1010
1010
,  // measure 53
1001
0000
0100
0010
0001
0100
0010
0010
,  // measure 54
0010
0000
0100
0010
1000
0100
0010
0010
,  // measure 55
0010
0000
0001
0100
0010
1000
0100
0100
,  // measure 56
0100
0000
0101
0000
0010
1000
0100
0000
,  // measure 57
1001
0000
0100
0010
0001
1000
0100
0100
,  // measure 58
0100
0000
0010
0001
0010
0100
1000
1000
,  // measure 59
1000
0000
0100
0010
0001
0010
0100
0000
,  // measure 60
1001
0000
0000
0000
1010
0000
0000
0000
0100
0000
0001
0010
0000
0001
0000
0010
,  // measure 61
0000
0000
0000
0000
0000
0000
0000
0000
0000
0000
0000
0000
0001
1000
0001
1000
,  // measure 62
0001
0000
0000
0100
0000
0000
0110
0000
0000
0000
0000
0000
0000
0000
0000
0000
;

//---------------dance-single - ----------------
#NOTES:
     dance-single:
     :
     Medium:
     5:
     0.366,0.416,0.335,0.136,0.000: // measure 1
1001
0000
0001
0000
0010
0001
0100
0000
,  // measure 2
1001
0000
1000
0000
0010
1000
0100
0000
,  // measure 3
1001
0000
0001
0000
0010
0001
0100
0000
,  // measure 4
1001
0000
1001
0000
0010
1000
0100
0000
,  // measure 5
0020
0000
0000
0000
,  // measure 6
0032
0000
0000
0000
,  // measure 7
1003
0100
1000
0100
1000
0000
1000
0000
,  // measure 8
0001
1000
0001
0000
0010
0000
1000
0000
,  // measure 9
0200
0000
0000
0000
,  // measure 10
2300
0000
0000
0000
,  // measure 11
3001
0010
0001
0010
0001
0000
0001
0000
,  // measure 12
1000
0001
1000
0000
0100
0000
0001
0000
,  // measure 13
0020
0000
0000
0000
,  // measure 14
0032
0000
0000
0000
,  // measure 15
1003
0010
1000
0010
1000
0000
1000
0000
,  // measure 16
0001
1000
0001
0000
0010
0000
1000
0000
,  // measure 17
0110
0000
0100
0000
0010
0000
1000
0001
,  // measure 18
0000
1000
0100
0001
,  // measure 19
0100
0000
0001
0100
1000
0000
0000
0000
,  // measure 20
0001
0001
0010
0100
,  // measure 21
1000
0000
0001
0100
1000
0000
0000
0000
,  // measure 22
0010
0000
0100
0002
0000
0000
0003
0000
,  // measure 23
1000
0000
0001
0100
0010
0000
1001
0000
,  // measure 24
1000
0100
0010
0001
,  // measure 25
2000
0000
3010
0010
,  // measure 26
1001
0000
0010
0000
,  // measure 27
0110
0110
1001
1001
,  // measure 28
0100
1000
0100
1000
0001
0100
0001
0000
,  // measure 29
1001
0000
0001
0000
0010
0100
0010
0000
,  // measure 30
1001
0000
1000
0000
0100
0010
0100
0000
,  // measure 31
1001
0000
0001
0000
0010
0100
0010
0000
,  // measure 32
1001
1000
0001
1000
,  // measure 33
1001
0000
0001
0000
0100
0010
0100
0000
,  // measure 34
1001
0000
1000
0000
0010
0100
0010
0000
,  // measure 35
1001
0000
0001
0000
0100
0010
0100
0000
,  // measure 36
1001
0100
0010
0001
,  // measure 37
0200
0001
0001
0301
,  // measure 38
2000
0010
3010
1010
,  // measure 39
0020
0001
0031
0011
,  // measure 40
0100
1000
0100
0000
0100
0000
1100
0000
,  // measure 41
0001
1000
0100
0000
1000
0100
0001
0000
,  // measure 42
1000
0001
0100
0000
0001
0100
1000
0000
,  // measure 43
0001
0100
0010
0000
1000
0010
0001
0000
,  // measure 44
1000
0001
0010
0000
0001
0010
1000
0000
,  // measure 45
1001
0000
1000
0000
0010
0100
0001
0000
,  // measure 46
1001
0000
1000
0000
0010
0100
0001
0000
,  // measure 47
1001
0000
0001
0000
0010
0100
1000
0000
,  // measure 48
0110
0010
0110
0100
,  // measure 49
1001
0000
0001
0000
0010
0100
1000
0000
,  // measure 50
1001
0000
0001
0000
0010
0100
1000
0000
,  // measure 51
1001
0000
1000
0000
0010
0100
0001
0000
,  // measure 52
0110
0010
0110
0100
,  // measure 53
2001
0000
0100
0000
3100
0000
1000
0010
,  // measure 54
0002
0000
0010
0000
0013
0000
0001
0010
,  // measure 55
2000
0100
3100
1000
,  // measure 56
0110
0110
1001
0000
,  // measure 57
0002
0000
0010
0000
0013
0000
0001
0100
,  // measure 58
2000
0000
0100
0000
3100
0000
1000
0100
,  // measure 59
0002
0010
0013
0001
,  // measure 60
0110
0110
1001
0000
,  // measure 61
0000
0000
0000
0000
0000
0000
1000
0001
,  // measure 62
1001
0000
0000
1001
0000
0000
0000
0000
;

//---------------dance-single - ----------------
#NOTES:
     dance-single:
     :
     Challenge:
     9:
     0.549,0.514,0.207,0.008,0.526: // measure 1
0001
0100
0000
0000
0001
0100
0000
0010
0000
0100
0000
0000
0001
0000
1000
0000
,  // measure 2
0010
1000
0000
0000
0010
1000
0000
0010
0000
0100
0000
0000
0001
0000
1000
0000
,  // measure 3
0001
0010
0000
0000
0001
0010
0000
0001
0000
0100
0000
0000
0010
0000
1000
0000
,  // measure 4
0100
1000
0000
0000
0100
1000
0000
0000
0010
0100
0010
0100
0000
0001
0000
1000
,  // measure 5
0001
0000
0000
0100
0001
0000
0000
1000
,  // measure 6
0100
0000
0000
0000
0000
0000
0000
0000
1000
0000
0000
0010
0000
0000
1000
0000
,  // measure 7
0001
0000
0010
0000
0001
1000
0000
0100
0000
0010
0000
0100
1000
0000
0001
0000
,  // measure 8
1000
0000
0100
0000
1000
0001
0000
0010
0000
0100
0000
0010
0001
0000
1000
0000
,  // measure 9
1001
0000
0000
0010
1000
0000
0000
0001
,  // measure 10
0010
0000
0000
0000
0000
0000
0000
0000
0001
0000
0000
0100
0000
0000
0001
0000
,  // measure 11
1000
0000
0100
0000
1000
0001
0000
0010
0000
0100
0000
0010
0001
0000
1000
0000
,  // measure 12
0001
0000
0010
0000
0100
0000
1000
0000
0001
0000
0000
0101
0000
0000
0000
0000
,  // measure 13
1001
0000
0000
0010
0001
0000
0000
1000
,  // measure 14
0010
0000
1000
1000
,  // measure 15
0001
0000
0010
0000
0001
1000
0000
0100
0000
0010
0000
0100
1000
0000
0001
0000
,  // measure 16
1000
0000
0100
0000
1000
0001
0000
0010
0000
0100
0000
0010
0001
0000
1000
0000
,  // measure 17
0010
0100
0010
0000
0010
1000
0001
1001
,  // measure 18
0000
0100
0000
0001
1000
0100
1000
0100
,  // measure 19
1000
0000
0000
0010
0000
0000
0100
0000
0001
0000
0010
0000
0001
0000
1000
0000
,  // measure 20
0100
0000
0000
1000
0001
0000
0000
0000
0001
0000
0010
0000
0100
0000
1000
0000
,  // measure 21
0001
0000
1000
0010
0000
1000
0001
0010
,  // measure 22
0100
0000
1000
0010
0000
1000
0001
0010
,  // measure 23
0100
0000
1000
0001
0000
0010
0100
1000
,  // measure 24
0001
0000
0000
0100
0000
0000
0010
0000
1000
0000
0100
0000
1000
0000
0001
0000
,  // measure 25
0011
0000
0000
0000
1000
0000
0000
0000
1100
0000
0000
0010
0000
0000
0001
0000
,  // measure 26
1002
0000
1000
0000
,  // measure 27
1003
1100
0001
1001
,  // measure 28
1000
0000
0001
0010
0000
0100
0000
1000
0000
0010
0000
0100
0001
1000
0001
1000
,  // measure 29
0001
0000
0100
0000
0010
0000
1000
0000
0001
0000
0100
0000
0010
1000
0000
0000
,  // measure 30
0100
0000
0010
0000
0001
0000
0100
0000
0001
0000
0010
0000
0000
0001
0010
0000
,  // measure 31
0100
1000
0100
0010
0001
0100
0001
0010
,  // measure 32
0110
1010
0110
0101
,  // measure 33
1000
0000
0010
0000
0100
0000
0001
0000
1000
0000
0010
0000
0100
0001
0000
0000
,  // measure 34
0010
0000
0100
0000
1000
0000
0010
0000
1000
0000
0100
0000
0000
1000
0100
0000
,  // measure 35
1000
0010
0100
0010
1000
0100
0010
0001
,  // measure 36
0110
1100
0110
0011
,  // measure 37
0001
1000
0100
0010
0001
1000
1000
0000
,  // measure 38
1000
0001
0010
0100
1000
0001
1001
0000
,  // measure 39
0001
1000
0100
0010
0001
1000
1001
0000
,  // measure 40
1000
0001
0010
0100
1000
0001
0001
0000
,  // measure 41
1000
0010
0100
0001
0010
1000
0001
0001
,  // measure 42
1000
0010
0100
0001
0010
1000
0001
0001
,  // measure 43
0010
0100
1000
0100
0001
1000
0100
1000
,  // measure 44
0001
0000
0100
0000
0010
0000
1000
0000
0001
0000
0010
0000
0100
0010
0100
0010
,  // measure 45
0100
0000
0010
0000
0001
1000
0000
0001
0000
0100
0010
0000
1000
0100
0000
0000
,  // measure 46
0010
0000
0100
0000
1000
0001
0000
0100
0000
0010
0100
0000
0000
0001
0010
0000
,  // measure 47
0001
0000
0100
0000
0010
1000
0000
0100
0000
1000
0000
0010
0100
0000
0001
0000
,  // measure 48
0010
0001
0010
0000
1001
0000
0000
0000
0100
1000
0100
0000
1001
0000
0000
0000
,  // measure 49
0010
0000
0100
0000
1000
0001
0000
1000
0000
0010
0100
0000
0001
0010
0000
0000
,  // measure 50
0100
0000
0010
0000
0001
1000
0000
0010
0000
0100
0010
0000
0000
1000
0100
0000
,  // measure 51
1000
0000
0010
0000
0100
0001
0000
0010
0000
0001
0000
0100
0010
0000
1000
0000
,  // measure 52
0100
1000
0100
0000
1001
0000
0000
0000
0010
0001
0010
0000
1001
0000
0000
0000
,  // measure 53
0001
0010
0000
0000
0001
0010
0000
0001
0000
1000
0000
0100
1000
0000
0001
0000
,  // measure 54
1000
0100
0000
0000
1000
0100
0000
1000
0000
0001
0000
0010
0001
0000
1000
0000
,  // measure 55
0001
0100
0000
0000
0001
0100
0000
0001
0000
1000
0000
0100
1000
0000
0001
0000
,  // measure 56
1000
0010
0000
0000
1000
0010
0000
0000
0100
0001
0100
0001
0010
0100
0000
0000
,  // measure 57
1000
0010
0000
0000
1000
0010
0000
1000
0000
0001
0000
0010
0001
0000
1000
0000
,  // measure 58
0001
0100
0000
0000
0001
0100
0000
0001
0000
1000
0000
0100
1000
0000
0001
0000
,  // measure 59
0100
0010
0000
0000
0100
0010
0000
0100
0000
0001
0000
1000
0100
0000
1000
0000
,  // measure 60
0010
0100
0000
0000
0010
0100
0000
0000
0010
1000
0010
1000
0100
0010
0000
1001
,  // measure 61
0000
0000
0000
0000
0001
0000
0000
0000
0000
0000
0001
0000
0000
0000
0000
1000
0000
0000
0000
0000
0000
0000
0000
0000
0010
0000
0100
0000
0010
0000
0100
0000
,  // measure 62
0001
0000
0000
0011
0000
0000
1001
0000
0000
0000
0000
0000
0000
0000
0000
0000
;

//---------------dance-single - ----------------
#NOTES:
     dance-single:
     :
     Beginner:
     1:
     0.074,0.097,0.096,0.000,0.000: // measure 1
1000
0000
0000
0000
,  // measure 2
1000
0000
0000
0000
,  // measure 3
0001
0000
0000
0000
,  // measure 4
0001
0000
0000
0000
,  // measure 5
1001
0000
0000
0000
,  // measure 6
0000
0000
0000
0000
,  // measure 7
0001
0000
0000
0000
,  // measure 8
0100
0000
0000
0000
,  // measure 9
1001
0000
0000
0000
,  // measure 10
0000
0000
0000
0000
,  // measure 11
1000
0000
0000
0000
,  // measure 12
0010
0000
0000
0000
,  // measure 13
1001
0000
0000
0000
,  // measure 14
0010
0000
0000
0000
,  // measure 15
0001
0000
0000
0000
,  // measure 16
0010
0000
0000
0000
,  // measure 17
0100
0000
0000
0000
,  // measure 18
0000
0000
0000
0000
,  // measure 19
1001
0000
0000
0000
,  // measure 20
0000
0000
0000
0000
,  // measure 21
1000
0000
0000
0000
,  // measure 22
0001
0000
0000
0000
,  // measure 23
1000
0000
0000
0000
,  // measure 24
0001
0000
0000
0000
,  // measure 25
0110
0000
0000
0000
,  // measure 26
0000
0000
0000
0000
,  // measure 27
0100
0000
0000
0000
,  // measure 28
0010
0000
0000
0000
,  // measure 29
1001
0000
0000
0000
,  // measure 30
0001
0000
0000
0000
,  // measure 31
0010
0000
0000
0000
,  // measure 32
0100
0000
0000
0000
,  // measure 33
1001
0000
0000
0000
,  // measure 34
1000
0000
0000
0000
,  // measure 35
0100
0000
0000
0000
,  // measure 36
0010
0000
0000
0000
,  // measure 37
1001
0000
0000
0000
,  // measure 38
0000
0000
0000
0000
,  // measure 39
0000
0000
0000
0000
,  // measure 40
0000
0000
0000
0000
,  // measure 41
1000
0000
0000
0000
,  // measure 42
1000
0000
0000
0000
,  // measure 43
0001
0000
0000
0000
,  // measure 44
0001
0000
0000
0000
,  // measure 45
1001
0000
0000
0000
,  // measure 46
0010
0000
0000
0000
,  // measure 47
0010
0000
0000
0000
,  // measure 48
0100
0000
0000
0000
,  // measure 49
0100
0000
0000
0000
,  // measure 50
0001
0000
0000
0000
,  // measure 51
1000
0000
0000
0000
,  // measure 52
0001
0000
0000
0000
,  // measure 53
1001
0000
0000
0000
,  // measure 54
0010
0000
0000
0000
,  // measure 55
0100
0000
0000
0000
,  // measure 56
0010
0000
0000
0000
,  // measure 57
1001
0000
0000
0000
,  // measure 58
0100
0000
0000
0000
,  // measure 59
0010
0000
0000
0000
,  // measure 60
0100
0000
0000
0000
,  // measure 61
0000
0000
0000
0000
,  // measure 62
1001
0000
0000
0000
;
