#TITLE:Sunlight;
#SUBTITLE:;
#ARTIST:shinpei;
#TITLETRANSLIT:;
#SUBTITLETRANSLIT:;
#ARTISTTRANSLIT:;
#CREDIT:DMAxel;
#BANNER:Sunlight.png;
#BACKGROUND:Sunlight-bg.png;
#LYRICSPATH:;
#CDTITLE:pop'n music.png;
#MUSIC:Sunlight.mp3;
#OFFSET:-1.080;
#SAMPLESTART:7.877;
#SAMPLELENGTH:12.000;
#SELECTABLE:YES;
#BPMS:0.000=140.000;
#STOPS:;
#BGCHANGES:;

//---------------dance-single - ----------------
#NOTES:
     dance-single:
     :
     Easy:
     3:
     0.207,0.275,0.235,0.034,0.000:
0000
0000
0000
0000
,
0000
0000
0000
0000
,
0000
0000
0000
0000
,
0000
0000
0000
0000
,
1000
0100
0010
0001
,
1000
1000
1000
0000
,
0001
0010
0100
1000
,
0001
0001
0001
0000
,
1000
0100
0010
0001
,
1000
1000
1000
0000
,
0001
0010
0100
1000
,
1001
0000
0000
0000
,
0100
0100
0100
0000
,
1001
0000
0000
0000
,
0010
0010
0010
0000
,
1001
0000
1000
1000
,
0010
0010
0010
0000
,
1001
0000
0000
0000
,
0100
0100
0100
0000
,
1001
0000
0001
0001
,
1001
0000
1000
0000
,
1001
0000
0001
0000
,
0110
0000
0100
0000
,
0110
0000
0010
0000
,
1001
0000
1000
0000
,
1001
0000
0001
0000
,
0110
0000
0100
0000
,
0110
0000
0010
0000
,
1001
0000
1000
0000
,
1001
0000
0001
0000
,
0010
0000
1001
0000
,
0100
0000
0010
0000
,
1000
0000
1001
0000
,
0010
0000
0001
0000
,
0010
0000
1001
0000
,
0100
0000
2000
0000
,
0000
3000
0000
0000
,
0000
0000
0000
0000
,
0010
0010
0010
0100
,
0010
0000
0000
0000
,
0100
0100
0100
0010
,
0100
0000
1001
1001
,
0001
0001
0001
1000
,
0001
0000
0000
0000
,
1000
1000
1000
0001
,
1000
0100
0010
0001
,
2002
0000
0000
0000
,
0000
3003
0000
0000
,
0000
0000
0000
0000
,
1000
0000
0000
0000
;

//---------------dance-single - ----------------
#NOTES:
     dance-single:
     :
     Challenge:
     8:
     0.520,0.577,0.516,0.045,0.538:
0000
0000
0000
0000
,
0000
0000
0000
0000
,
0000
0000
0000
0000
,
0000
0000
0000
0000
,
0010
0000
0000
0000
1001
0000
0000
0010
0000
0001
0000
0000
0100
0000
0000
0000
,
0100
0000
0000
0000
1001
0000
0000
0100
0000
1000
0000
0000
0010
0000
0000
0000
,
0010
0000
0000
0000
1001
0000
0000
0100
0000
0001
0000
0000
0100
0000
0000
0000
,
0100
0000
0000
0000
1001
0000
0000
0010
0000
1000
0000
0000
0010
0000
0000
0000
,
0010
0000
0000
0000
1001
0000
0000
0010
0000
0001
0100
0000
0100
0000
0000
0000
,
0100
0000
0000
0000
1001
0000
0000
0010
0000
1000
0010
0000
0010
0000
0000
0000
,
0010
0000
0000
0000
1001
0000
0000
0010
0000
0001
0100
0000
0110
0000
0000
0000
,
1002
0000
0000
0000
0000
0000
0000
0000
1000
0000
1000
0000
1003
0100
0000
1000
,
0010
0000
0100
0000
0010
0000
1000
0100
0000
1000
0100
0000
1001
0000
0000
0000
,
0100
0000
0010
0000
0100
0000
0001
0010
0000
0001
0010
0000
1001
0000
0000
0000
,
0010
0000
0100
0000
0010
0000
1000
0100
0000
1000
0100
0000
1000
0000
0001
0000
,
0010
0100
0000
0000
0010
0100
0000
0000
0010
0100
0000
0000
0010
0100
0000
0000
,
1000
0000
0001
0000
1000
0000
0100
0010
0000
0100
0010
0000
1001
0000
0000
0000
,
0001
0000
1000
0000
0001
0000
0010
0100
0000
0010
0100
0000
1001
0000
0000
0000
,
1000
0000
0001
0000
1000
0000
0100
0010
0000
0100
0010
0000
0001
0000
1000
0000
,
0100
0010
0000
0000
0100
0010
0000
0000
0100
0010
0000
0000
0001
1000
0001
1000
,
0001
0000
0000
0011
0000
0000
1000
0000
0001
0000
0000
0000
0000
0000
0000
0000
,
1100
0000
0000
1100
0000
0000
0001
0000
1000
0000
0000
1000
0000
0000
0001
0000
,
0100
0000
0000
0101
0000
0000
1000
0000
0001
0000
0000
0000
0000
0000
0000
0000
,
1010
0000
0000
1010
0000
0001
0000
0000
1000
0010
0000
1000
0000
0000
0001
0000
,
0010
0000
0000
0011
0000
0000
1000
0000
0001
0000
0000
0000
0000
0000
0000
0000
,
1100
0000
0000
1100
0000
0000
0001
0000
1000
0000
0000
0010
0000
0100
0001
0000
,
0100
0000
0000
0101
0000
0000
1000
0000
0001
0000
0000
0000
0000
0000
0000
0000
,
1010
0000
0000
1010
0000
0001
0000
0000
0100
0001
0000
1000
0000
0010
1000
0000
,
0100
0000
0000
1100
0000
0000
0001
0000
1000
0000
0000
0000
0000
0000
0000
0000
,
0011
0000
0000
0011
0000
0000
1000
0000
0001
0000
0000
0100
0000
0001
0010
0000
,
0101
0000
0000
0101
0000
0000
1000
0000
0001
0000
0000
0000
0000
0000
0000
0000
,
1010
0000
0000
1010
0000
0001
0000
0000
1000
0010
0000
0100
0000
0001
0100
0000
,
0011
0000
0000
0011
0000
0000
1000
0000
0001
0000
0000
0000
0000
0000
0000
0000
,
1100
0000
0000
1100
0000
0000
0001
0000
1000
0000
0000
0010
0000
1000
0100
0000
,
1010
0000
0000
1010
0000
0000
0001
0000
1000
0000
0000
0000
0000
0000
0000
0000
,
0101
0000
0000
0101
0000
1000
0000
0000
0001
0100
0000
0010
0000
1000
0200
0000
,
0000
0000
0000
0000
,
0300
0000
0000
0000
0000
0000
0000
0000
0000
0000
0000
0000
1000
0001
1000
0001
,
1000
0000
0100
0000
1000
0000
0001
0100
0000
0001
0010
0000
0100
0000
1000
0000
,
0010
0000
0000
0000
0110
0000
1000
0100
0000
1000
0010
0000
0110
0000
0000
0000
,
0001
0000
0010
0000
0001
0000
1000
0010
0000
1000
0100
0000
0010
0000
0001
0000
,
0100
0010
0000
0000
0100
0010
0000
0000
0100
0010
0000
0000
1001
0000
0000
0000
,
0001
0000
0100
0000
0001
0000
1000
0100
0000
1000
0010
0000
0100
0000
0001
0000
,
1000
0000
0000
0000
0110
0000
0001
0010
0000
0001
0100
0000
0110
0000
0000
0000
,
1000
0000
0010
0000
1000
0000
0001
0010
0000
0001
0100
0000
0010
0000
1000
0000
,
0100
0010
0000
0001
0010
0000
1000
0000
0100
0010
0000
0001
0010
0000
1000
0000
,
0220
0000
0000
0000
,
0000
0330
0000
0000
,
0000
0000
0000
0000
,
0001
0000
0000
0000
;

//---------------dance-single - ----------------
#NOTES:
     dance-single:
     :
     Beginner:
     1:
     0.077,0.111,0.101,0.000,0.000:
0000
0000
0000
0000
,
0000
0000
0000
0000
,
0000
0000
0000
0000
,
0000
0000
0000
0000
,
0000
0000
0000
1000
,
0000
0000
0000
0001
,
0000
0000
0000
1000
,
0000
0000
0000
0001
,
0000
0000
0000
1000
,
0000
0000
0000
0001
,
0000
0000
0000
0100
,
0000
0000
0010
0000
,
0000
0000
0100
0000
,
0000
0000
0000
0000
,
0000
0000
0100
0000
,
0000
0000
0000
0000
,
0000
0000
0010
0000
,
0000
0000
0000
0000
,
0000
0000
0010
0000
,
0000
0000
0000
0000
,
0000
0000
1001
0000
,
0000
0000
1000
0000
,
0000
0000
1001
0000
,
0000
0000
0001
0000
,
0000
0000
1001
0000
,
0000
0000
0100
0000
,
0000
0000
1001
0000
,
0000
0000
0010
0000
,
0000
0000
1001
0000
,
0000
0000
0010
0000
,
0000
0000
1001
0000
,
0000
0000
0100
0000
,
0000
0000
1001
0000
,
0000
0000
0010
0000
,
0000
0000
1001
0000
,
0000
0000
0001
0000
,
1000
0000
0000
0000
,
0000
0000
0000
0000
,
0000
0000
0000
0001
,
0000
0000
0000
1000
,
0000
0000
0000
0001
,
0000
0000
0000
1000
,
0000
0000
0000
0010
,
0000
0000
0000
0100
,
0000
0000
0000
0010
,
0000
0000
0100
0000
,
0000
0000
1001
0000
,
0000
0000
0000
0000
,
0000
0000
0000
0000
,
0000
0000
0010
0000
;

//---------------dance-single - ----------------
#NOTES:
     dance-single:
     :
     Medium:
     6:
     0.344,0.384,0.325,0.135,0.050:
0000
0000
0000
0000
,
0000
0000
0000
0000
,
0000
0000
0000
0000
,
0000
0000
0000
0000
,
0001
0010
0001
0000
1000
0100
0010
0001
,
0000
0010
0100
0010
0001
0000
0001
0000
,
1000
0100
1000
0000
0001
0010
0100
1000
,
0000
0100
0010
0100
1000
0000
1000
0000
,
0001
0100
0001
0000
1000
0010
0100
0001
,
0000
0010
0100
0010
0001
0000
0001
0000
,
1000
0010
0100
0001
0010
0100
1000
0000
,
2002
0000
0000
3003
,
1000
0100
1000
0100
1000
0000
0100
0000
,
0001
0000
0000
0000
1001
0000
0000
0000
0000
0000
1000
0000
0000
1000
0000
0000
,
0001
0010
0001
0010
0001
0000
0010
0000
,
1000
1001
0001
0001
,
1000
0010
1000
0010
1000
0000
0010
0000
,
0001
0000
0000
0000
1001
0000
0000
0000
0000
0000
1000
0000
0000
1000
0000
0000
,
0001
0100
0001
0100
0001
0000
0100
0000
,
1000
1001
1000
1000
,
0120
0000
0130
0000
,
1002
0000
1003
0000
,
0210
0000
0310
0000
,
2001
0000
3001
0000
,
2010
0000
0000
0010
3010
0000
0000
0000
,
0102
0000
0000
0100
0103
0000
0000
0000
,
2100
0000
0000
0100
3100
0000
0000
0000
,
0012
0000
0013
0000
,
1010
0000
0000
0010
1000
0000
0000
0000
,
0101
0000
0000
0100
0001
0000
1000
0000
,
1100
0000
0000
0100
1000
0000
0000
0000
,
0011
0000
1001
0000
,
1001
0000
0000
0001
0000
0000
1000
0000
0001
0000
0000
0000
0000
0000
0000
0000
,
1001
0000
0000
1000
0000
0000
0001
0000
1000
0000
0000
0000
0000
0000
0000
0000
,
0110
0000
0000
0010
0000
0000
1000
0000
0001
0000
0000
0000
0000
0000
0000
0000
,
0110
0000
0000
0100
0000
0000
0000
0000
1001
0000
0000
0001
0000
0000
1000
0000
,
0000
0000
0000
0000
,
0000
0000
0000
0000
,
0100
0010
0100
0010
0100
0000
0001
0000
,
0100
0000
0000
0000
1001
0000
0000
0000
0000
0000
0001
0000
0000
1000
0000
0000
,
0010
0100
0010
0100
0010
0000
1000
0000
,
0100
1001
0100
0100
,
0001
1000
0001
1000
0001
0000
1000
0000
,
0100
0000
0000
0000
1001
0000
0000
0000
0000
0000
0001
0000
0000
0010
0000
0000
,
1000
0001
1000
0001
1000
0000
0100
0000
,
0001
0011
1000
1100
,
2002
0000
0000
0000
,
0000
3003
0000
0000
,
0000
0000
0000
0000
,
0010
0000
0000
0000
;

//---------------dance-single - ----------------
#NOTES:
     dance-single:
     :
     Hard:
     7:
     0.447,0.494,0.224,0.135,0.370:
0000
0000
0000
0000
,
0000
0000
0000
0000
,
0000
0000
0000
0000
,
0000
0000
0000
0000
,
0001
0010
0100
1000
0001
0100
0010
1000
,
0000
0000
0100
0000
0010
0000
0100
0000
1000
0000
1000
0000
0001
0010
0001
0000
,
1000
0100
0010
0001
1000
0010
0100
0001
,
0000
0000
0010
0000
0100
0000
0010
0000
0001
0000
0001
0000
1000
0100
1000
0000
,
0001
0100
0010
1000
0100
0010
0100
1000
,
0000
0000
0001
0000
0010
0000
0001
0000
1000
0000
1000
0000
0001
0010
0001
0000
,
1000
0010
0100
0001
0010
0100
0110
0000
,
2002
0000
0000
3003
,
0100
0000
0100
0000
0100
0000
1000
0000
0100
1000
0000
0001
0000
0010
0000
0001
,
0000
1000
0000
0020
0000
0000
0000
0000
0000
0000
1030
0000
0000
1001
0000
0000
,
0010
0000
0010
0000
0010
0000
0001
0000
0010
0001
0000
1000
0000
0100
0000
1000
,
0000
0001
0000
0100
0000
0000
0000
0000
1001
0000
0000
0000
1001
0000
0000
0000
,
0100
0000
0100
0000
0100
0000
1000
0000
0100
1000
0000
0001
0000
0010
0000
0001
,
0000
1000
0000
0020
0000
0000
0000
0000
0000
0000
1030
0000
0000
1001
0000
0000
,
0010
0000
0010
0000
0010
0000
0001
0000
0010
0001
0000
1000
0000
0100
0000
1000
,
0000
0001
0000
0100
0000
0000
0000
0000
1001
0000
0000
0000
1001
0000
0000
0000
,
0100
0000
0000
0100
0000
0000
0000
0000
0110
0000
0000
0000
0000
0000
0000
0000
,
0001
0000
0000
0001
0000
0000
1000
0000
2000
0000
0000
0000
0000
0000
3001
0000
,
0010
0100
1000
0010
0110
0000
0000
1000
,
0000
1000
0001
0000
0100
0001
1000
0010
,
0100
0000
0000
0100
0000
0000
0000
0000
0110
0000
0000
0000
0000
0000
0000
0000
,
1000
0000
0000
1000
0000
0000
0001
0000
0002
0000
0000
0000
0000
0000
1003
0000
,
0100
0010
0001
0100
0110
0000
0000
0001
,
0000
0001
1000
0000
0010
1000
0001
0100
,
0010
0000
0000
0010
0000
0000
0010
0000
1001
0000
0000
0000
0000
0000
0000
0000
,
0001
0000
0000
0001
0000
0000
1000
0000
2000
0000
0000
0000
0000
0000
3001
0000
,
0010
0100
1000
0010
0110
0000
0000
1000
,
0000
1000
0001
0000
0100
0001
1000
0010
,
0100
0000
0000
0100
0000
0000
0100
0000
1001
0000
0000
0000
0000
0000
0000
0000
,
1000
0000
0000
1000
0000
0000
0001
0000
0002
0000
0000
0000
0000
0000
1003
0000
,
0100
0010
0001
0100
0110
0000
0000
0001
,
0000
0000
0001
0000
1000
0000
0000
0000
0010
1000
0000
0001
0000
0000
0101
0000
,
0000
0000
0000
0000
,
0000
0000
0000
0000
,
0100
0000
0100
0000
0100
0000
0001
0000
0100
0001
0000
1000
0000
0010
0000
1000
,
0000
0001
0000
0020
0000
0000
0000
0000
0000
0000
0001
0000
0000
0031
0000
0000
,
0010
0000
0010
0000
0010
0000
1000
0000
0010
1000
0000
0001
0000
0100
0000
0001
,
0000
1000
0000
0100
0000
0000
0000
0000
1001
0000
0000
0000
1001
0000
0000
0000
,
0010
0000
0010
0000
0010
0000
1000
0000
0010
1000
0000
0001
0000
0100
0000
0001
,
0000
1000
0000
0200
0000
0000
0000
0000
0000
0000
1000
0000
0000
1300
0000
0000
,
0100
0000
0100
0000
0100
0000
0001
0000
0100
0001
0000
1000
0000
0010
0000
1000
,
0001
0000
0000
0010
0001
0000
0000
1000
0100
0000
0000
0010
0100
0000
0000
0000
,
2002
0000
0000
0000
,
0000
3003
0000
0000
,
0000
0000
0000
0000
,
0010
0000
0000
0000
;

//---------------dance-double - ----------------
#NOTES:
     dance-double:
     :
     Easy:
     3:
     0.248,0.302,0.280,0.022,0.000: // measure 1
00000000
00000000
00000000
00000000
,  // measure 2
00000000
00000000
00000000
00000000
,  // measure 3
00000000
00000000
00000000
00000000
,  // measure 4
00000000
00000000
00000000
00000000
,  // measure 5
10000000
01000000
00100000
00010000
,  // measure 6
10000000
01000000
10000000
10000000
,  // measure 7
00010000
00100000
01000000
10000000
,  // measure 8
00010000
00100000
00010000
00001000
,  // measure 9
00010000
00001000
00000100
00000010
,  // measure 10
00000001
00000100
00000001
00000001
,  // measure 11
00001000
00000100
00000010
00000001
,  // measure 12
00001001
00000000
00000000
00000000
,  // measure 13
00000010
00000010
00000010
00000010
,  // measure 14
00001001
00000000
00000000
00000000
,  // measure 15
00000100
00000100
00000100
00000100
,  // measure 16
00001001
00001000
00010000
00001000
,  // measure 17
00100000
00100000
00100000
00100000
,  // measure 18
10010000
00000000
00000000
00000000
,  // measure 19
01000000
01000000
01000000
01000000
,  // measure 20
10010000
00000000
00010000
00001000
,  // measure 21
00011000
00000000
00000100
00000000
,  // measure 22
00011000
00000000
00100000
00000000
,  // measure 23
00011000
00000010
00011000
00000000
,  // measure 24
01000000
00000000
01100000
00000000
,  // measure 25
10010000
10000000
00010000
00000000
,  // measure 26
00011000
00000000
00001000
00000000
,  // measure 27
00001001
00000001
00001000
00000000
,  // measure 28
00011000
00000000
00010000
00000000
,  // measure 29
00110000
01000000
00100000
00000000
,  // measure 30
00011000
00000000
00001000
00000000
,  // measure 31
00001100
00000010
00000100
00000000
,  // measure 32
00011000
00000000
00010000
00000000
,  // measure 33
01010000
00100000
01000000
00000000
,  // measure 34
00011000
00000000
00001000
00000000
,  // measure 35
00001010
00000100
00000010
00000000
,  // measure 36
00011000
00000000
00010000
00001000
,  // measure 37
00000000
00000000
00000000
00000000
,  // measure 38
00000000
00000000
00000000
00000000
,  // measure 39
00001000
00001000
00001000
00010000
,  // measure 40
00100000
01000000
10000000
10000000
,  // measure 41
00010000
00010000
00010000
10000000
,  // measure 42
01000000
00100000
00010000
00011000
,  // measure 43
00001000
00001000
00001000
00000100
,  // measure 44
00000010
00000001
00001000
00000001
,  // measure 45
00001001
00000001
00000001
00000100
,  // measure 46
00001000
00100000
10000000
00010000
,  // measure 47
20020000
00000000
00000000
00000000
,  // measure 48
00000000
30030000
00000000
00000000
,  // measure 49
00000000
00000000
00000000
00000000
,  // measure 50
00001000
00000000
00000000
00000000
;
