#TITLE:She is my wife;
#SUBTITLE:;
#ARTIST:SUPER STAR 満-MITSURU-;
#TITLETRANSLIT:;
#SUBTITLETRANSLIT:;
#ARTISTTRANSLIT:SUPER STAR -MITSURU-;
#CREDIT:Pandemonium X VS DMAxel;
#BANNER:She is my wife.png;
#BACKGROUND:She is my wife-bg.png;
#LYRICSPATH:She is my wife.lrc;
#CDTITLE:beatmaniaIIDX.png;
#MUSIC:She is my wife.mp3;
#OFFSET:-0.250;
#SAMPLESTART:45.300;
#SAMPLELENGTH:12.000;
#SELECTABLE:YES;
#BPMS:0.000=85.000,62.000=42.500,64.000=170.000,180.000=85.000,184.000=170.000;
#STOPS:;
#BGCHANGES:-0.250=She is my wife.avi=1.000=1=0=1,
256.000=She is my wife-bg.png=1.000=1=0=1,
99999=-nosongbg-=1.000=0=0=0 // don't automatically add -songbackground-
;

//---------------dance-single - ----------------
#NOTES:
     dance-single:
     :
     Easy:
     3:
     0.246,0.316,0.202,0.079,0.000: // measure 1
0000
0000
0000
0000
,  // measure 2
0000
0000
0000
0000
,  // measure 3
0000
0000
0000
0000
,  // measure 4
0000
0000
0000
0000
,  // measure 5
0001
1000
0000
0001
,  // measure 6
0100
0010
1000
0000
,  // measure 7
0001
0000
0001
1000
,  // measure 8
0100
0000
0000
0010
,  // measure 9
0010
0000
1000
0001
,  // measure 10
0100
0000
0010
1000
,  // measure 11
0100
0000
1000
0001
,  // measure 12
1001
0000
0000
0000
,  // measure 13
0010
0000
0010
0000
,  // measure 14
0100
0000
1000
0001
,  // measure 15
0100
0000
0000
0000
0000
0000
0000
0010
,  // measure 16
1000
0000
0101
0000
,  // measure 17
1001
0000
0000
0000
,  // measure 18
1100
0000
0000
0000
,  // measure 19
0011
0000
0000
0000
,  // measure 20
1000
0001
1000
0000
0101
0000
1100
0000
,  // measure 21
1000
0001
0100
0001
,  // measure 22
0010
0100
0010
0001
,  // measure 23
1000
0100
0010
1000
,  // measure 24
1100
0010
0011
1000
,  // measure 25
2002
0000
3003
0000
,  // measure 26
1001
0001
1000
0001
,  // measure 27
0100
0100
0100
0000
,  // measure 28
0110
0000
0010
0100
,  // measure 29
0001
0001
0001
1000
,  // measure 30
1100
0000
0100
0001
,  // measure 31
1000
0000
1000
0001
,  // measure 32
0100
0000
0001
1000
,  // measure 33
0010
0100
0010
1000
,  // measure 34
1100
0000
0011
0000
,  // measure 35
0101
0000
0001
0100
,  // measure 36
0110
0000
0000
0000
,  // measure 37
0010
0000
0000
0000
,  // measure 38
0010
0000
0000
1000
0000
0000
0001
0000
,  // measure 39
0000
1000
0001
0000
1001
0000
1001
0000
,  // measure 40
1001
0000
0000
0001
0000
0000
1000
0001
,  // measure 41
0000
0101
0100
0001
,  // measure 42
0100
0000
0000
0010
0000
0000
1000
0000
,  // measure 43
0010
0000
0000
0100
0000
0000
0010
0000
,  // measure 44
1000
1000
1000
1000
,  // measure 45
1000
0001
0100
0010
,  // measure 46
1000
0000
1000
0000
,  // measure 47
0010
1000
0010
0000
1000
0000
0010
0000
,  // measure 48
0100
0001
1000
0010
,  // measure 49
1000
0100
1000
0000
1000
0000
0010
0000
,  // measure 50
0100
0001
0010
0001
,  // measure 51
0100
0001
0100
0000
0100
0000
0010
0000
,  // measure 52
1000
0000
0100
0000
0010
0001
0100
0000
,  // measure 53
0001
0100
0010
1000
,  // measure 54
1001
0100
0101
0010
,  // measure 55
2000
0000
3002
0000
,  // measure 56
0200
0303
0001
0100
,  // measure 57
0020
0000
0000
0000
,  // measure 58
0200
0000
0000
0330
,  // measure 59
0020
0000
0000
0000
,  // measure 60
2000
0000
0000
0000
,  // measure 61
3030
0000
0000
0000
;

//---------------dance-single - ----------------
#NOTES:
     dance-single:
     :
     Beginner:
     1:
     0.079,0.181,0.026,0.000,0.000:
0000
0000
0000
0000
,
0000
0000
0000
0000
,
0000
0000
0000
0000
,
0000
0000
0000
0000
,
0001
0000
0000
0000
,
0001
0000
0000
0000
,
1000
0000
0000
0000
,
0010
0000
0000
0000
,
0100
0000
0000
0000
,
0100
0000
0000
0000
,
0010
0000
0000
0000
,
1000
0000
0001
0000
,
1000
0000
0000
0000
,
0010
0000
0000
0000
,
0100
0000
0000
0000
,
0010
0000
1001
0000
,
0010
0000
0000
0000
,
0010
0000
0000
0000
,
0010
0000
0000
0000
,
0110
0000
0010
0010
,
1001
0000
0000
0000
,
0001
0000
0000
0000
,
1000
0000
0000
0000
,
0010
0000
0010
0000
,
0010
0000
0000
0000
,
0100
0000
0000
0000
,
1000
0000
0000
0000
,
0001
0000
0000
0000
,
1000
0000
1000
0000
,
1000
0000
0000
0000
,
0001
0000
0000
0000
,
0100
0000
0000
0000
,
0010
0000
0010
0000
,
0010
0000
1000
0000
,
0001
0000
0000
0000
,
1000
0000
0000
0000
,
0000
0000
0000
0000
,
0001
0000
0000
0000
,
0000
0000
0000
0000
,
1000
0000
0000
0000
,
0000
0000
0000
0000
,
0010
0000
0000
0000
,
0100
0000
0000
0000
,
0010
0000
0000
0000
,
0000
0000
0000
0000
,
1000
0000
0000
0000
,
0001
0000
0000
0000
,
0001
0000
0000
0000
,
1000
0000
0000
0000
,
1000
0000
0000
0000
,
0010
0000
0000
0000
,
0010
0000
0000
0000
,
0100
0000
0000
0000
,
0100
0000
0000
0000
,
1000
0000
1000
0000
,
1000
0000
0000
0000
,
0001
0000
0000
0000
,
0000
0000
0000
0000
,
0010
0000
0000
0000
,
0010
0000
0000
0000
;

//---------------dance-single - ----------------
#NOTES:
     dance-single:
     :
     Hard:
     8:
     0.401,0.553,0.254,0.079,0.224:
0000
0000
0000
0000
,
0000
0000
0000
0000
,
0000
0000
0000
0000
,
0000
0000
0000
0000
,
1000
0000
0001
0100
0001
0000
0100
0000
0000
0000
0010
0000
1000
0000
0001
0000
,
1000
0000
0000
0001
0000
0000
0100
0000
0000
0000
0000
0000
0000
0000
0010
1000
,
0010
0000
0000
0000
0000
0000
1000
1000
1000
0000
0000
0001
0000
0000
0100
0000
,
0010
0000
0000
0000
1000
0000
0000
0000
0100
0000
0000
0000
0010
1000
0001
1000
,
0001
0000
0000
0000
0000
0000
1000
0001
0100
0000
0000
0010
0000
0000
1000
0000
,
0010
0000
0000
0000
0000
0000
0000
0000
1000
0000
0000
0001
0000
0000
0100
0000
,
0010
0000
0000
2000
0000
0000
0000
0000
,
3001
0001
1000
1000
,
1001
0000
0000
0000
0000
0000
0001
0100
0010
0000
0000
0000
0000
0000
0010
1000
,
0100
0000
0000
0000
0000
0000
0000
0000
1000
0000
0000
0001
0000
0000
0100
0000
,
0010
0000
0000
0000
0000
0000
0000
0000
0000
0000
0000
0000
0000
0000
0001
1000
,
0100
0010
0001
1000
1001
0000
0000
0000
,
1001
1000
0001
0100
,
0101
0100
0010
1000
,
1010
0010
0100
0010
,
0010
0010
0010
0000
0001
1000
0010
0000
,
0001
0000
1000
0000
0100
0000
0010
0001
,
0100
0000
0001
0000
0100
0000
0010
0100
,
0001
0000
0010
0000
0001
0000
1000
0100
,
0010
0000
0000
0101
0000
0000
0010
0000
0100
0000
0000
0110
0000
0000
0001
0000
,
1000
0000
0001
0100
,
1010
0000
0000
0010
0000
0010
1000
0001
,
1000
0000
0000
0001
0000
0000
1000
0000
1000
0000
0000
0000
0000
0000
0001
0100
,
0001
0000
0000
0000
0000
0000
0010
0100
0010
0000
0000
0100
0000
0000
0010
0000
,
1000
0000
0001
0000
1000
0000
0001
1000
,
0100
0000
0000
0000
0000
0000
1000
0001
1000
0000
0000
0100
0000
0000
1000
0000
,
0100
0000
0000
0000
0000
0000
0010
0000
0001
0000
0000
0100
0000
0000
0010
0000
,
1000
0000
0000
0010
0100
1000
0100
0010
,
1000
0001
0100
0010
,
0110
0000
0000
0000
0000
0000
0010
0100
0010
0000
0000
0000
0000
0000
0001
1000
,
0001
0000
0000
0000
0000
0000
0000
0000
1000
0000
0000
0001
0000
0000
0100
0000
,
0020
0000
0000
0000
0000
0000
0000
1000
,
0000
0000
0000
0000
0000
0000
0000
0000
1030
0000
0000
0001
0000
0000
0010
0000
,
1001
0000
0000
0001
0000
0100
0010
1000
,
0000
0000
1010
0000
0101
0000
0000
0000
0110
0000
0000
1001
0000
0000
0001
0100
,
0001
0000
0000
0010
0000
0010
1000
0010
,
0000
0000
1000
0000
0100
0000
0000
0000
1100
0000
0000
0010
0000
0000
0001
0100
,
0001
0000
0000
0010
0000
0010
0100
0000
,
0010
0000
0001
1000
0000
0001
0010
0000
,
1100
0100
0100
0100
,
0100
0000
0000
0000
0100
0000
0000
0000
1000
0000
0000
0001
0000
0000
0100
0000
,
0010
0000
0000
0000
0000
0000
0000
0000
0000
0000
0000
0000
0000
0000
0000
0000
0000
0000
0000
0000
0000
0000
0000
0000
0000
0000
0000
0000
0000
0000
0000
0000
0000
0000
0000
0000
0000
0000
0000
0000
0000
0000
0000
0000
0000
0000
0000
0000
0000
0000
0000
0000
0000
0000
0000
0000
0000
0000
0000
0000
0000
0000
0000
0000
0000
0000
0000
0000
0000
0000
0000
0000
0000
0000
0000
0000
0000
0000
0000
0000
0000
0000
0000
0000
0000
0000
0000
0000
0000
0000
0000
0000
1000
0000
0000
0000
0001
0000
0000
0000
0000
0000
0000
0000
0000
0000
0000
0000
0000
0000
0000
0000
0000
0000
0000
0000
0000
0000
0000
0000
0000
0000
0000
0000
0000
0000
0000
0000
0000
0000
0000
0000
0000
0000
0000
0000
0000
0000
0000
0000
0000
0000
0000
0000
1000
0000
0000
0000
0000
0000
0100
0000
0000
0000
0000
0000
1000
0000
0000
0000
0000
0000
0100
0000
0000
0000
0000
0000
1000
0000
0000
0000
0000
0000
0100
0000
0000
0000
0000
0000
1000
0000
0000
0000
0000
0000
0100
0000
0000
0000
0000
0000
,
1000
0100
1000
0000
1100
0000
0011
0000
,
0001
0100
0020
0000
0100
0000
0130
0000
,
0010
1000
0001
0000
1001
0000
1100
0000
,
0001
1000
0010
0000
0010
1000
0001
1000
,
0001
0000
0101
0000
0010
0100
0001
0000
,
0010
0000
1010
0000
1000
0001
0100
0000
,
0010
0000
0000
0000
1000
0000
0001
0100
0001
0100
0001
0100
0001
0100
0001
0100
,
0001
1001
1100
0011
,
0201
0000
0000
0000
0000
0000
0301
1000
0200
0000
0000
0000
0000
0000
1300
0001
,
0200
0000
0000
0000
0000
0000
0000
0000
0310
0000
0000
1000
0000
0000
0001
0000
,
0202
0000
0000
0000
,
0300
0000
0000
0000
,
2003
0000
0000
0000
,
3001
0000
1000
0100
0000
0001
0100
0000
0110
0000
0010
1000
0000
0001
0100
0000
,
1010
0000
0000
0000
;

//---------------dance-single - ----------------
#NOTES:
     dance-single:
     :
     Challenge:
     8:
     0.529,0.589,0.605,0.123,0.118:
0000
0000
0000
0000
,
0000
0000
0000
0000
,
0000
0000
0000
0000
,
0000
0000
0000
0000
,
1001
1000
0100
0010
0000
0010
0100
1000
,
0001
0000
0000
0001
0000
0000
0001
0000
0100
0000
0000
0000
0010
0000
0010
0100
,
0010
0000
1000
0000
0001
0000
1000
0100
1000
0000
0000
1000
0000
0000
1000
0000
,
0010
0000
0000
0000
0110
0000
0000
0000
0101
0000
0000
0000
0100
0001
0100
0001
,
1000
0000
0010
0000
0100
0000
0001
0010
0001
0000
0000
0001
0000
0000
0001
0000
,
0100
0000
0000
0000
0100
0000
0010
0000
1000
0000
0000
1000
0000
0000
1000
0000
,
0001
0100
0010
1000
0010
0001
0100
1000
,
0010
0000
0000
0000
0110
0000
0000
0000
1010
0000
0000
0010
0001
0000
0001
0000
,
1001
0000
0001
0000
0010
0000
0100
0010
0100
0000
1000
0000
0100
0000
0010
0100
,
0010
0000
0001
0000
0010
0000
0100
0000
1010
0000
0000
1010
0000
0000
1000
0000
,
0001
0000
0010
0000
0001
0000
0010
0000
1000
0000
0010
0000
1000
0000
0100
0010
,
0100
0010
0001
1000
1001
0000
0000
0000
,
0202
0000
0000
0303
,
2200
0000
0000
3300
,
2002
0000
0000
3003
,
0100
0100
0100
0000
1100
0000
1001
0000
,
1000
0010
0100
0001
0100
1000
0010
0000
,
0001
0100
0010
1000
0010
0001
0100
0000
,
1000
0010
0100
0001
0100
1000
0010
0100
,
0101
0000
0000
0101
0000
0000
0001
0000
1000
0000
0000
1100
0000
0000
1000
0000
,
2002
0000
0000
3003
,
0011
0000
0100
0000
1000
0100
0010
0001
,
0100
0010
0100
0001
0010
0100
0010
0000
,
1100
0000
0010
0000
0001
0100
0010
1000
,
0010
1010
1010
0011
,
1001
0000
1000
0001
0100
0001
0010
0100
,
1000
0000
0001
1000
0010
1000
0100
0010
,
0001
1000
0001
0010
1000
0010
0001
0100
,
1000
1100
1100
0101
,
1001
0000
1000
0010
0011
0000
0001
0100
,
1100
0000
0000
0000
1000
0000
0001
0000
1000
0000
0000
1010
0000
0000
1010
0000
,
1001
0000
0100
0010
1000
0001
1000
0000
,
0010
0000
0100
0000
0001
0000
1000
0000
0001
0000
0000
0101
0000
0000
0101
0000
,
1001
0000
0000
1100
0000
0100
0010
0001
,
0000
0000
0010
0000
0011
0000
0000
0000
0011
0000
0000
1001
0000
0000
1000
0100
,
1000
0000
0000
0011
0000
0010
0100
1000
,
0000
0000
0100
0000
1100
0000
0000
0000
1100
0000
0000
1001
0000
0000
0001
0010
,
0001
0000
0000
1100
0000
0100
0001
0000
,
0011
0000
0000
0000
0010
0000
1000
0000
0000
0000
0000
0000
1000
0000
0010
0100
,
0010
1000
0100
1000
0100
1000
0001
0100
,
0001
0000
0100
0000
0001
0000
1000
0000
0010
0000
0000
0100
0000
0000
0001
0000
,
0012
0000
2003
0000
,
3001
0010
1000
0100
0010
0100
1000
0001
,
1000
0100
0001
0010
0100
0010
0001
1000
,
0001
0100
1000
0010
0100
0010
1000
0010
,
0001
0100
0001
1000
0100
1000
0001
0010
,
1010
1001
1001
0101
,
0101
0100
0010
1000
0100
0010
0100
1000
,
0010
0100
0001
0100
0010
1000
0010
0001
,
0100
1100
1100
0011
,
1001
0000
1000
0010
0011
0000
0001
0100
,
1100
0000
0000
0000
1000
0000
0010
0000
1000
0000
0000
1001
0000
0000
1001
0000
,
1020
0100
0100
0130
,
0201
0010
0010
0310
,
1000
0010
0100
0001
0100
1000
0010
0100
,
0101
0000
0000
1010
0000
0000
1010
0000
1001
0000
0000
0011
0000
0000
1100
0000
,
2002
0000
0000
0000
,
3003
0000
0000
0000
;

//---------------dance-single - ----------------
#NOTES:
     dance-single:
     :
     Medium:
     5:
     0.318,0.447,0.342,0.140,0.009:
0000
0000
0000
0000
,
0000
0000
0000
0000
,
0000
0000
0000
0000
,
0000
0000
0000
0000
,
0001
0000
0000
0000
0000
0001
0010
0100
,
1000
0000
0000
0000
0000
0000
0000
1000
,
0010
0000
0000
0010
0100
0000
0000
0000
,
0100
0000
0100
0000
0001
0000
0001
1000
,
0001
0000
0000
0001
0100
0000
0000
0000
,
0100
0000
0100
0010
,
0010
0000
0000
1000
0100
1000
0100
1000
,
0100
0000
0000
0000
,
1001
0000
0000
0001
0010
0000
0000
0010
,
0100
0000
0100
1000
,
0001
0000
0000
0000
0000
0000
0000
1000
,
0100
0000
1001
0000
,
0202
0000
0000
0303
,
2200
0000
0000
3300
,
2002
0000
0000
3003
,
1000
1000
1000
0000
1001
0000
1001
0000
,
0001
0100
0010
0000
1000
0001
1000
0000
,
0010
0100
0001
0000
0100
0010
0100
0000
,
0001
0100
0001
0000
1000
0100
1000
0000
,
1001
0000
1010
0000
,
0022
0000
0000
0033
,
1001
0000
0100
0000
0010
0000
0001
0010
,
1000
0000
0010
0000
0100
0000
0001
0100
,
1000
0000
0010
0100
0010
0000
1000
0000
,
0001
0011
0011
1000
,
1001
0000
1000
0100
0001
0000
0100
0000
,
0010
0000
1000
0010
0001
0000
0010
0000
,
0100
0000
1000
0001
1000
0000
0010
0100
,
0010
1000
0100
0010
,
1001
0000
1100
0000
,
1001
0000
0010
0010
,
0002
0000
0000
0000
0000
0000
1003
0010
,
0100
0001
0010
1000
,
0100
0000
0000
0000
,
0000
1000
0010
0000
0010
0000
0010
0000
,
1001
0000
0000
0000
,
0000
0001
0100
0000
0100
0000
0100
0000
,
1002
0000
0000
0000
,
2003
0000
0000
3000
,
1001
0100
0010
0001
,
0100
0000
0010
0000
0100
0001
0100
0000
,
1001
0000
1000
0000
,
1000
0100
1000
0000
0001
0000
1001
0000
,
1000
0100
1000
0000
0001
0000
1001
0000
,
0001
0010
0001
0000
1000
0000
1001
0000
,
0001
0010
0001
0000
1000
0000
1001
0000
,
1010
1000
1001
1001
,
0101
0001
1001
1001
,
1000
0001
1000
0001
1000
0100
1000
0001
,
0010
0110
0110
0110
,
1002
0000
0203
0000
,
0302
0000
1003
0010
,
0210
0000
0000
0000
,
0302
0000
0000
0003
,
1000
0010
0100
0000
0001
0100
1000
0000
,
1010
0000
0000
1000
0000
0000
0000
0000
0011
0000
0000
0001
0000
0000
0000
0000
,
1001
0000
0000
0000
;
