#TITLE:Searching...;
#ARTIST:Tia;
#FILE:Searching.mp3;
#BPM:170.000;
#GAP:11720;
#SAMPLESTART:74.354;
#SAMPLELENGTH:12.000;
#CDTITLE:pop'n music.png;
#SINGLE:BASIC:3:
4!40000000
B!60000000
B!40000000
B!60000000
30008000
20008000
20006000
40006000
4!40000000
00000000
B!60000000
00000000
B0800040
00600020
00600040
00204020
4!40000060
006000B0
00400060
20602000
60400060
00400060
00200060
00406080
6!60400040
00B00060
00400060
20802080
20600040
00600040
00200040
00602060
4!40000060
00B00040
00600040
80208020
80400060
00200080
00400020
00800060
4!40000060
006000B0
00200060
00402080
6!60000000
00000000
B!40000000
00000000
B!60000000
3!20000000
A!80000000
7!40000000
B!60000000
00000000
B!40000000
00000000
B!60000000
9!80000000
A!20000000
1!40000000
B!60000000
00000000
4!40000000
00006000
000000B0
00600040
00400060
00608020
B0006000
40006000
40006000
20802060
40004000
60006000
20008000
20604020
40008000
20006000
80002000
40602080
20006000
40002000
80006000
80204060
2!20000000
00000000
00000000
00000000
20000000
;
#SINGLE:ANOTHER:5:
60400060
20600040
20400060
80600040
20800060
20800040
80200060
80204060
2!20600060
0060003!60
004000B0
60904020
80600080
20600080
20400070
60802040
6!60000B24
06406080
20400030
48482080
40900460
20800460
80200070
60402820
4!40060060
060000B0
80200030
40802820
B0904840
60406860
2!20602640
80208280
4!40600060
00B00040
80206460
28208280
40106260
40604240
60206090
40802620
6!60040040
004000B0
80206080
28208640
8!80000000
00000700
4!40000000
00000B00
6!60004000
B!40006000
7!80002000
A!20008000
3!60008000
80009000
6!60004000
4000B000
4!40008000
7!80002000
A!20006000
30802040
B!B0000000
000000B0
8!80000000
00000000
000000A0
00600080
00200040
00646464
60304640
80706460
40106460
28282060
40904640
60106460
20304640
82828040
60B08280
40B02820
60B08280
46464080
40B06260
40B04840
60B02820
64646040
8!80000000
2!20000000
20000000
2!20000000
A0000000
;
#SINGLE:MANIAC:8:
20B00640
20B00460
80B00460
80B00640
84800460
26200642
40B00468
60B00826
4!40200060
00200060
002000B0
40108640
B0603040
28204820
607040B0
82806284
6!60B80262
08420428
207060B0
4826824!40
10407060
82806280
40B02820
48264240
6!60B80262
08420824
603040B0
68248260
B0904820
62402824
609048A0
62402864
6!60B80268
02820824
20B08280
6284686!60
B0706820
42608286
407062A0
42608246
4!40B20848
02820828
60304010
86824262
8!80004000
70004600
2!20006000
30006400
80408040
60806080
2!2000A000
8!8000A000
46062084
04602820
64042086
06408280
26068024
04802626
48082062
82828464
B!B0000000
000000B0
20002000
20002000
8!802000A0
006!600040
00400040
00B82682
48206240
10864828
40B04260
30846282
60482640
62402824
(6000B00020406200)
62842824
68204260
82864820
(6000B00080604800)
48268286
40B06240
28246820
(4000B00020406200)
62842624
8!80000000
4!40000000
40000000
2!20000000
A0000000
;
#SINGLE:BEGINNER:2:
60000000
40000000
60000000
40000000
60000000
40000000
60000000
40000000
60000000
00000000
00000000
40000000
B0000000
40000000
80000000
40000000
40000000
40000000
40000000
40000000
60000000
20000000
60000000
20000000
60000000
60000000
60000000
40000000
B0000000
40000000
60000000
40000000
80000000
00000000
20000000
00000000
80000000
40000000
60000000
40000000
40000000
00000000
60000000
40000000
B0000000
00000000
60000000
00000000
40000000
00000000
60000000
00000000
40000000
00000000
40000000
00000000
60000000
00000000
60000000
00000000
B0000000
00000000
00000000
00000000
40000000
40000000
40000000
40000000
B0006000
40000000
60004000
60000000
40006000
40000000
60004000
60000000
20008000
20000000
80002000
80000000
20008000
20000000
80002000
80000000
80000000
;
