#TITLE:SWEET LAB;
#SUBTITLE:;
#ARTIST:DJ SIMON;
#TITLETRANSLIT:;
#SUBTITLETRANSLIT:;
#ARTISTTRANSLIT:;
#CREDIT:DMAxel;
#BANNER:SWEET LAB.png;
#BACKGROUND:SWEET LAB-bg.png;
#LYRICSPATH:;
#CDTITLE:beatmaniaIIDX.png;
#MUSIC:SWEET LAB.mp3;
#OFFSET:-0.320;
#SAMPLESTART:52.320;
#SAMPLELENGTH:12.000;
#SELECTABLE:YES;
#BPMS:0.000=120.000;
#STOPS:;
#BGCHANGES:-5.500=SWEET LAB.AVI=1.000=1=0=1,
99999=-nosongbg-=1.000=0=0=0 // don't automatically add -songbackground-
;

//---------------dance-single - ----------------
#NOTES:
     dance-single:
     :
     Easy:
     2:
     0.108,0.192,0.042,0.073,0.000: // measure 1
0000
0000
0000
0000
,  // measure 2
0000
0000
0000
0000
,  // measure 3
0000
0000
0000
0000
,  // measure 4
0000
0000
0000
0000
,  // measure 5
0000
0000
0000
0000
,  // measure 6
0000
0000
0000
0000
,  // measure 7
2000
0000
0000
0000
,  // measure 8
0000
0000
3000
0000
,  // measure 9
0002
0000
0000
0000
,  // measure 10
1003
1000
0001
0001
,  // measure 11
1001
0000
0001
0000
,  // measure 12
0010
0000
0100
0000
,  // measure 13
1000
0000
0000
0000
,  // measure 14
1000
0000
0100
0000
,  // measure 15
0010
0000
0001
0000
,  // measure 16
0001
0000
0000
0000
,  // measure 17
1000
0000
0000
0000
,  // measure 18
0002
0000
0000
0003
,  // measure 19
1001
0000
0000
0000
,  // measure 20
0000
0000
0001
0000
,  // measure 21
0001
0000
0010
0000
,  // measure 22
0100
0000
0000
0000
,  // measure 23
1000
0000
0000
0000
,  // measure 24
0100
0000
0000
0000
,  // measure 25
0100
0000
0000
0000
,  // measure 26
1000
0000
0000
0000
,  // measure 27
0001
0000
0001
0000
,  // measure 28
1000
0000
1000
0000
,  // measure 29
0010
0000
0010
0000
,  // measure 30
0100
0000
0100
0000
,  // measure 31
0001
0000
0001
0000
,  // measure 32
0010
0000
0010
0000
,  // measure 33
0100
0000
0100
0000
,  // measure 34
1000
0000
1000
0000
,  // measure 35
1000
0000
0000
0000
,  // measure 36
0001
0000
0000
0000
,  // measure 37
1000
0000
0000
0000
,  // measure 38
0010
0000
0000
0000
,  // measure 39
0020
0000
0000
0000
,  // measure 40
0230
0000
0000
0000
,  // measure 41
0320
0000
0000
0000
,  // measure 42
0230
0000
0000
0300
,  // measure 43
1001
0000
1000
0000
,  // measure 44
0100
0000
0010
0000
,  // measure 45
0001
0000
0001
0000
,  // measure 46
0010
0100
1000
1001
;

//---------------dance-single - ----------------
#NOTES:
     dance-single:
     :
     Hard:
     6:
     0.328,0.360,0.157,0.052,0.005: // measure 1
0000
0000
0000
0000
,  // measure 2
0000
0000
0000
0000
,  // measure 3
0000
0000
0000
0000
,  // measure 4
0000
0000
0000
0000
,  // measure 5
0000
0000
0000
0000
,  // measure 6
0000
0000
0000
0000
,  // measure 7
0022
0000
0000
0000
,  // measure 8
0033
0000
0000
0000
0000
0010
1000
0100
,  // measure 9
2000
0000
0000
3000
,  // measure 10
0011
0011
1100
1100
,  // measure 11
1001
0000
1000
0000
1000
0100
0001
0000
,  // measure 12
0010
0000
0100
0000
1000
0100
0001
0000
,  // measure 13
0100
0001
0010
0000
0001
0010
1000
0000
,  // measure 14
0100
0000
0010
0000
0001
0010
1000
0000
,  // measure 15
0100
0000
1100
0000
1000
0010
0001
0000
,  // measure 16
0100
0010
0100
0000
0001
0100
1000
0000
,  // measure 17
0010
0000
0011
0000
0001
1000
0100
1000
,  // measure 18
0100
0100
0100
0110
,  // measure 19
1001
0100
0010
0001
,  // measure 20
0010
0000
0000
0000
1000
0000
0001
0000
1000
0000
0000
0010
0000
0000
0010
0000
,  // measure 21
0100
0000
0000
0001
0001
0000
0000
1000
,  // measure 22
1000
0000
0000
0000
0000
0000
0001
1000
,  // measure 23
0001
0000
0010
0000
0100
0000
1000
0001
,  // measure 24
0010
0000
0001
0000
0010
0000
1000
0001
,  // measure 25
0100
0000
0001
0000
0010
0000
0100
1000
,  // measure 26
0001
0101
0110
0101
,  // measure 27
1000
0001
1000
0000
0100
0010
0001
0000
,  // measure 28
0010
0001
0010
0000
0001
0010
0100
0000
,  // measure 29
1000
0001
1000
0000
0100
1000
0010
0000
,  // measure 30
0100
0010
0100
0000
0001
0010
0100
1000
,  // measure 31
0001
1000
0001
0000
0010
0100
1000
0000
,  // measure 32
0100
1000
0100
0000
1000
0100
0010
0000
,  // measure 33
0001
1000
0001
0000
0010
0100
1000
0000
,  // measure 34
0010
0100
0010
0000
1000
0100
0010
0001
,  // measure 35
0100
0010
0100
0001
0000
1000
0010
0001
,  // measure 36
0000
1000
0010
0001
0000
0100
0001
0010
,  // measure 37
0001
0100
0001
0100
0000
0001
0100
1000
,  // measure 38
0000
0001
0100
1000
0000
0010
1000
0100
,  // measure 39
2000
0000
0000
0001
0000
0000
0001
0000
,  // measure 40
0000
0000
0000
0001
0000
0000
3001
0000
,  // measure 41
0200
0000
0000
0010
0000
0000
0010
0000
,  // measure 42
0000
0000
0000
0010
0000
0000
0310
0000
,  // measure 43
1001
0000
0100
0001
0010
0100
0010
0000
,  // measure 44
0001
0010
1000
0000
0100
1000
0100
0000
,  // measure 45
1000
0100
0010
0100
1000
0100
0001
0000
,  // measure 46
0100
0010
0100
0001
0010
0100
1001
0000
;

//---------------dance-single - ----------------
#NOTES:
     dance-single:
     :
     Challenge:
     8:
     0.473,0.528,0.126,0.031,0.482: // measure 1
0000
0000
0000
0000
,  // measure 2
0000
0000
0000
0000
,  // measure 3
0000
0000
0000
0000
,  // measure 4
0000
0000
0000
0000
,  // measure 5
0000
0000
0000
0000
,  // measure 6
0000
0000
0000
0000
,  // measure 7
2100
0000
0100
0000
,  // measure 8
3100
0000
0000
0000
0000
1000
0100
0010
,  // measure 9
0002
0000
0010
0003
,  // measure 10
0010
0001
0000
0000
0100
0010
0000
0000
1000
0100
0000
0000
1000
0000
0001
1000
,  // measure 11
0001
0010
0100
1000
0010
0010
0010
1000
,  // measure 12
0001
0100
0010
0100
0001
0001
0001
0000
,  // measure 13
0100
0000
0000
0101
0000
0000
0100
0000
0010
0000
0100
0000
0001
0000
1000
0000
,  // measure 14
0010
0010
0010
1000
0100
1000
0001
0000
,  // measure 15
1001
0000
0000
0000
0011
0000
0000
0001
0000
1000
0000
0100
1000
0000
1000
0000
,  // measure 16
0010
0100
0010
1000
0100
0010
0100
0000
,  // measure 17
1001
0000
0000
0000
1100
0000
0000
0000
1000
0001
0000
0010
0000
0100
0000
0010
,  // measure 18
0001
0001
0010
0010
1000
1000
0110
0000
,  // measure 19
1001
0010
0100
0010
0001
0010
0100
0000
,  // measure 20
1000
0000
0100
0000
0010
0000
0100
0000
1000
0000
0000
0010
0000
0000
1000
0000
,  // measure 21
0002
0000
0000
0100
0100
0000
0000
0010
,  // measure 22
0013
0000
0100
0000
1000
0000
0010
0100
,  // measure 23
0001
0010
0100
0010
0001
0010
0100
1000
,  // measure 24
0010
0000
1000
0001
1000
0001
0010
0001
,  // measure 25
0100
0000
0001
1000
0001
1000
0100
1000
,  // measure 26
0100
1000
0000
0000
0010
0100
0000
0000
0001
0000
0001
0000
1001
0000
0000
0000
,  // measure 27
0010
0000
1000
0000
0010
0000
1000
0001
0000
0010
0000
0001
1000
0000
0001
0000
,  // measure 28
0100
0000
0001
0000
0100
0000
0001
1000
0000
0100
0000
1000
0001
0000
1000
0000
,  // measure 29
0001
0000
0100
0000
0010
0000
0100
0001
0000
0010
0000
0001
0010
0000
0100
0000
,  // measure 30
1000
0000
0010
0000
0100
0000
0010
1000
0000
0100
0000
1000
0100
0000
0010
0000
,  // measure 31
0001
0000
0001
0000
0100
0001
0000
0010
0000
0100
0000
1000
0001
0000
0001
0000
,  // measure 32
1000
0000
1000
0000
0010
1000
0000
0100
0000
0010
0000
0001
1000
0000
1000
0000
,  // measure 33
0001
0000
0001
0000
0100
0001
0000
0010
0000
0100
0000
1000
0001
0000
0001
0000
,  // measure 34
0100
0001
0100
0000
0010
1000
0000
0010
0100
0010
0000
0000
0100
0001
0100
0001
,  // measure 35
0010
0000
0001
0100
0000
0100
0000
0010
0000
1000
0000
0010
1000
0000
0100
0000
,  // measure 36
1000
0010
1000
0010
0000
0100
0000
0001
0000
0001
0000
0010
0001
0000
0010
0001
,  // measure 37
0010
0000
0001
0100
0000
0100
0000
0001
0000
0100
0000
0010
1000
0000
0100
0000
,  // measure 38
1000
0001
1000
0000
0001
0100
0000
0010
0100
0010
0100
0000
0010
0000
1000
0000
,  // measure 39
0100
0000
0000
1000
0000
0000
0100
0000
0000
1000
0000
0000
0100
0000
1000
0000
,  // measure 40
0001
0000
0000
0010
0000
0000
0001
0000
0000
0010
0000
0000
0001
0000
1000
0000
,  // measure 41
0010
0000
0000
1000
0000
0000
0010
0000
0000
1000
0000
0000
0010
0000
0100
0000
,  // measure 42
0001
0000
0000
0100
0000
0000
0001
0000
0000
0100
0000
0000
1001
0000
0000
0000
,  // measure 43
1000
0000
0100
0000
0010
0100
0000
1000
0000
1000
0000
0010
0100
0000
0001
1000
,  // measure 44
0001
0000
0010
0000
0100
0010
0000
0001
0000
0001
0000
0010
0100
0000
1000
0001
,  // measure 45
1000
0000
0000
1010
0000
0000
0100
0010
0000
0100
0000
0001
1000
0000
0010
0000
,  // measure 46
1000
0000
0001
0100
0000
0001
0000
1000
0001
0010
0001
0000
1001
0000
0000
0000
;

//---------------dance-single - ----------------
#NOTES:
     dance-single:
     :
     Beginner:
     1:
     0.043,0.096,0.052,0.000,0.000: // measure 1
0000
0000
0000
0000
,  // measure 2
0000
0000
0000
0000
,  // measure 3
0000
0000
0000
0000
,  // measure 4
0000
0000
0000
0000
,  // measure 5
0000
0000
0000
0000
,  // measure 6
0000
0000
0000
0000
,  // measure 7
0000
0000
0000
0000
,  // measure 8
0000
0000
0000
0000
,  // measure 9
0000
0000
0000
0000
,  // measure 10
0001
0000
0000
0000
,  // measure 11
1001
0000
0000
0000
,  // measure 12
0000
0000
0000
0000
,  // measure 13
1000
0000
0000
0000
,  // measure 14
0000
0000
0000
0000
,  // measure 15
0001
0000
0000
0000
,  // measure 16
0000
0000
0000
0000
,  // measure 17
1000
0000
0000
0000
,  // measure 18
0010
0000
0000
0000
,  // measure 19
0010
0000
0000
0000
,  // measure 20
0000
0000
0000
0000
,  // measure 21
0100
0000
0000
0000
,  // measure 22
0000
0000
0000
0000
,  // measure 23
0010
0000
0000
0000
,  // measure 24
0000
0000
0000
0000
,  // measure 25
1000
0000
0000
0000
,  // measure 26
0000
0000
0000
0000
,  // measure 27
1001
0000
0000
0000
,  // measure 28
0000
0000
0000
0000
,  // measure 29
0001
0000
0000
0000
,  // measure 30
0000
0000
0000
0000
,  // measure 31
0100
0000
0000
0000
,  // measure 32
0000
0000
0000
0000
,  // measure 33
0010
0000
0000
0000
,  // measure 34
0000
0000
0000
0000
,  // measure 35
1001
0000
0000
0000
,  // measure 36
1000
0000
0000
0000
,  // measure 37
0010
0000
0000
0000
,  // measure 38
0100
0000
0000
0000
,  // measure 39
0001
0000
0000
0000
,  // measure 40
0000
0000
0000
0000
,  // measure 41
0000
0000
0000
0000
,  // measure 42
0000
0000
0000
0000
,  // measure 43
1001
0000
0000
0000
,  // measure 44
0001
0000
0000
0000
,  // measure 45
0010
0000
0000
0000
,  // measure 46
0100
0000
0000
1001
;

//---------------dance-single - ----------------
#NOTES:
     dance-single:
     :
     Medium:
     4:
     0.183,0.312,0.105,0.073,0.000: // measure 1
0000
0000
0000
0000
,  // measure 2
0000
0000
0000
0000
,  // measure 3
0000
0000
0000
0000
,  // measure 4
0000
0000
0000
0000
,  // measure 5
0000
0000
0000
0000
,  // measure 6
0000
0000
0000
0000
,  // measure 7
1000
0000
1000
0000
,  // measure 8
1000
0000
1000
0000
,  // measure 9
0001
0000
0001
0000
,  // measure 10
0001
0010
0100
1000
,  // measure 11
1001
1000
1000
1000
,  // measure 12
0001
0001
0001
0001
,  // measure 13
2000
0000
0000
3000
,  // measure 14
0010
0010
0010
0010
,  // measure 15
0100
0100
0100
0100
,  // measure 16
0010
0010
0010
0010
,  // measure 17
1000
0100
0010
0001
,  // measure 18
0220
0000
0000
0330
,  // measure 19
1001
0000
0001
0000
,  // measure 20
0001
0000
1000
0000
,  // measure 21
1000
0000
0010
0000
,  // measure 22
0010
0000
0100
0000
,  // measure 23
0100
0000
0001
0000
,  // measure 24
0001
0000
0010
0000
,  // measure 25
0010
0000
0100
0000
,  // measure 26
0100
0000
1000
0000
,  // measure 27
1001
0001
0001
0000
,  // measure 28
1000
0100
1000
0000
,  // measure 29
0010
0100
0010
0000
,  // measure 30
0100
0001
0100
0000
,  // measure 31
0001
1000
0001
0000
,  // measure 32
0010
0001
0010
0000
,  // measure 33
0100
1000
0100
0000
,  // measure 34
1000
1001
0001
1001
,  // measure 35
2000
0000
0000
0000
,  // measure 36
3020
0000
0000
0000
,  // measure 37
0230
0000
0000
0000
,  // measure 38
0302
0000
0000
0000
,  // measure 39
0013
0000
0000
0000
,  // measure 40
0100
0000
0000
0000
,  // measure 41
1000
0000
0000
0000
,  // measure 42
0100
0000
0000
0010
,  // measure 43
1001
0000
1000
0000
1000
0001
1000
0000
,  // measure 44
0001
0000
1001
0000
0001
1000
0001
0000
,  // measure 45
1000
0000
1001
0000
1000
0001
1000
0000
,  // measure 46
0100
0010
0001
1001
;
