#TITLE:성인식;
#SUBTITLE:(I Will Accept You);
#ARTIST:박지윤;
#TITLETRANSLIT:SUNG IN SHIK;
#SUBTITLETRANSLIT:;
#ARTISTTRANSLIT:PARK-JI YOON;
#CREDIT:DMAxel;
#BANNER:SUNG IN SHIK (I Will Accept You).png;
#BACKGROUND:SUNG IN SHIK (I Will Accept You)-bg.png;
#LYRICSPATH:;
#CDTITLE:PUMP IT UP.png;
#MUSIC:SUNG IN SHIK (I Will Accept You).mp3;
#OFFSET:-9.800;
#SAMPLESTART:70.306;
#SAMPLELENGTH:12.000;
#SELECTABLE:YES;
#BPMS:0.000=99.060;
#STOPS:;
#BGCHANGES:-12.250=SUNG IN SHIK (I Will Accept You).avi=1.000=0=0=1,
99999=-nosongbg-=1.000=0=0=0 // don't automatically add -songbackground-
;

//---------------dance-single - ----------------
#NOTES:
     dance-single:
     :
     Easy:
     2:
     0.166,0.219,0.160,0.000,0.000: // measure 1
1001
0010
0000
0010
,  // measure 2
0001
1000
0000
1000
,  // measure 3
0010
0100
0000
0100
,  // measure 4
0001
0010
0100
1000
,  // measure 5
1001
0000
0000
0100
,  // measure 6
1000
0000
0000
0010
,  // measure 7
0100
0000
0000
0001
,  // measure 8
0010
0100
1000
0010
,  // measure 9
1001
0000
0000
0000
,  // measure 10
0100
0001
0000
0010
,  // measure 11
0000
0001
0000
1000
,  // measure 12
0000
0001
0000
1000
,  // measure 13
0000
0001
0000
1000
,  // measure 14
0100
1000
0000
0010
,  // measure 15
0000
1000
0000
0100
,  // measure 16
0000
1000
0000
0001
,  // measure 17
0000
0100
0000
0001
,  // measure 18
1001
0000
1000
0000
,  // measure 19
1001
0000
0010
0000
,  // measure 20
1001
0000
0100
0000
,  // measure 21
1001
0000
0001
0000
,  // measure 22
1001
0000
1000
0000
,  // measure 23
1001
0000
0010
0000
,  // measure 24
1001
0000
0100
0000
,  // measure 25
1001
0010
1001
0100
,  // measure 26
1001
0010
0001
0010
,  // measure 27
0100
1000
0010
1000
,  // measure 28
0100
0010
0001
0100
,  // measure 29
0001
0100
0001
0100
,  // measure 30
1001
0010
1000
0100
,  // measure 31
0010
0001
1000
0001
,  // measure 32
0010
0100
1000
0010
,  // measure 33
0100
0010
0100
0010
,  // measure 34
0100
0000
0000
0000
,  // measure 35
0000
1001
0000
0000
;

//---------------dance-single - ----------------
#NOTES:
     dance-single:
     :
     Hard:
     5:
     0.335,0.328,0.469,0.149,0.000: // measure 1
1001
0000
1100
0000
0010
0001
0010
0100
,  // measure 2
1001
0000
0011
0000
0100
1000
0100
0010
,  // measure 3
0001
0000
1001
0000
0100
1000
0100
0010
,  // measure 4
0001
0001
0100
0010
1000
0100
0010
0001
,  // measure 5
1001
0000
0101
0000
0010
1000
0100
0010
,  // measure 6
0001
0000
1001
0000
1000
0010
0100
0001
,  // measure 7
1001
0000
1010
0000
0100
0001
0100
0010
,  // measure 8
0110
0101
0110
1010
,  // measure 9
1001
0000
0000
1001
,  // measure 10
0010
0000
1000
0000
0100
0010
0001
0010
,  // measure 11
0100
0000
1000
0000
0001
0010
0100
1000
,  // measure 12
0100
0000
0010
0000
0001
0100
0010
0100
,  // measure 13
0001
0010
0100
1000
,  // measure 14
1001
0000
0100
0000
1000
0100
0010
0001
,  // measure 15
0010
0000
0001
0000
0100
0001
0010
0100
,  // measure 16
1000
0000
0010
0000
0100
0001
0010
0100
,  // measure 17
1000
0010
1000
0001
0100
0001
1000
0010
,  // measure 18
2020
0000
0000
3030
0000
0000
0000
0000
,  // measure 19
0202
0000
0000
0303
0000
0000
0000
0000
,  // measure 20
2200
0000
0000
3300
0000
0000
0000
0000
,  // measure 21
0011
0001
0001
0000
0000
0000
0000
0000
,  // measure 22
0220
0000
0000
0330
0000
0000
0000
0000
,  // measure 23
2002
0000
0000
3003
0000
0000
0000
0000
,  // measure 24
0220
0000
0000
0330
0000
0000
0000
0000
,  // measure 25
1001
0110
1001
0110
,  // measure 26
1001
0000
1100
0000
0010
0001
0010
0100
,  // measure 27
1001
0000
0011
0000
0100
1000
0100
0010
,  // measure 28
1001
0000
1010
0000
0100
0001
0010
0100
,  // measure 29
1001
0000
0101
0000
0010
1000
0100
0010
,  // measure 30
1001
0100
0100
0001
0000
1000
0100
0010
,  // measure 31
0001
0100
0100
0001
0000
1000
0100
0010
,  // measure 32
1001
0010
0010
1000
0000
0001
0010
0100
,  // measure 33
1001
1100
0110
0011
,  // measure 34
0220
0000
0000
0000
,  // measure 35
0330
1001
0000
0000
;

//---------------dance-single - ----------------
#NOTES:
     dance-single:
     :
     Challenge:
     7:
     0.480,0.456,0.352,0.149,0.202:
1001
0000
0010
0001
0010
0000
0001
0100
0000
0010
1000
0000
0100
0000
0010
0000
,
1001
0000
0100
1000
0100
0000
1000
0010
0000
0100
0001
0000
0010
0000
0100
0000
,
1000
0000
0001
1000
0001
1000
0001
1000
0000
0000
0001
0000
0010
0000
0100
0000
,
1000
1000
0010
0100
0001
0001
0010
0100
,
1001
0000
0010
1000
0010
1000
0010
1000
0000
0000
0001
0000
0010
0000
0100
0000
,
1000
0000
0001
0100
0001
0100
0001
0100
0000
0000
0001
0000
0010
0000
0100
0000
,
1001
0000
0100
0010
0100
0010
0100
0010
0000
0000
1000
0000
0100
0000
0010
0000
,
1001
0000
0000
0000
1010
0000
0100
0001
0100
0000
0001
0000
0010
0000
0100
0000
,
1001
0000
0000
1000
,
1000
0001
0100
0001
0010
0100
1000
0100
,
0010
0000
0001
1000
0001
0010
0100
1000
,
0100
0000
1000
0001
1000
0100
0010
0001
,
0010
0001
0100
0000
0010
1000
0100
1000
,
1001
0000
0010
0001
0100
0001
0010
0100
,
1000
0000
0100
1000
0010
1000
0100
0010
,
0001
0000
0100
0001
0010
0001
0100
0010
,
1000
1000
0001
0001
1000
0100
0010
0001
,
0202
0000
0300
0013
0100
1000
0001
0100
,
2020
0000
0030
3100
0010
0001
1000
0100
,
0022
0000
0030
0013
0100
1000
0001
0010
,
2200
0000
0300
3100
0010
0001
1000
0001
,
0220
0000
0300
1030
0100
0001
0100
0010
,
2002
0000
3000
0013
0100
1000
0001
1000
,
0220
0000
0030
0301
0010
1000
0010
0100
,
1001
1000
0110
0001
1001
0001
0110
1000
,
1001
0000
0010
0001
0010
0000
0001
0100
0000
0010
1000
0000
0100
0000
0010
0000
,
1001
0000
0100
1000
0100
0000
1000
0010
0000
0100
0001
0000
0010
0000
0100
0000
,
1001
0000
0100
0001
0100
0001
0100
0001
0000
0000
1000
0000
0100
0000
0010
0000
,
1001
1000
0110
0001
0110
1000
0110
0001
,
1001
0000
0100
0001
0100
0001
0100
0001
0000
0000
1000
0000
0100
0000
0010
0000
,
1001
0000
0100
1000
0100
1000
0100
1000
0000
0000
0001
0000
0010
0000
0100
0000
,
1001
0000
0010
0001
0010
0001
0010
0001
0000
0000
1000
0000
0100
0000
0010
0000
,
1001
0000
0000
0000
0011
0000
0100
1000
0100
0000
1000
0000
0100
0000
0010
0000
,
1001
0000
0000
0000
0000
0001
0010
0100
,
1000
1001
0000
0000
;

//---------------dance-single - ----------------
#NOTES:
     dance-single:
     :
     Beginner:
     1:
     0.061,0.073,0.053,0.000,0.000: // measure 1
1000
0000
0000
0000
,  // measure 2
0001
0000
0000
0000
,  // measure 3
1000
0000
0000
0000
,  // measure 4
0001
0000
0000
0000
,  // measure 5
1001
0000
0000
0000
,  // measure 6
0100
0000
0000
0000
,  // measure 7
0010
0000
0000
0000
,  // measure 8
0100
0000
0000
0000
,  // measure 9
0001
0000
0000
0000
,  // measure 10
1000
0000
0000
0000
,  // measure 11
0001
0000
0000
0000
,  // measure 12
1000
0000
0000
0000
,  // measure 13
0001
0000
0000
0000
,  // measure 14
1001
0000
0000
0000
,  // measure 15
0010
0000
0000
0000
,  // measure 16
0001
0000
0000
0000
,  // measure 17
0010
0000
0000
0000
,  // measure 18
1001
0000
0000
0000
,  // measure 19
0100
0000
0000
0000
,  // measure 20
1000
0000
0000
0000
,  // measure 21
0100
0000
0000
0000
,  // measure 22
1000
0000
0000
0000
,  // measure 23
0001
0000
0000
0000
,  // measure 24
0010
0000
0000
0000
,  // measure 25
0001
0000
0000
0000
,  // measure 26
1000
0000
0000
0000
,  // measure 27
0100
0000
0000
0000
,  // measure 28
1000
0000
0000
0000
,  // measure 29
0001
0000
0000
0000
,  // measure 30
1001
0000
0000
0000
,  // measure 31
0010
0000
0000
0000
,  // measure 32
0001
0000
0000
0000
,  // measure 33
1000
0000
0000
0000
,  // measure 34
0001
0000
0000
0000
,  // measure 35
0000
1001
0000
0000
;

//---------------dance-single - ----------------
#NOTES:
     dance-single:
     :
     Medium:
     4:
     0.263,0.292,0.394,0.149,0.000: // measure 1
1001
0010
0001
0010
,  // measure 2
0100
1000
0100
1000
,  // measure 3
0010
0100
0001
0100
,  // measure 4
0101
0101
1010
1010
,  // measure 5
1001
0100
1000
0100
,  // measure 6
0010
0001
0100
0010
,  // measure 7
1001
0100
1000
0001
,  // measure 8
1010
1010
0101
0101
,  // measure 9
1001
0000
0000
1001
,  // measure 10
0010
1000
0010
1000
,  // measure 11
1000
0010
0100
0001
,  // measure 12
0100
0001
0010
0010
,  // measure 13
0001
0010
0100
1000
,  // measure 14
1001
0010
0100
0100
,  // measure 15
0001
0010
0001
1000
,  // measure 16
1000
0100
1000
0010
,  // measure 17
0010
1100
0011
1100
,  // measure 18
0022
0000
0033
0000
,  // measure 19
2200
0000
3300
0000
,  // measure 20
0202
0000
0303
0000
,  // measure 21
2020
0000
3030
0000
,  // measure 22
2002
0000
3003
0000
,  // measure 23
0220
0000
0330
0000
,  // measure 24
2002
0000
3003
0100
,  // measure 25
1001
0110
1001
0110
,  // measure 26
1001
0000
0011
0000
0100
1000
0100
0000
,  // measure 27
1000
0000
0001
0000
0010
0001
0010
0000
,  // measure 28
1001
0000
1000
0000
0010
0100
0010
0100
,  // measure 29
0010
1000
0100
0010
,  // measure 30
1001
0000
0100
0000
1000
0100
0010
0001
,  // measure 31
0100
0000
0010
0000
0100
0001
0010
0100
,  // measure 32
1000
0000
0001
0000
1000
0010
0100
0010
,  // measure 33
0100
0110
1001
0110
,  // measure 34
1001
0000
0000
0000
,  // measure 35
0000
1001
0000
0000
;
