#TITLE:STAR SHIP★HERO;
#SUBTITLE:;
#ARTIST:Lucky Vacuum;
#TITLETRANSLIT:STAR SHIP HERO;
#SUBTITLETRANSLIT:;
#ARTISTTRANSLIT:;
#CREDIT:DMAxel;
#BANNER:STAR SHIP HERO.png;
#BACKGROUND:STAR SHIP HERO-bg.png;
#LYRICSPATH:;
#CDTITLE:pop'n music.png;
#MUSIC:STAR SHIP HERO.mp3;
#OFFSET:-10.520;
#SAMPLESTART:40.819;
#SAMPLELENGTH:12.000;
#SELECTABLE:YES;
#BPMS:0.000=190.000;
#STOPS:;
#BGCHANGES:;

//---------------dance-single - ----------------
#NOTES:
     dance-single:
     :
     Easy:
     5:
     0.327,0.549,0.314,0.036,0.000: // measure 1
1000
0000
1000
0000
,  // measure 2
1000
0000
1000
0000
,  // measure 3
0001
0000
0001
0000
,  // measure 4
0001
0000
0001
0000
,  // measure 5
1000
0000
1000
0000
,  // measure 6
1000
0000
1000
0000
,  // measure 7
0001
0000
0001
0000
,  // measure 8
0001
0000
0001
0000
,  // measure 9
1001
0000
0001
0000
,  // measure 10
1000
0000
0010
0000
,  // measure 11
0010
0000
0100
0000
,  // measure 12
0010
0000
0100
0000
,  // measure 13
0001
0000
1000
0000
,  // measure 14
0001
0000
0001
0000
,  // measure 15
1000
0000
0000
0000
0001
0000
0000
1000
,  // measure 16
0000
0001
0000
1000
0000
1001
0000
0000
,  // measure 17
0000
1001
1000
0001
,  // measure 18
0000
1000
0001
1000
,  // measure 19
0000
0000
0010
0000
0100
0000
0010
0100
,  // measure 20
0000
0000
0000
0000
,  // measure 21
1001
0001
1000
0000
,  // measure 22
0001
1000
0001
0000
,  // measure 23
0100
0000
0010
0000
0100
0000
0010
0100
,  // measure 24
0000
0000
0000
0000
,  // measure 25
1001
0100
1000
0100
,  // measure 26
1000
0100
1000
0001
,  // measure 27
0001
0000
0010
0000
0001
0000
0010
0001
,  // measure 28
0000
1000
0000
0001
0000
1001
0000
0000
,  // measure 29
1001
0100
0001
0100
,  // measure 30
0001
0100
0001
1000
,  // measure 31
1000
0000
0010
0000
1000
0000
0010
1000
,  // measure 32
0000
0001
0000
1000
0000
1001
0000
0000
,  // measure 33
1001
0100
1000
0100
,  // measure 34
1000
0001
0100
0001
,  // measure 35
0100
0000
0010
0000
0100
0000
0010
0100
,  // measure 36
0000
0001
0000
1000
0000
1001
0000
0000
,  // measure 37
1001
0010
0001
0010
,  // measure 38
0001
1000
0010
1000
,  // measure 39
0010
0000
0100
0000
0010
0000
0100
0010
,  // measure 40
0000
1000
0000
0001
0000
1000
0000
0000
,  // measure 41
2002
0000
0000
0000
,  // measure 42
0000
0000
0000
3003
,  // measure 43
0010
0000
0000
0000
,  // measure 44
0010
0000
0000
0000
,  // measure 45
0100
0000
0000
0000
,  // measure 46
0100
0000
0000
0000
,  // measure 47
0010
0000
0000
0000
,  // measure 48
0010
0000
0000
0000
,  // measure 49
1001
0000
0010
0000
,  // measure 50
0010
0000
1001
0000
,  // measure 51
0100
0000
0100
0000
,  // measure 52
1001
0000
0010
0000
,  // measure 53
0010
0000
0001
0000
,  // measure 54
0010
0000
0100
0000
,  // measure 55
1000
0000
0000
0000
0001
0000
0000
1000
,  // measure 56
0000
0001
0000
1000
0000
1001
0000
0000
,  // measure 57
0000
1001
0100
1000
,  // measure 58
0100
1000
0001
0001
,  // measure 59
0100
0000
0010
0000
1000
0000
0001
1000
,  // measure 60
0000
0010
0000
0100
0000
0110
0000
0000
,  // measure 61
1001
0010
0001
0010
,  // measure 62
0001
1000
1000
0010
,  // measure 63
0100
0000
0010
0000
0100
0010
0000
1000
,  // measure 64
0000
0001
0000
1000
0000
1001
0000
0000
,  // measure 65
1100
1000
0001
0010
,  // measure 66
0100
1000
0001
1000
,  // measure 67
0001
0000
1000
0000
0010
0000
0000
0110
,  // measure 68
0000
0110
0000
1001
0000
0000
0000
0000
,  // measure 69
0011
0001
1000
0100
,  // measure 70
0010
0001
1000
0001
,  // measure 71
1001
1000
0001
0010
,  // measure 72
0100
1000
0001
1000
,  // measure 73
1001
0001
0101
0001
,  // measure 74
0101
1100
1100
1100
,  // measure 75
1001
0000
0000
0110
0000
0000
2002
0000
,  // measure 76
0000
0000
0000
0000
,  // measure 77
0000
0000
3003
0000
;

//---------------dance-single - ----------------
#NOTES:
     dance-single:
     :
     Hard:
     8:
     0.620,0.617,0.744,0.036,0.072: // measure 1
0100
0000
0100
0000
0100
0001
0010
0100
,  // measure 2
0000
1000
0000
0001
0100
0000
0100
0000
,  // measure 3
0010
0000
0010
0000
0010
1000
0100
0010
,  // measure 4
0000
0001
0000
1000
0000
0010
0100
0000
,  // measure 5
0100
0000
0100
0000
0100
0001
0010
0100
,  // measure 6
0000
1000
0000
0001
0100
0000
0100
0000
,  // measure 7
0010
0000
0010
0000
0010
1000
0100
0010
,  // measure 8
0000
0001
0100
0001
1000
0100
0010
0000
,  // measure 9
0101
0000
0101
0000
0010
1000
0001
0010
,  // measure 10
0000
0100
0000
0100
0010
0000
0110
0000
,  // measure 11
1001
0000
0001
0000
0100
0001
1000
0100
,  // measure 12
0000
0001
0000
0100
0000
1000
0010
0000
,  // measure 13
1001
0000
0001
0000
0100
0001
1000
0100
,  // measure 14
0000
0010
0000
0010
0100
0000
0110
0000
,  // measure 15
1001
0000
1000
0000
0010
1000
0001
0101
,  // measure 16
0000
0101
0000
1001
0000
0100
1001
0000
,  // measure 17
0000
0000
1001
0000
1000
0010
0100
0001
,  // measure 18
1000
0000
0001
0000
0001
0100
0010
1000
,  // measure 19
0001
0000
1000
0000
1000
0010
0100
0101
,  // measure 20
0000
0101
0000
1001
0000
0100
1001
0000
,  // measure 21
1001
0000
0001
0000
0001
0010
0100
1000
,  // measure 22
0001
0000
1000
0000
1000
0100
0010
0001
,  // measure 23
1000
0000
0001
0000
0001
0010
0100
2000
,  // measure 24
0000
0001
0001
3001
,  // measure 25
1001
0000
0000
0000
0101
0000
0000
0001
1000
0000
0100
0000
1000
0000
0010
0000
,  // measure 26
0000
0100
0000
0010
0100
0000
0110
0000
,  // measure 27
1000
0000
0000
0000
1010
0000
0000
1000
0001
0000
0100
0000
0010
0000
0110
0000
,  // measure 28
0000
0110
0000
1001
0000
0100
1001
0000
,  // measure 29
1001
0000
0000
0000
1010
0000
0000
1000
0001
0000
0100
0000
0010
0000
0100
0000
,  // measure 30
0000
0010
0000
0100
0010
0000
0110
0000
,  // measure 31
0001
0000
0000
0000
0101
0000
0000
0001
1000
0000
0010
0000
0100
0000
0110
0000
,  // measure 32
0000
0110
0000
1001
0000
0100
1001
0000
,  // measure 33
1001
0000
0000
0000
1000
0000
0000
0001
0010
0000
0100
0000
0010
0000
0001
0000
,  // measure 34
0000
0100
0000
1000
0100
0000
0110
0000
,  // measure 35
1001
0000
0000
0000
0001
0000
0000
1000
0100
0000
0010
0000
0100
0000
1000
0000
,  // measure 36
0000
1100
0000
1001
0000
0100
1001
0000
,  // measure 37
1001
0000
0000
0000
0001
0000
0000
1000
0100
0000
0010
0000
0100
0000
1000
0000
,  // measure 38
0000
0100
0000
0001
0100
0000
0110
0000
,  // measure 39
1001
0000
0000
0000
1000
0000
0000
0001
0010
0000
0100
0000
0010
0000
0001
0000
,  // measure 40
0000
0101
0000
1001
0000
0100
1001
0000
,  // measure 41
0110
0001
0100
1000
,  // measure 42
0100
0000
0001
0000
0100
0000
0010
1000
,  // measure 43
0001
0100
1000
0100
,  // measure 44
0001
0000
0100
0000
0010
0000
0100
0001
,  // measure 45
1000
0100
0001
0100
,  // measure 46
1000
0000
0010
0000
0100
0000
0010
1000
,  // measure 47
0001
0100
1000
0100
,  // measure 48
0020
0000
0000
0030
,  // measure 49
1001
0000
0001
0000
1000
0010
1000
0000
,  // measure 50
0001
0010
0001
1001
,  // measure 51
1000
0000
1000
0000
0001
0100
0001
0000
,  // measure 52
1000
0100
1000
0001
,  // measure 53
0001
0100
0001
0100
0001
0010
0100
1000
,  // measure 54
0000
0001
0000
1000
0010
0100
0010
0000
,  // measure 55
1000
0010
1000
0010
1000
0100
0010
0001
,  // measure 56
0000
0101
0000
0101
0000
0100
1001
0000
,  // measure 57
0000
0000
0000
0000
1100
0000
0000
1000
0001
0000
0010
0000
0100
0000
1000
0000
,  // measure 58
0000
0010
1000
0001
0100
0000
1001
0000
,  // measure 59
0001
0000
0000
0000
0101
0000
0000
0001
1000
0000
0100
0000
0010
0000
1001
0000
,  // measure 60
0000
1001
0000
1100
0000
0100
1001
0000
,  // measure 61
0011
0000
0000
0000
0011
0000
0000
0001
1000
0000
0100
0000
0010
0000
0100
0000
,  // measure 62
0000
1000
0100
1000
0001
0000
1001
0000
,  // measure 63
0100
0000
0000
0000
1100
0000
0000
1000
0001
0000
0010
0000
0100
0000
1001
0000
,  // measure 64
0000
1001
0000
0101
0000
0100
1001
0000
,  // measure 65
1100
0000
0000
0000
0001
0000
0000
0100
0001
0000
1000
0000
0100
0000
0010
0000
,  // measure 66
0000
0001
0100
1000
0000
0100
0010
0001
,  // measure 67
1000
0000
0000
0000
0001
0000
0000
0100
0001
0000
1000
0000
0100
0000
0010
0000
,  // measure 68
0000
0101
0000
1001
0000
0001
0010
0100
,  // measure 69
1000
0000
0010
0000
0100
0000
0000
0001
1000
0000
0100
0000
0010
0000
0001
0000
,  // measure 70
0101
0000
1100
0000
0010
0001
1000
0000
,  // measure 71
0001
0000
0100
0000
0010
0000
0000
1000
0001
0000
0010
0000
0100
0000
1000
0000
,  // measure 72
1010
0000
0011
0000
0100
1000
0001
0000
,  // measure 73
0101
0000
1100
0000
0010
0001
1000
0010
,  // measure 74
1010
1010
0101
0101
,  // measure 75
1001
0000
0000
1100
0000
0000
1100
2002
,  // measure 76
0000
0000
0000
0000
,  // measure 77
0000
0000
3003
0000
;

//---------------dance-single - ----------------
#NOTES:
     dance-single:
     :
     Medium:
     6:
     0.455,0.549,0.484,0.036,0.018: // measure 1
0001
1000
0001
1000
,  // measure 2
0001
1000
0010
0010
,  // measure 3
0100
0010
0100
0010
,  // measure 4
1000
0100
0010
0001
,  // measure 5
1000
0001
1000
0001
,  // measure 6
1000
0001
0100
0100
,  // measure 7
0010
0100
0010
0100
,  // measure 8
0001
0010
0100
1000
,  // measure 9
1001
0001
1000
0100
,  // measure 10
0010
0001
0100
0100
,  // measure 11
0010
1000
0010
1000
,  // measure 12
0001
0010
0100
1000
,  // measure 13
0001
0100
0001
0100
,  // measure 14
0010
1000
0001
0001
,  // measure 15
0010
0000
0100
0000
1000
0000
0001
1000
,  // measure 16
0000
1001
0000
1001
0000
1001
0000
0000
,  // measure 17
0100
1100
0010
0001
,  // measure 18
0000
0001
0010
0100
,  // measure 19
0000
0000
1000
0000
0100
0000
0000
1001
,  // measure 20
0000
1001
0000
1001
0000
1001
0000
0000
,  // measure 21
0011
0100
1000
0000
,  // measure 22
0100
0010
0001
0000
,  // measure 23
0100
0000
0001
0000
1000
0000
0000
2002
,  // measure 24
0000
0000
0000
3003
,  // measure 25
1100
0000
0010
0000
0001
0010
0001
0010
,  // measure 26
0000
0100
0000
1000
0001
0000
1001
0000
,  // measure 27
0010
0000
0100
0000
1000
0100
1000
0100
,  // measure 28
0000
0011
0000
1001
0000
0001
1000
0000
,  // measure 29
0010
0000
1000
0000
0001
0100
0001
0100
,  // measure 30
0000
0010
0000
1000
0001
0000
1001
0000
,  // measure 31
0100
0000
0001
0000
1000
0010
1000
0010
,  // measure 32
0000
0101
0000
1001
0000
1000
0001
0000
,  // measure 33
1001
0000
0100
0000
1000
0100
1000
0100
,  // measure 34
0000
0010
0000
0001
1000
0000
1001
0000
,  // measure 35
0001
0000
0010
0000
0001
0010
0001
0010
,  // measure 36
0000
1100
0000
1001
0000
0001
1000
0000
,  // measure 37
1001
0000
0100
0000
0001
0100
0001
0100
,  // measure 38
0000
0010
0000
1000
0001
0000
1001
0000
,  // measure 39
1000
0000
0010
0000
1000
0010
1000
0010
,  // measure 40
0000
0101
0000
1001
0000
1000
0001
0000
,  // measure 41
1001
0000
0001
0000
,  // measure 42
0001
0000
0010
0000
,  // measure 43
0010
0000
0100
0000
,  // measure 44
0100
0000
1000
0000
,  // measure 45
1000
0000
0100
0000
,  // measure 46
0100
0000
0010
0000
,  // measure 47
0010
0000
0001
0000
,  // measure 48
0001
0000
0000
0000
,  // measure 49
1001
0000
0100
0000
,  // measure 50
0100
0000
1001
0000
,  // measure 51
0010
0000
0010
0000
,  // measure 52
1001
0000
0100
0000
,  // measure 53
0100
1000
0100
1000
,  // measure 54
0100
0010
0001
0010
,  // measure 55
0001
0000
0010
0000
0100
0000
1000
0001
,  // measure 56
0000
1001
0000
0110
0000
1001
0000
0000
,  // measure 57
1000
0000
1001
0000
0010
0001
0010
0001
,  // measure 58
0000
1000
0000
0010
0100
0000
1001
0000
,  // measure 59
1000
0000
0100
0000
1000
0001
0000
0110
,  // measure 60
0000
0110
0000
1001
0000
0001
1000
0000
,  // measure 61
1001
0000
1000
0000
0010
1000
0010
1000
,  // measure 62
0000
0001
0000
0100
0010
0000
1001
0000
,  // measure 63
0001
0000
0100
0000
0010
1000
0000
1010
,  // measure 64
0000
0101
0000
1001
0000
1000
0001
0000
,  // measure 65
0011
0000
0100
0000
1000
0100
0010
0001
,  // measure 66
1000
0010
1000
0010
,  // measure 67
0100
0000
0001
0000
1000
0010
0100
0001
,  // measure 68
0000
1001
0000
1001
0000
0001
1000
0000
,  // measure 69
0100
0000
1000
0000
0100
0000
0000
0000
1000
0000
0000
0001
0000
0000
1000
0000
,  // measure 70
0000
0000
0001
0000
0010
0000
0000
0000
0001
0000
0000
1000
0000
0000
0001
0000
,  // measure 71
0000
0000
0100
0000
0001
0000
0000
0000
1000
0000
0000
0001
0000
0000
1000
0000
,  // measure 72
0000
0000
0010
0000
1000
0000
0000
0000
0001
0000
0000
1000
0000
0000
0001
0000
,  // measure 73
1001
0100
0110
0010
,  // measure 74
1001
1100
0011
1100
,  // measure 75
1001
0000
0000
0110
0000
0000
0002
2000
,  // measure 76
0000
0000
0000
0000
,  // measure 77
0000
0000
3003
0000
;

//---------------dance-single - ----------------
#NOTES:
     dance-single:
     :
     Beginner:
     2:
     0.106,0.201,0.144,0.000,0.000: // measure 1
1000
0000
0000
0000
,  // measure 2
0000
0000
0000
0000
,  // measure 3
0001
0000
0000
0000
,  // measure 4
0000
0000
0000
0000
,  // measure 5
1000
0000
0000
0000
,  // measure 6
0000
0000
0000
0000
,  // measure 7
0001
0000
0000
0000
,  // measure 8
0000
0000
0000
0000
,  // measure 9
1001
0000
0000
0000
,  // measure 10
0000
0000
0000
0000
,  // measure 11
0010
0000
0000
0000
,  // measure 12
0000
0000
0000
0000
,  // measure 13
0100
0000
0000
0000
,  // measure 14
0000
0000
0000
0000
,  // measure 15
0010
0000
0000
0000
,  // measure 16
0000
0000
0000
0000
,  // measure 17
0000
1000
0000
0000
,  // measure 18
0000
0001
0000
0000
,  // measure 19
0000
1000
0000
0000
,  // measure 20
0000
0000
0000
0000
,  // measure 21
0000
0001
0000
0000
,  // measure 22
0000
1000
0000
0000
,  // measure 23
0000
0001
0000
0000
,  // measure 24
0000
0000
0000
0000
,  // measure 25
1001
0000
0010
0000
,  // measure 26
0010
0000
0000
0000
,  // measure 27
1001
0000
0100
0000
,  // measure 28
0100
0000
0000
0000
,  // measure 29
1001
0000
0010
0000
,  // measure 30
0010
0000
0000
0000
,  // measure 31
1001
0000
0100
0000
,  // measure 32
0100
0000
0000
0000
,  // measure 33
1001
0000
1000
0000
,  // measure 34
0001
0000
0000
0000
,  // measure 35
1001
0000
0001
0000
,  // measure 36
1000
0000
0000
0000
,  // measure 37
1001
0000
1000
0000
,  // measure 38
0001
0000
0000
0000
,  // measure 39
1001
0000
0001
0000
,  // measure 40
1000
0000
0000
0000
,  // measure 41
0001
0000
0000
0000
,  // measure 42
0000
0000
0000
0000
,  // measure 43
0000
0000
0000
0000
,  // measure 44
0000
0000
0000
0000
,  // measure 45
1000
0000
0000
0000
,  // measure 46
0000
0000
0000
0000
,  // measure 47
0000
0000
0000
0000
,  // measure 48
0000
0000
0000
0000
,  // measure 49
1000
0000
0000
0000
,  // measure 50
0000
0000
0000
0000
,  // measure 51
0100
0000
0000
0000
,  // measure 52
0000
0000
0000
0000
,  // measure 53
0010
0000
0000
0000
,  // measure 54
0000
0000
0000
0000
,  // measure 55
0001
0000
0000
0000
,  // measure 56
0000
0000
0000
0000
,  // measure 57
0000
1001
0000
0010
,  // measure 58
0000
0010
0000
0000
,  // measure 59
1000
0000
1000
0000
,  // measure 60
1001
0000
0000
0000
,  // measure 61
1001
0000
0001
0000
,  // measure 62
0001
0000
0000
0000
,  // measure 63
0100
0000
0010
0000
,  // measure 64
0110
0000
0000
0000
,  // measure 65
1001
0000
0000
0000
,  // measure 66
0000
0000
0000
0000
,  // measure 67
0010
0000
0000
0000
,  // measure 68
0000
0000
0000
0000
,  // measure 69
0100
0000
0000
0000
,  // measure 70
1000
0000
0000
0000
,  // measure 71
0001
0000
0000
0000
,  // measure 72
1000
0000
0000
0000
,  // measure 73
0010
0000
0100
0000
,  // measure 74
0010
0000
0000
0000
,  // measure 75
1001
0000
0000
1001
;
