#TITLE:S.F.M;
#SUBTITLE:;
#ARTIST:KC hospital;
#TITLETRANSLIT:;
#SUBTITLETRANSLIT:;
#ARTISTTRANSLIT:;
#CREDIT:DMAxel;
#BANNER:S.F.M.png;
#BACKGROUND:S.F.M-bg.png;
#LYRICSPATH:S.F.M.lrc;
#CDTITLE:beatmania.png;
#MUSIC:S.F.M.mp3;
#OFFSET:-12.680;
#SAMPLESTART:15.090;
#SAMPLELENGTH:12.000;
#SELECTABLE:YES;
#BPMS:0.000=100.000,4.000=200.000;
#STOPS:;
#BGCHANGES:;

//---------------dance-single - ----------------
#NOTES:
     dance-single:
     :
     Easy:
     4:
     0.339,0.334,0.170,0.144,0.000: // measure 1
0000
0000
0000
0000
,  // measure 2
0001
1000
0001
1000
,  // measure 3
0002
0000
0100
0000
,  // measure 4
1003
0001
1000
0001
,  // measure 5
2000
0000
0010
0000
,  // measure 6
3001
1000
0001
1000
,  // measure 7
0002
0000
0100
0003
,  // measure 8
1000
0001
1000
0001
,  // measure 9
2000
0000
0010
0000
,  // measure 10
3001
0010
0100
0000
,  // measure 11
1000
0010
0100
0000
,  // measure 12
0001
0010
0100
1000
,  // measure 13
0001
1001
0000
1001
,  // measure 14
1000
0010
0100
0000
,  // measure 15
0001
0010
0100
0000
,  // measure 16
1000
0100
0010
0001
,  // measure 17
1000
1001
0000
1001
,  // measure 18
0001
1000
0001
1000
,  // measure 19
0001
0010
0100
0010
,  // measure 20
0100
1000
0001
1000
,  // measure 21
0001
1000
0001
0001
,  // measure 22
1002
0000
1000
0000
,  // measure 23
1003
0000
0000
0010
0000
0000
1000
0000
,  // measure 24
0002
0000
1000
0000
,  // measure 25
1003
0000
1001
0000
,  // measure 26
0001
0100
0001
0100
,  // measure 27
0002
0000
1000
0000
,  // measure 28
1003
0100
1000
0100
,  // measure 29
2000
0000
0001
0000
,  // measure 30
3001
0010
0001
0010
,  // measure 31
0002
0000
1000
0000
,  // measure 32
1003
0010
1000
0010
,  // measure 33
2000
0000
0001
0000
,  // measure 34
3001
0010
0100
0000
,  // measure 35
1000
0010
0100
0000
,  // measure 36
0001
0010
0100
1000
,  // measure 37
0001
1001
0000
1001
,  // measure 38
1000
0100
0010
0000
,  // measure 39
0001
0100
0010
0000
,  // measure 40
1000
0100
0010
0001
,  // measure 41
1000
1001
0000
1001
,  // measure 42
0001
1000
0001
1000
,  // measure 43
0001
0010
0100
0010
,  // measure 44
0100
0000
0000
1000
0000
0000
0001
0000
,  // measure 45
1000
0000
0000
0001
0000
0000
1000
0000
,  // measure 46
0001
0100
0001
0100
,  // measure 47
0010
1000
0010
1000
,  // measure 48
0001
0010
0100
1000
,  // measure 49
0020
0000
0100
0130
,  // measure 50
1001
0000
0000
0000
,  // measure 51
1001
0000
0000
0000
,  // measure 52
1001
0000
0000
0000
;

//---------------dance-single - ----------------
#NOTES:
     dance-single:
     :
     Hard:
     8:
     0.629,0.568,0.315,0.183,0.007: // measure 1
0001
0000
0001
0000
1000
1000
1000
1000
,  // measure 2
1001
0001
0101
1000
,  // measure 3
1100
0000
0001
0100
0002
0000
1000
0000
,  // measure 4
1003
1100
0001
0101
,  // measure 5
1000
0010
1000
0002
0000
0000
1003
0010
,  // measure 6
0100
0000
0001
0100
0001
0000
1000
0100
,  // measure 7
1000
0000
0100
0010
0200
0000
1000
0000
,  // measure 8
1300
0000
1000
0100
1000
0000
0001
0100
,  // measure 9
0001
0100
0001
2000
0000
0000
3001
0100
,  // measure 10
0010
0000
0100
0000
0101
0000
1000
0100
,  // measure 11
1000
0000
0100
1000
0001
0000
0001
0000
,  // measure 12
1000
0010
1000
0010
0100
0001
0100
0001
,  // measure 13
1000
1001
0001
1001
,  // measure 14
0001
0000
1000
0000
1010
0000
0001
0010
,  // measure 15
0001
0000
0010
0001
1000
0000
1000
0000
,  // measure 16
0001
0100
0001
0100
0010
1000
0010
1000
,  // measure 17
0001
1001
1000
1001
,  // measure 18
0001
0100
0001
1000
0100
1000
0100
0000
,  // measure 19
1000
0100
1000
0001
0100
0001
0100
0000
,  // measure 20
0001
0100
0010
1000
0000
1000
0001
0000
,  // measure 21
1000
0010
0100
0001
0000
0001
1000
0100
,  // measure 22
2000
0100
0100
0100
,  // measure 23
3002
0000
0000
0100
0000
0000
1003
0000
,  // measure 24
0020
0000
0000
0100
0000
0000
1030
0000
,  // measure 25
0001
0000
0000
0100
0000
0000
0001
0000
2000
0000
0000
0000
0001
0000
0000
0000
,  // measure 26
3001
0101
1000
1100
,  // measure 27
0010
0001
0100
0010
0200
0000
0001
0000
,  // measure 28
0301
1010
0001
0011
,  // measure 29
0100
1000
0010
0200
0000
0000
0310
0000
,  // measure 30
1001
0000
1000
0010
1000
0000
0001
0010
,  // measure 31
0001
0000
0010
0100
0010
0100
0010
0000
,  // measure 32
1001
0000
0001
0100
0001
0000
1000
0100
,  // measure 33
1000
0001
0100
0010
1000
0000
1000
0001
,  // measure 34
1000
0000
0001
0010
0001
0010
0001
0010
,  // measure 35
0100
1000
0100
1000
0100
1000
0100
1000
,  // measure 36
0001
0010
0100
1000
0001
0100
0101
0000
,  // measure 37
1000
0100
0010
0001
1000
0010
1010
0000
,  // measure 38
1001
0000
1000
0100
1000
0100
1000
0100
,  // measure 39
0010
0001
0010
0001
0010
0001
0010
0001
,  // measure 40
1000
0100
0010
0001
1000
0010
0100
0000
,  // measure 41
0001
0010
0100
1000
0001
0100
0010
0000
,  // measure 42
1001
0000
0001
0100
0001
0100
0001
0100
,  // measure 43
0010
1000
0010
1000
0010
0100
0001
1000
,  // measure 44
0100
0000
0010
0001
1000
0010
0100
0001
,  // measure 45
0010
0000
0100
1000
0001
0100
0010
0000
,  // measure 46
1000
0100
0010
0001
0100
0010
0100
0001
,  // measure 47
0100
1000
0100
0001
0010
0100
0010
0100
,  // measure 48
1000
0010
0100
0001
0010
0100
1000
0100
,  // measure 49
0001
0000
0100
0010
1000
0100
0010
0001
,  // measure 50
0202
0000
0000
0303
,  // measure 51
2200
0000
0000
3300
,  // measure 52
1001
0000
0000
0000
;

//---------------dance-single - ----------------
#NOTES:
     dance-single:
     :
     Medium:
     6:
     0.487,0.434,0.301,0.210,0.000: // measure 1
0000
0000
0000
0000
,  // measure 2
1001
0001
1000
0001
,  // measure 3
0010
0000
0100
0000
1000
0010
1000
0000
,  // measure 4
1001
1000
0001
1000
,  // measure 5
0101
0000
0000
1000
0000
0000
0001
1000
,  // measure 6
0001
1000
0001
1000
,  // measure 7
0100
0000
0010
0000
0001
0100
0001
0000
,  // measure 8
1000
0001
1000
0001
,  // measure 9
1010
0000
0000
0001
0000
0000
1000
0001
,  // measure 10
1000
0000
0010
1000
0010
0000
0100
0010
,  // measure 11
0100
0000
0010
1000
0010
1000
0010
0000
,  // measure 12
1000
0100
0010
0001
,  // measure 13
1000
1001
0001
1001
,  // measure 14
1000
0000
0001
0100
0001
0000
0100
0010
,  // measure 15
0100
0000
0001
0100
0001
0100
0001
0000
,  // measure 16
1000
0100
0010
0001
,  // measure 17
1000
1001
0001
1001
,  // measure 18
1000
0000
0001
0010
0001
0010
0001
0000
,  // measure 19
1000
0010
1000
0000
0010
0100
0010
0000
,  // measure 20
1000
0000
0001
0200
0000
0000
0301
0000
,  // measure 21
0001
0000
1000
0020
0000
0000
1030
0000
,  // measure 22
1002
1000
1000
1000
,  // measure 23
1003
0000
0001
0020
0000
0000
0031
0000
,  // measure 24
2001
0001
0001
0001
,  // measure 25
3002
0000
2000
3003
,  // measure 26
1000
0000
0001
0100
0001
0000
0100
0001
,  // measure 27
0100
0001
1000
0000
0100
0000
1000
0000
,  // measure 28
0001
0000
1000
0100
1000
0000
0100
0000
,  // measure 29
1100
0000
0000
0001
0000
0000
1000
0000
,  // measure 30
0001
0000
1000
0100
1000
0000
0100
1000
,  // measure 31
0100
1000
0001
0000
0100
0000
0001
0000
,  // measure 32
1000
0000
0001
0010
0001
0000
0010
0000
,  // measure 33
0011
0000
0000
1000
0000
0000
2000
0000
,  // measure 34
3001
0000
1000
0100
1000
0100
1000
0000
,  // measure 35
0001
0100
0001
0000
0100
0010
1000
0000
,  // measure 36
0001
0010
0100
1000
,  // measure 37
0001
1001
1000
1001
,  // measure 38
1000
0000
0001
0010
0001
0010
0001
0000
,  // measure 39
1000
0010
1000
0000
0010
0100
0001
0000
,  // measure 40
1000
0100
0010
0001
,  // measure 41
1000
1001
0001
1001
,  // measure 42
1000
0000
0010
0100
0010
0100
0010
0000
,  // measure 43
1000
0100
1000
0000
0001
0100
0001
0000
,  // measure 44
2000
0000
0000
0010
0000
0000
3010
0000
,  // measure 45
0200
0000
0000
0001
0000
0000
0301
0000
,  // measure 46
1001
0100
0010
0001
,  // measure 47
1000
0000
0010
0000
0100
0000
0001
1000
,  // measure 48
0001
0101
1000
1100
,  // measure 49
2002
0000
0000
3003
,  // measure 50
0202
0000
0000
0303
,  // measure 51
2200
0000
0000
3300
,  // measure 52
1001
0000
0000
0000
;

//---------------dance-single - ----------------
#NOTES:
     dance-single:
     :
     Beginner:
     2:
     0.133,0.167,0.079,0.000,0.000: // measure 1
0000
0000
0000
0000
,  // measure 2
0001
0000
0001
0000
,  // measure 3
0001
0000
0000
0000
,  // measure 4
1000
0000
1000
0000
,  // measure 5
1000
0000
0000
0000
,  // measure 6
0001
0000
0001
0000
,  // measure 7
0001
0000
0000
0000
,  // measure 8
1000
0000
1000
0000
,  // measure 9
1000
0000
0000
0000
,  // measure 10
0010
0000
0000
0000
,  // measure 11
0100
0000
0000
0000
,  // measure 12
0010
0000
0000
0000
,  // measure 13
0000
0110
0000
0000
,  // measure 14
1000
0000
0000
0000
,  // measure 15
0001
0000
0000
0000
,  // measure 16
1000
0000
0000
0000
,  // measure 17
0000
1001
0000
0000
,  // measure 18
0001
0000
1000
0000
,  // measure 19
0001
0000
0000
0000
,  // measure 20
0100
0000
0010
0000
,  // measure 21
0100
0000
0000
0000
,  // measure 22
0010
0000
0000
0000
,  // measure 23
0000
0000
0000
0000
,  // measure 24
0010
0000
0000
0000
,  // measure 25
0110
0000
0000
0000
,  // measure 26
1000
0000
0000
0000
,  // measure 27
0001
0000
0000
0000
,  // measure 28
1000
0000
0000
0000
,  // measure 29
1000
0000
0000
0000
,  // measure 30
0001
0000
1000
0000
,  // measure 31
0001
0000
0000
0000
,  // measure 32
1000
0000
0001
0000
,  // measure 33
1000
0000
0000
0000
,  // measure 34
0010
0000
0100
0000
,  // measure 35
0010
0000
0010
0000
,  // measure 36
0010
0000
0000
0000
,  // measure 37
0000
0110
0000
0000
,  // measure 38
1000
0000
0001
0000
,  // measure 39
1000
0000
1000
0000
,  // measure 40
1000
0000
0000
0000
,  // measure 41
0000
1001
0000
0000
,  // measure 42
0010
0000
0100
0000
,  // measure 43
0010
0000
0000
0000
,  // measure 44
1000
0000
0001
0000
,  // measure 45
1000
0000
0000
0000
,  // measure 46
1000
0000
0000
0000
,  // measure 47
0001
0000
0000
0000
,  // measure 48
1000
0000
0001
0000
,  // measure 49
1000
0000
0000
0000
,  // measure 50
0001
0000
0000
0000
,  // measure 51
1000
0000
0000
0000
,  // measure 52
1001
0000
0000
0000
;
