#TITLE:One of A Kind;
#SUBTITLE:;
#ARTIST:Crystal Begley;
#TITLETRANSLIT:;
#SUBTITLETRANSLIT:;
#ARTISTTRANSLIT:;
#CREDIT:DMAxel;
#BANNER:One of A Kind.png;
#BACKGROUND:One of A Kind-bg.png;
#LYRICSPATH:One of A Kind.lrc;
#CDTITLE:beatmaniaIIDX.png;
#MUSIC:One of A Kind.mp3;
#OFFSET:-7.680;
#SAMPLESTART:37.135;
#SAMPLELENGTH:12.000;
#SELECTABLE:YES;
#BPMS:0.000=132.010;
#STOPS:;
#BGCHANGES:;

//---------------dance-single - ----------------
#NOTES:
     dance-single:
     :
     Easy:
     3:
     0.217,0.222,0.009,0.000,0.000: // measure 1
0010
0010
0010
0100
,  // measure 2
0010
0000
1000
0001
,  // measure 3
0100
0100
0100
0010
,  // measure 4
0100
0000
0001
1000
,  // measure 5
0010
0010
0010
0100
,  // measure 6
0010
0000
1000
0001
,  // measure 7
0100
0100
0100
0010
,  // measure 8
0100
0000
0001
1000
,  // measure 9
0010
0000
0000
0000
,  // measure 10
0010
0000
0000
0000
,  // measure 11
0010
0000
0000
0000
,  // measure 12
0010
0000
0000
0000
,  // measure 13
1000
0000
0000
0000
,  // measure 14
1000
0000
0000
0000
,  // measure 15
1000
0000
0000
0000
,  // measure 16
1000
0000
0000
0000
,  // measure 17
0001
1000
0001
0001
,  // measure 18
0000
1000
0001
1000
,  // measure 19
0000
1000
0001
1000
,  // measure 20
0010
0100
0010
0100
,  // measure 21
0001
1000
0001
0001
,  // measure 22
0000
1000
0001
1000
,  // measure 23
0000
0010
0100
0010
,  // measure 24
1000
1000
0001
0001
,  // measure 25
1001
1000
1000
1000
,  // measure 26
0001
0000
0001
0010
,  // measure 27
0001
0000
1000
0001
,  // measure 28
0100
0100
0010
0100
,  // measure 29
0001
0001
0001
0001
,  // measure 30
1000
0000
1000
0100
,  // measure 31
1000
0000
0010
0100
,  // measure 32
0001
0001
0100
0010
,  // measure 33
1000
0000
0000
0000
,  // measure 34
1000
0000
0000
0000
,  // measure 35
0001
0000
0000
0000
,  // measure 36
0001
0000
1000
0000
,  // measure 37
0001
0001
1000
0001
,  // measure 38
1000
1000
0001
1000
,  // measure 39
0010
0100
0010
0100
,  // measure 40
0001
0001
1000
1000
,  // measure 41
0001
0010
0001
1000
,  // measure 42
0000
1000
0100
1000
,  // measure 43
0001
0100
0010
0100
,  // measure 44
0001
0001
1000
1000
,  // measure 45
0001
0010
0001
1000
,  // measure 46
0000
1000
0100
1000
,  // measure 47
0001
0100
0010
0100
,  // measure 48
0001
0010
0100
1000
,  // measure 49
0010
0100
0010
1000
,  // measure 50
0000
0010
0100
0001
,  // measure 51
0000
0010
0001
0010
,  // measure 52
0001
0010
0100
1000
,  // measure 53
0010
0100
0010
1000
,  // measure 54
0000
0010
0100
0001
,  // measure 55
0000
1000
0100
1000
,  // measure 56
0010
0100
0001
0010
;

//---------------dance-single - ----------------
#NOTES:
     dance-single:
     :
     Medium:
     5:
     0.389,0.396,0.442,0.124,0.000: // measure 1
0100
0000
0100
0000
0100
0001
1000
0000
,  // measure 2
0200
0000
1000
0000
1300
0000
0001
1000
,  // measure 3
0001
0000
0100
0000
0100
0010
0100
0010
,  // measure 4
0100
1001
0100
1001
,  // measure 5
0010
0000
0010
0000
0010
1000
0001
0000
,  // measure 6
0020
0000
0001
0000
0031
0000
1000
0001
,  // measure 7
1000
0000
0010
0000
0010
0100
0010
0100
,  // measure 8
0010
1001
0010
1001
,  // measure 9
0200
0000
1000
0000
,  // measure 10
2300
0000
0001
0000
,  // measure 11
3002
0000
0010
0000
,  // measure 12
0023
0000
0100
0000
,  // measure 13
0230
0000
1000
0000
,  // measure 14
2300
0000
0010
0000
,  // measure 15
3020
0000
0100
0000
,  // measure 16
0230
0000
0001
0000
,  // measure 17
0301
0000
0101
0000
0101
0000
1000
0010
,  // measure 18
0000
0000
1010
0000
1010
0000
0001
0100
,  // measure 19
0001
0010
0100
0110
,  // measure 20
1001
0000
1001
0000
0100
0010
0100
0010
,  // measure 21
1000
0000
1001
0000
0001
0100
0001
1000
,  // measure 22
0000
0000
0001
1000
0001
0000
1000
0000
,  // measure 23
0100
0000
0010
0000
0001
0000
0100
0001
,  // measure 24
1000
1100
0001
0011
,  // measure 25
1001
0000
1001
0000
0010
0000
0010
0100
,  // measure 26
0010
0000
1000
0001
1000
0000
0100
1000
,  // measure 27
0010
0100
0001
1000
,  // measure 28
0001
0011
1000
1100
,  // measure 29
1001
0000
1001
0000
0100
0000
0100
0010
,  // measure 30
0100
0000
0001
1000
0001
0000
0010
0001
,  // measure 31
0100
0010
1000
0001
,  // measure 32
1000
1100
0001
0011
,  // measure 33
1002
0000
1000
0000
,  // measure 34
2003
0000
0100
0000
,  // measure 35
3200
0000
0010
0000
,  // measure 36
0320
0000
0001
0000
,  // measure 37
0031
0010
0001
1000
,  // measure 38
1100
0100
1000
0001
,  // measure 39
0011
0010
0001
1000
,  // measure 40
1010
1010
0101
0101
,  // measure 41
1001
0000
1010
0000
1010
0000
0100
0001
,  // measure 42
0000
0000
0101
0000
0101
0000
0010
1000
,  // measure 43
0001
0010
0001
0000
0100
0010
0100
0010
,  // measure 44
0100
1001
0100
1001
,  // measure 45
1000
0100
1000
0100
1000
0001
0100
0000
,  // measure 46
0101
0000
0010
1000
0010
0000
1000
0000
,  // measure 47
0001
0010
0001
0010
0001
1000
0010
0000
,  // measure 48
1010
0000
0100
0001
0100
0000
0110
0000
,  // measure 49
1001
0000
0011
0000
0011
0000
0100
1000
,  // measure 50
0000
0000
1100
0000
1100
0000
0010
0001
,  // measure 51
0100
0000
0010
1000
0010
0000
0100
0010
,  // measure 52
0100
0110
0110
1001
,  // measure 53
1000
0010
1000
0010
1000
0001
0010
0000
,  // measure 54
0011
0000
0100
1000
0010
1000
0010
0000
,  // measure 55
1010
0000
0001
0100
0001
1000
0100
0000
,  // measure 56
1100
0000
0010
0000
0001
1000
0100
0010
;

//---------------dance-single - ----------------
#NOTES:
     dance-single:
     :
     Hard:
     8:
     0.489,0.470,0.460,0.000,0.296: // measure 1
0100
0000
0000
0100
0000
0000
1000
0000
0001
0000
0000
0010
0000
0000
0001
0000
,  // measure 2
0100
0000
0100
0001
0100
0000
0010
1000
,  // measure 3
0001
0010
0001
0000
0001
1000
0100
0010
,  // measure 4
0001
1001
0011
1001
,  // measure 5
0010
0000
0000
0010
0000
0000
0001
0000
1000
0000
0000
0100
0000
0000
1000
0000
,  // measure 6
0010
0000
0010
1000
0010
0000
0100
0001
,  // measure 7
1000
0100
1000
0000
1000
0001
0010
0100
,  // measure 8
1000
0000
0000
0001
1000
0000
0100
0000
1000
0001
0000
1000
0001
0000
0010
0000
,  // measure 9
0011
0000
0000
0000
0000
0000
0000
0000
0000
0000
0100
0000
0000
0100
0000
0000
,  // measure 10
1100
0000
0000
0000
0000
0000
0000
0000
0000
0000
0010
0000
0000
0010
0000
0000
,  // measure 11
0011
0000
0000
0000
0000
0000
0000
0000
0000
0000
0010
0000
0000
0010
0000
0000
,  // measure 12
1010
0000
0000
1000
0000
0000
0001
0000
0000
0100
0010
0000
0010
0000
0000
0000
,  // measure 13
1010
0000
0000
0000
0000
0000
0000
0000
0000
0000
0100
0000
0000
0100
0000
0000
,  // measure 14
0101
0000
0000
0000
0000
0000
0000
0000
0000
0000
0010
0000
0000
0010
0000
0000
,  // measure 15
1010
0000
0000
0000
0000
0000
0000
0000
0000
0000
0010
0000
0000
0010
0000
0000
,  // measure 16
0011
0000
0000
0100
0000
0000
1000
0000
0000
0010
0100
0000
0100
0000
0000
0000
,  // measure 17
0101
0000
1100
0000
1100
0000
0001
0101
,  // measure 18
0000
0000
1100
0000
0101
0000
1010
1000
,  // measure 19
0010
0000
0100
0000
0001
0000
0000
0000
0101
0000
0000
0100
0000
0000
0001
0000
,  // measure 20
1000
0000
0000
1000
0000
0000
0001
0000
0100
0000
0000
0001
0100
0000
0010
0000
,  // measure 21
0100
0000
0000
0000
0101
0000
0000
0000
1001
0000
0000
0001
1000
0000
0100
0000
,  // measure 22
1000
0000
0000
0000
1100
0000
0000
0000
1001
0000
0000
1000
0001
0000
0010
0000
,  // measure 23
0001
0000
0000
0000
0011
0000
0000
0000
1001
0000
0000
0001
0100
0000
0010
0000
,  // measure 24
1000
0000
0000
0010
1000
0000
0001
0000
0001
0100
0000
0001
0100
0000
0001
0000
,  // measure 25
1000
0100
0000
1000
0000
0000
0010
0000
0100
0000
0000
0001
0000
0000
0100
0000
,  // measure 26
0010
0000
1000
0100
1000
0001
0100
1000
,  // measure 27
0100
0000
1100
0000
0010
0001
0010
1000
,  // measure 28
0010
0000
0000
0100
0001
0000
1000
0000
1000
0000
0000
0010
1000
0000
1000
0000
,  // measure 29
0001
0010
0000
0001
0000
0000
0100
0000
0010
0000
0000
1000
0000
0000
0010
0000
,  // measure 30
0100
0000
0001
0100
0001
1000
0100
0001
,  // measure 31
0100
0000
0101
0000
0010
1000
0010
0001
,  // measure 32
0010
0000
0000
0100
1000
0000
0010
0000
0010
1000
0000
0010
1000
0000
0001
0000
,  // measure 33
1001
0000
0000
0000
0000
0000
0000
0000
0000
0000
0010
0000
0000
0010
0000
0000
,  // measure 34
0011
0000
0000
0000
0000
0000
0000
0000
0000
0000
0010
0000
0000
0010
0000
0000
,  // measure 35
1010
0000
0000
0000
0000
0000
0000
0000
0000
0000
0100
0000
0000
0100
0000
0000
,  // measure 36
0101
0000
0000
0100
0000
0000
0001
0000
0000
1000
0010
0000
0010
0000
0000
0000
,  // measure 37
1000
0000
0000
0010
1000
0000
0001
0000
0010
0000
0001
0000
0000
0011
0000
0000
,  // measure 38
0001
0000
0000
1000
0010
0000
1000
0000
0100
0000
1000
0000
0000
1100
0000
0000
,  // measure 39
1000
0000
0000
0001
0100
0000
0001
0000
0010
0000
0001
0000
0000
0011
0000
0000
,  // measure 40
1010
0000
0000
0010
0000
0000
1000
0000
0000
0001
0010
0000
0010
0000
0000
0000
,  // measure 41
1010
0000
0011
0000
0011
0000
1010
1000
,  // measure 42
0000
0000
0101
0000
1100
0000
0011
0010
,  // measure 43
0001
1000
0100
0000
1000
0010
0100
0010
,  // measure 44
1000
0000
0000
0001
0000
0000
0100
0000
0001
0000
0000
1000
0000
0000
0010
0000
,  // measure 45
1000
0010
0000
1000
0000
0000
0100
0000
1000
0000
0000
0001
0100
0000
0010
0000
,  // measure 46
0100
0000
0010
0100
0001
0100
1000
0100
,  // measure 47
0001
0100
0101
0000
1001
0000
1000
0001
,  // measure 48
0100
0000
0000
0010
1000
0000
1000
0000
0001
0010
0000
0001
0010
0000
0100
0000
,  // measure 49
1100
0000
0101
0000
0101
0000
1100
1000
,  // measure 50
0001
0000
0011
0000
1010
0000
0011
0001
,  // measure 51
1000
0000
0100
0000
1000
0000
0010
0000
0100
0000
0000
0001
0000
0000
0010
0000
,  // measure 52
0100
0000
0000
1000
0000
0000
0010
0000
0100
0000
0000
0001
0000
0000
1000
0000
,  // measure 53
1000
0010
0000
0100
0000
0000
0010
0000
1000
0000
0000
0001
0100
0000
0010
0000
,  // measure 54
0100
0000
0001
1000
0100
1000
0100
0001
,  // measure 55
0100
1000
1100
0000
0010
0001
0010
1000
,  // measure 56
0001
0000
0000
0100
0001
0000
0001
0000
1000
0100
0000
1000
0100
0000
0010
0000
;

//---------------dance-single - ----------------
#NOTES:
     dance-single:
     :
     Beginner:
     1:
     0.062,0.073,0.000,0.000,0.000: // measure 1
0000
0000
0000
0000
,  // measure 2
0000
0000
0000
0000
,  // measure 3
0000
0000
0000
0000
,  // measure 4
0000
0000
0000
0000
,  // measure 5
0010
0000
0000
0000
,  // measure 6
0100
0000
0000
0000
,  // measure 7
0010
0000
0000
0000
,  // measure 8
0010
0000
0000
0000
,  // measure 9
1000
0000
0000
0000
,  // measure 10
0000
0000
0000
0000
,  // measure 11
0001
0000
0000
0000
,  // measure 12
0000
0000
0000
0000
,  // measure 13
1000
0000
0000
0000
,  // measure 14
0001
0000
0000
0000
,  // measure 15
1000
0000
0000
0000
,  // measure 16
0010
0000
0000
0000
,  // measure 17
0010
0000
0000
0000
,  // measure 18
0100
0000
0000
0000
,  // measure 19
0010
0000
0000
0000
,  // measure 20
1000
0000
0000
0000
,  // measure 21
0001
0000
0000
0000
,  // measure 22
1000
0000
0000
0000
,  // measure 23
1000
0000
0000
0000
,  // measure 24
0001
0000
0000
0000
,  // measure 25
0001
0000
0000
0000
,  // measure 26
1000
0000
0000
0000
,  // measure 27
0001
0000
0000
0000
,  // measure 28
1000
0000
0000
0000
,  // measure 29
0001
0000
0000
0000
,  // measure 30
1000
0000
0000
0000
,  // measure 31
0001
0000
0000
0000
,  // measure 32
1000
0000
0000
0000
,  // measure 33
0001
0000
0000
0000
,  // measure 34
0000
0000
0000
0000
,  // measure 35
1000
0000
0000
0000
,  // measure 36
0010
0000
0000
0000
,  // measure 37
0100
0000
0000
0000
,  // measure 38
0010
0000
0000
0000
,  // measure 39
0100
0000
0000
0000
,  // measure 40
0010
0000
0000
0000
,  // measure 41
1000
0000
0000
0000
,  // measure 42
0001
0000
0000
0000
,  // measure 43
1000
0000
0000
0000
,  // measure 44
1000
0000
0000
0000
,  // measure 45
1000
0000
0000
0000
,  // measure 46
0001
0000
0000
0000
,  // measure 47
0001
0000
0000
0000
,  // measure 48
0001
0000
0000
0000
,  // measure 49
1000
0000
0000
0000
,  // measure 50
0100
0000
0000
0000
,  // measure 51
1000
0000
0000
0000
,  // measure 52
0001
0000
0000
0000
,  // measure 53
0100
0000
0000
0000
,  // measure 54
0001
0000
0000
0000
,  // measure 55
1000
0000
0000
0000
,  // measure 56
0001
0000
0000
0000
;
