#TITLE:New Sensation;
#SUBTITLE:;
#ARTIST:新堂敦士;
#TITLETRANSLIT:;
#SUBTITLETRANSLIT:;
#ARTISTTRANSLIT:ATSUSHI SHINDO;
#CREDIT:DMAxel;
#BANNER:New Sensation.png;
#BACKGROUND:New Sensation-bg.png;
#LYRICSPATH:;
#CDTITLE:pop'n music.png;
#MUSIC:New Sensation.mp3;
#OFFSET:-5.920;
#SAMPLESTART:44.368;
#SAMPLELENGTH:12.000;
#SELECTABLE:YES;
#BPMS:0.000=149.000;
#STOPS:224.000=2.013
;
#BGCHANGES:;

//---------------dance-single - ----------------
#NOTES:
     dance-single:
     :
     Hard:
     8:
     0.510,0.515,0.120,0.051,0.103: // measure 1
0001
0010
0100
1000
0001
0100
0010
0000
,  // measure 2
1000
0100
0010
0001
1000
0010
0110
0000
,  // measure 3
1000
0100
0010
0001
1000
0010
0100
0000
,  // measure 4
0001
0010
0100
1000
0001
0100
0110
0000
,  // measure 5
0001
1000
0100
1000
0001
0010
0100
0000
,  // measure 6
1000
0001
0010
0001
1000
0100
0110
0000
,  // measure 7
1000
0001
0010
0001
1000
0100
0010
0000
,  // measure 8
0001
1000
0100
1000
0001
0010
0100
1000
,  // measure 9
0001
0000
0000
0000
1000
0000
0000
0100
0000
0000
0000
0000
1000
0000
0001
0000
,  // measure 10
1000
0000
0000
0000
0001
0000
0000
0010
0000
0000
0000
0000
0001
0000
1000
0000
,  // measure 11
0001
0000
0000
0000
1000
0000
0000
0010
0000
0000
0000
0000
1000
0000
0001
0000
,  // measure 12
1000
0000
0000
0000
0001
0000
0000
0100
0000
0000
0000
0000
0001
0000
1000
0000
,  // measure 13
0001
0000
0000
0000
0100
0000
0000
0010
0000
0000
0000
0000
1000
0000
0100
0000
,  // measure 14
1000
0000
0000
0000
0010
0000
0000
0100
0000
0000
0000
0000
0001
0000
0010
0000
,  // measure 15
0001
0000
0000
0000
0010
0000
0000
0100
0000
0000
0000
0000
1000
0000
0010
0000
,  // measure 16
1000
0000
0000
0000
0100
0000
0000
0010
0000
0000
0001
0000
1000
0000
0100
0000
,  // measure 17
1000
0001
0010
0001
0000
1000
0001
0000
,  // measure 18
0001
1000
0100
1000
0000
0001
1000
0000
,  // measure 19
0010
1000
0010
1000
0001
0010
0001
0010
,  // measure 20
0100
1000
0001
0100
0001
0000
0000
0000
,  // measure 21
1000
0010
1000
0001
0000
1000
0001
0000
,  // measure 22
0001
0100
0001
1000
0000
0001
1000
0000
,  // measure 23
0010
0100
0010
0100
0010
0100
0010
0100
,  // measure 24
0010
0100
0010
0100
0010
0100
0000
1001
,  // measure 25
0000
0100
1000
0000
0010
0100
0010
1001
,  // measure 26
0000
0010
0001
0000
0100
0010
0100
0001
,  // measure 27
1000
0000
0010
0100
0010
0000
1000
0010
,  // measure 28
1000
0000
0001
1000
0100
0010
0100
1001
,  // measure 29
0000
0010
0001
0000
0100
0010
0100
1001
,  // measure 30
0000
0100
1000
0000
0010
0100
0010
1000
,  // measure 31
0001
0000
0100
0010
0100
0000
0001
0100
,  // measure 32
0001
0000
1000
0001
0010
0100
0010
1001
,  // measure 33
0000
0010
1000
0000
0010
0100
0010
1001
,  // measure 34
0000
0100
0001
0000
0100
0010
0100
0001
,  // measure 35
1000
0000
0010
0100
0010
0000
1000
0010
,  // measure 36
1000
0000
0001
1000
0100
0010
0100
1001
,  // measure 37
0000
0100
0001
0000
0100
0001
1000
1001
,  // measure 38
0000
0010
1000
0000
0010
1000
0001
0100
,  // measure 39
0001
0000
0100
0010
0100
0000
0010
1000
,  // measure 40
0001
0010
0001
0010
0001
0010
0001
0010
,  // measure 41
0001
1000
0100
0010
0001
0010
1000
0000
,  // measure 42
0001
0010
0100
1000
0100
0001
1000
0100
,  // measure 43
1000
0001
0010
0100
1000
0100
0001
0000
,  // measure 44
1000
0100
0010
0001
0010
1000
0001
0010
,  // measure 45
0001
1000
0010
0100
0001
0100
1000
0000
,  // measure 46
0001
0100
0010
1000
0010
0001
0010
0100
,  // measure 47
0010
0001
0010
0100
1000
0100
0001
0100
,  // measure 48
0010
1000
0100
1000
0001
0010
0001
0000
,  // measure 49
2001
0000
0000
0000
0001
0000
0000
0001
0000
0000
0000
0000
3001
0000
0010
0000
,  // measure 50
0002
0000
0000
0000
1000
0000
0000
1000
0000
0000
0000
0000
1003
0000
0100
0000
,  // measure 51
2000
0000
0000
0000
0001
0000
0000
0001
0000
0000
0000
0000
3001
0000
0100
0000
,  // measure 52
0002
0000
0000
0000
1000
0000
0000
1000
0000
0000
0000
0000
1003
0000
0010
0000
,  // measure 53
1000
0000
0000
0000
0001
0000
0000
0010
0000
0000
0001
0000
1000
0000
0010
0000
,  // measure 54
1000
0000
0000
0000
0001
0000
0000
0100
0000
0000
0001
0000
1000
0000
0100
0000
,  // measure 55
1000
0000
0000
0000
0010
0000
0000
1000
0000
0000
0001
0000
1000
0000
0100
0000
,  // measure 56
1000
0000
0000
0000
0100
0000
0000
1000
0000
0000
0001
0000
0100
0000
0010
0000
,  // measure 57
0100
0000
0000
0000
0100
0000
0000
0000
0110
0000
0000
0000
0001
0100
0000
0001
,  // measure 58
0100
0000
0010
0000
1000
0000
0100
0000
0010
0000
0001
0000
1000
0010
0000
1000
,  // measure 59
0010
0000
0100
0000
0001
0000
0010
0000
0100
0000
1000
0000
0001
0010
0000
0001
,  // measure 60
0010
0000
0100
0000
1000
0000
0010
0000
0100
0000
0001
0000
1000
0100
0000
1000
,  // measure 61
0100
0010
0001
0100
0010
1000
0001
0000
,  // measure 62
0000
2002
0000
0000
,  // measure 63
0000
0000
0000
0000
,  // measure 64
0000
3003
0000
0000
;

//---------------dance-single - ----------------
#NOTES:
     dance-single:
     :
     Challenge:
     9:
     0.652,0.624,0.206,0.120,0.523: // measure 1
0100
0000
0000
1000
0000
0000
0001
0000
0000
0100
0000
0000
0001
0000
1000
0000
,  // measure 2
0100
0000
0000
1000
0000
0000
0001
0000
0000
0100
0000
0000
0001
0000
1000
0000
,  // measure 3
0001
0000
0000
0010
0000
0000
0001
0000
0000
1000
0000
0000
0010
0000
0100
0000
,  // measure 4
0001
0000
0000
0010
0000
0000
0001
0000
0000
1000
0000
0000
0010
0000
0100
0000
,  // measure 5
0001
0100
0000
0001
0100
0000
0010
0000
1000
0000
0001
0000
0010
0000
0100
0000
,  // measure 6
1000
0010
0000
1000
0010
0000
0100
0000
0001
0000
1000
0000
0100
0000
0010
0000
,  // measure 7
0001
0100
0000
0001
0100
0000
0010
0000
1000
0000
0100
0000
0010
0000
0001
0000
,  // measure 8
1000
0010
0000
1000
0010
0000
0100
0000
0001
0000
1000
0000
0010
0100
0010
0100
,  // measure 9
0010
0000
0000
0000
0100
0000
0000
0101
0000
0000
1000
0000
0001
0000
0001
0000
,  // measure 10
0100
0000
0000
0000
0010
0000
0000
1010
0000
0000
0001
0000
1000
0000
1000
0000
,  // measure 11
0010
0000
0000
0000
0100
0000
0000
0101
0000
0000
1000
0000
0001
0000
0001
0000
,  // measure 12
0100
0000
0000
0000
0010
0000
0000
1010
0000
0000
0100
0000
0001
0000
0001
0000
,  // measure 13
1000
0000
0000
0000
0100
0000
0000
1100
0000
0000
0100
0000
1000
0000
0001
0000
,  // measure 14
0001
0000
0000
0000
0010
0000
0000
0011
0000
0000
0010
0000
0001
0000
1000
0000
,  // measure 15
1000
0000
0000
0000
0010
0000
0000
1010
0000
0000
0010
0000
1000
0000
0001
0000
,  // measure 16
0001
0000
0000
0000
0100
0000
0000
0101
0000
0000
0100
0000
0001
0000
1000
0000
,  // measure 17
1100
0000
0010
0000
0001
0000
0000
0010
0000
0000
0100
0000
0010
0000
0001
0000
,  // measure 18
1000
0000
0100
0000
0010
0000
0000
0100
0000
0000
1000
0000
0010
0000
1000
0000
,  // measure 19
0001
0000
0010
0000
0100
0000
0000
0010
0000
0000
0001
0000
0100
0000
0001
0000
,  // measure 20
1000
0000
0100
0000
0010
0000
0001
0000
0100
0010
0100
0000
0010
0100
0010
0000
,  // measure 21
1000
0000
0100
0000
1000
0000
0000
0001
0000
0000
0010
0000
0100
0000
0010
0000
,  // measure 22
0001
0000
0100
0000
0001
0000
0000
1000
0000
0010
0100
0000
0010
0000
0010
0000
,  // measure 23
1000
1000
0100
0100
0010
0010
0001
0001
,  // measure 24
0010
0100
1000
0001
0010
0100
0000
2010
,  // measure 25
0000
0000
0001
0000
0001
0000
0000
0000
3001
0100
0001
0000
0100
0000
0102
0000
,  // measure 26
0000
0000
1000
0000
1000
0000
0000
0000
1003
0010
1000
0010
1000
0010
1000
0000
,  // measure 27
0001
0000
0010
0000
0001
0000
1000
0010
0000
1000
0010
0000
0100
0000
0001
0000
,  // measure 28
1000
0000
0100
0000
1000
0000
0001
0000
0100
0001
0100
0001
0100
0000
0102
0000
,  // measure 29
0000
0000
1000
0000
1000
0000
0000
0000
1003
0010
1000
0000
0010
0000
2010
0000
,  // measure 30
0000
0000
0001
0000
0001
0000
0000
0000
3001
0100
0001
0100
0001
0100
0001
0000
,  // measure 31
1000
0000
0100
0000
1000
0000
0001
0100
0000
0001
0100
0000
0010
0000
1000
0000
,  // measure 32
0001
0000
0010
0000
0001
0000
1000
0000
0010
1000
0010
1000
0010
0000
2010
0000
,  // measure 33
0000
0000
0001
0000
0001
0000
0000
0000
3001
0100
0001
0000
0100
0000
0102
0000
,  // measure 34
0000
0000
1000
0000
1000
0000
0000
0000
1003
0010
1000
0010
1000
0010
1000
0000
,  // measure 35
0001
0000
0100
0000
0001
0000
1000
0100
0000
1000
0100
0000
1000
0000
0001
0000
,  // measure 36
0010
0000
0100
0000
0010
0000
0001
0000
0100
0010
0100
0010
0100
0000
1002
0000
,  // measure 37
0000
0000
0100
0000
0100
0000
0000
0000
0103
0010
0100
0000
0001
0000
2001
0000
,  // measure 38
0000
0000
0100
0000
0100
0000
0000
0000
3001
0100
0001
0100
0001
0100
0001
0000
,  // measure 39
1000
0000
0010
0000
1000
0000
0001
0010
0000
0001
0010
0000
0001
0000
1000
0000
,  // measure 40
0001
0001
0010
0010
0100
0100
1000
1000
,  // measure 41
0100
0010
0000
0100
0010
0000
0001
1000
0000
0001
1000
0000
0010
0000
0100
0000
,  // measure 42
0001
1000
0000
0001
1000
0000
0010
0100
0000
0010
0100
0000
0001
0000
0001
0000
,  // measure 43
1000
0010
0000
1000
0010
0000
0100
0001
0000
0100
0001
0000
0100
0000
0010
0000
,  // measure 44
1000
0100
0000
1000
0100
0000
0010
0001
0000
0010
0001
0000
1000
0000
1000
0000
,  // measure 45
0001
0100
0000
0001
0100
0000
0010
1000
0000
0010
1000
0000
0010
0000
0100
0000
,  // measure 46
0001
0010
0000
0001
0010
0000
0100
1000
0000
0100
1000
0000
0001
0000
0001
0000
,  // measure 47
0010
0001
0000
1000
0010
0000
1000
0010
0000
1000
0001
0000
1000
0000
1000
0000
,  // measure 48
0010
1000
0000
0001
0010
0000
0001
0010
0000
0001
1000
0000
0001
1000
0001
1000
,  // measure 49
0001
0000
0000
0000
0010
0000
0001
2000
0000
0000
0010
0000
3010
0000
1000
0000
,  // measure 50
0001
0000
0100
0001
1000
0100
0010
0001
,  // measure 51
1000
0000
0000
0000
0100
0000
1000
0002
0000
0000
0100
0000
0103
0000
0001
0000
,  // measure 52
1000
0000
0010
1000
0001
0010
0100
1000
,  // measure 53
1001
0000
0000
0000
0100
0000
1000
0002
0000
0000
0100
0000
0103
0000
0001
0000
,  // measure 54
1000
0000
0000
0000
0100
0000
1000
0002
0000
0000
0100
0000
0103
0000
0001
0000
,  // measure 55
1001
1100
1001
0101
,  // measure 56
0010
1000
0100
0010
0001
0100
1000
0100
,  // measure 57
0010
0000
0000
0000
0100
0000
0000
0000
0110
0000
0000
0000
0001
0010
0000
0001
,  // measure 58
1000
0000
0010
1000
0000
0010
1000
0000
0001
0010
0001
0000
1000
0010
0000
1000
,  // measure 59
0001
0000
0010
0001
0000
0010
0001
0000
1000
0010
1000
0000
0001
0100
0000
0001
,  // measure 60
1000
0000
0100
1000
0000
0100
1000
0000
0001
0100
0001
0000
1000
0010
0000
1000
,  // measure 61
0001
0000
0010
0001
0000
0010
0001
0000
0100
0010
1000
0000
1000
0000
0000
0000
,  // measure 62
0000
2002
0000
0000
,  // measure 63
0000
0000
0000
0000
,  // measure 64
0000
3003
0000
0000
;

//---------------dance-single - ----------------
#NOTES:
     dance-single:
     :
     Easy:
     3:
     0.219,0.244,0.103,0.086,0.000: // measure 1
1000
1000
1000
0000
,  // measure 2
0001
0001
0001
0000
,  // measure 3
1000
1000
1000
0000
,  // measure 4
0001
0001
0001
0000
,  // measure 5
1000
0010
1000
0000
,  // measure 6
0001
0100
0001
0000
,  // measure 7
1000
0100
1000
0000
,  // measure 8
0001
0010
0001
0000
,  // measure 9
1001
0000
0000
0000
,  // measure 10
1000
0000
0000
0000
,  // measure 11
0001
0000
0000
0000
,  // measure 12
0100
0000
0000
0000
,  // measure 13
0010
0000
0000
0000
,  // measure 14
1000
0000
0000
0000
,  // measure 15
0100
0000
0000
0000
,  // measure 16
0010
0000
0000
0000
,  // measure 17
1001
0000
0000
0000
,  // measure 18
0001
0000
0000
0000
,  // measure 19
1000
0000
0010
0000
,  // measure 20
1000
0000
0000
0000
,  // measure 21
0001
0000
0000
0000
,  // measure 22
1000
0000
0000
0000
,  // measure 23
0001
0000
0100
0010
,  // measure 24
0100
0000
0010
0000
0100
0000
0000
1002
,  // measure 25
0000
0000
1003
0000
0000
0000
0000
2001
,  // measure 26
0000
3001
0000
0000
,  // measure 27
1000
0001
1000
0000
,  // measure 28
0010
0000
0100
0000
0001
0000
0000
1002
,  // measure 29
0000
0000
1003
0000
0000
0000
0000
2001
,  // measure 30
0000
3001
0000
0000
,  // measure 31
0001
1000
0001
0000
,  // measure 32
0100
0000
0001
0000
1000
0000
0000
2001
,  // measure 33
0000
0000
3001
0000
0000
0000
0000
1002
,  // measure 34
0000
1003
0000
0000
,  // measure 35
1000
0001
1000
0000
,  // measure 36
0010
0000
1000
0000
0001
0000
0000
1002
,  // measure 37
0000
0000
1003
0000
0000
0000
0000
2001
,  // measure 38
0000
3001
0000
0000
,  // measure 39
0001
1000
0001
0000
,  // measure 40
0100
0001
1000
0100
,  // measure 41
1000
0100
0010
0000
,  // measure 42
0001
0010
0100
0000
,  // measure 43
1000
0010
0100
0000
,  // measure 44
0001
0100
0010
0000
,  // measure 45
1000
0001
1000
0001
,  // measure 46
1000
0100
0010
0000
,  // measure 47
0001
1000
0001
1000
,  // measure 48
0001
0010
0100
0000
,  // measure 49
1001
1000
0100
0000
,  // measure 50
0010
0001
0100
0000
,  // measure 51
0010
1000
0100
0000
,  // measure 52
0010
0001
0100
0010
,  // measure 53
1000
0100
0010
0000
,  // measure 54
0001
0010
0100
0000
,  // measure 55
1000
0001
1000
0100
,  // measure 56
0010
0001
1000
0001
,  // measure 57
1000
0000
0000
0001
,  // measure 58
0001
1000
1000
0001
,  // measure 59
0010
0100
1000
0010
,  // measure 60
0010
0100
0100
0001
,  // measure 61
0100
0010
1000
0000
,  // measure 62
0000
2002
0000
0000
,  // measure 63
0000
0000
0000
0000
,  // measure 64
0000
3003
0000
0000
;

//---------------dance-single - ----------------
#NOTES:
     dance-single:
     :
     Medium:
     6:
     0.420,0.407,0.249,0.292,0.069: // measure 1
0200
0001
0302
1000
,  // measure 2
2003
0000
0100
0000
3100
0010
0001
0000
,  // measure 3
0200
0001
0302
1000
,  // measure 4
2003
0000
0100
0000
3100
0010
0001
1000
,  // measure 5
0020
1000
2030
0001
,  // measure 6
3002
0000
0010
0000
0013
0100
1000
0000
,  // measure 7
0020
1000
2030
0001
,  // measure 8
3002
0000
0010
0000
0013
0100
1000
0001
,  // measure 9
0100
0001
0100
0001
,  // measure 10
1000
0100
1000
0100
,  // measure 11
1000
0001
0100
0001
,  // measure 12
0100
0010
0100
0010
,  // measure 13
0100
0001
0010
0001
,  // measure 14
0010
0100
0010
0100
,  // measure 15
1000
0100
1000
0100
,  // measure 16
0010
0001
1000
0001
,  // measure 17
2001
0000
0001
0000
3001
1000
0100
0000
,  // measure 18
0020
0000
0100
0000
0130
1000
0001
0000
,  // measure 19
0100
0001
0100
0000
0010
1000
0010
0000
,  // measure 20
0100
0001
0010
0100
1000
0000
1000
0000
,  // measure 21
1002
0000
1000
0000
1003
0001
0010
0000
,  // measure 22
0200
0000
0010
0000
0310
0001
1000
0000
,  // measure 23
1001
0000
0100
1000
0100
0000
0100
0001
,  // measure 24
0100
0000
0100
1000
0100
0001
0000
1001
,  // measure 25
0000
0000
1100
0000
0001
0000
1000
0001
,  // measure 26
0000
0011
1000
0001
,  // measure 27
0110
0000
1000
0100
0010
0000
0001
0100
,  // measure 28
0001
0000
0100
0001
1000
0000
0000
1001
,  // measure 29
0000
0000
0011
0000
1000
0000
0001
1000
,  // measure 30
0000
1100
0001
1000
,  // measure 31
0110
0000
0001
0010
0100
0000
1000
0010
,  // measure 32
1000
0000
0010
1000
0001
0000
0000
1001
,  // measure 33
0000
0000
0101
0000
1000
0000
0001
1000
,  // measure 34
0000
1010
0001
1000
,  // measure 35
0110
0000
0001
0100
0010
0000
0100
0010
,  // measure 36
0100
0000
0001
0100
0010
1000
0000
1001
,  // measure 37
0000
0000
0101
0000
1000
0000
0001
1000
,  // measure 38
0000
1010
0001
1000
,  // measure 39
0110
0000
0001
0100
0010
0000
0100
0010
,  // measure 40
0100
0000
0100
0001
0100
0000
0100
1000
,  // measure 41
0100
1001
0001
0110
,  // measure 42
1000
0100
0010
0001
1000
0000
0010
0100
,  // measure 43
0001
1001
1000
0110
,  // measure 44
0001
0010
0100
1000
0001
0000
0100
0010
,  // measure 45
1000
1001
0001
0110
,  // measure 46
1000
0100
0010
0001
1000
0000
0010
0100
,  // measure 47
0001
1001
1000
0110
,  // measure 48
0001
0100
0010
0000
1000
0100
0010
0001
,  // measure 49
0200
0000
0000
0000
0001
0000
0000
0002
0000
0000
0000
0000
0303
0000
0000
0000
,  // measure 50
0020
0000
0000
0000
1000
0000
0000
2000
0000
0000
0000
0000
3030
0000
0000
0000
,  // measure 51
0200
0000
0000
0000
0001
0000
0000
0002
0000
0000
0000
0000
0303
0000
0000
0000
,  // measure 52
0020
0000
0000
0000
1000
0000
0000
2000
0000
0000
0000
0000
3030
0000
0000
0000
,  // measure 53
1001
0000
0000
0000
0200
0000
0000
2000
0000
0000
0000
0000
3300
0000
0000
0000
,  // measure 54
0001
0000
0000
0000
0020
0000
0000
0002
0000
0000
0000
0000
0033
0000
0000
0000
,  // measure 55
1000
0000
0000
0000
0020
0000
0000
2000
0000
0000
0000
0000
3030
0000
0000
0000
,  // measure 56
0001
0000
0000
0000
0200
0000
0000
0002
0000
0000
0000
0000
0303
0000
0000
0000
,  // measure 57
1000
0000
0000
0000
0000
0000
0000
0000
0000
0000
0000
0000
1000
0000
0000
0010
,  // measure 58
0000
0000
0100
0000
0000
0001
0000
0000
1000
0000
0000
0000
0001
0000
0000
0100
,  // measure 59
0000
0000
0010
0000
0000
1000
0000
0000
0001
0000
0000
0000
1000
0000
0000
0100
,  // measure 60
0000
0000
0010
0000
0000
0001
0000
0000
1000
0000
0000
0000
0001
0000
0000
0010
,  // measure 61
0000
0000
0100
0000
0000
1000
0000
0000
0001
0000
1000
0000
0001
0000
0000
0000
,  // measure 62
0000
2002
0000
0000
,  // measure 63
0000
0000
0000
0000
,  // measure 64
0000
3003
0000
0000
;

//---------------dance-single - ----------------
#NOTES:
     dance-single:
     :
     Beginner:
     2:
     0.099,0.131,0.086,0.000,0.000: // measure 1
0000
0000
0000
0000
,  // measure 2
0000
0000
0000
0000
,  // measure 3
0000
0000
0000
0000
,  // measure 4
0000
0000
0000
0000
,  // measure 5
1000
0000
1000
0000
,  // measure 6
1000
0000
0000
0000
,  // measure 7
0001
0000
0001
0000
,  // measure 8
0001
0000
0000
0000
,  // measure 9
1001
0000
0000
0000
,  // measure 10
1000
0000
0000
0000
,  // measure 11
0001
0000
0000
0000
,  // measure 12
0010
0000
0000
0000
,  // measure 13
0100
0000
0000
0000
,  // measure 14
1000
0000
0000
0000
,  // measure 15
0010
0000
0000
0000
,  // measure 16
0010
0000
0000
0000
,  // measure 17
0110
0000
0000
0000
,  // measure 18
1000
0000
0000
0000
,  // measure 19
1000
0000
0000
0000
,  // measure 20
0001
0000
0000
0000
,  // measure 21
0001
0000
0000
0000
,  // measure 22
1000
0000
0000
0000
,  // measure 23
1001
0000
0000
0000
,  // measure 24
0000
0000
0000
0000
0000
0000
0000
1001
,  // measure 25
0000
0000
0000
0000
0000
0000
0000
1000
,  // measure 26
0000
0000
0000
0000
,  // measure 27
0001
0000
1000
0000
,  // measure 28
0001
0000
0000
0000
0000
0000
0000
1001
,  // measure 29
0000
0000
0000
0000
0000
0000
0000
0001
,  // measure 30
0000
0000
0000
0000
,  // measure 31
1000
0000
0001
0000
,  // measure 32
1000
0000
0000
0000
0000
0000
0000
1001
,  // measure 33
0000
0000
0000
0000
0000
0000
0000
1000
,  // measure 34
0000
0000
0000
0000
,  // measure 35
0001
0000
1000
0000
,  // measure 36
0001
0000
0000
0000
0000
0000
0000
1001
,  // measure 37
0000
0000
0000
0000
0000
0000
0000
0001
,  // measure 38
0000
0000
0000
0000
,  // measure 39
1000
0000
0001
0000
,  // measure 40
1000
0000
0000
0000
,  // measure 41
1001
0000
1000
0000
,  // measure 42
1000
0000
0000
0000
,  // measure 43
0001
0000
0001
0000
,  // measure 44
0001
0000
0000
0000
,  // measure 45
0100
0000
0100
0000
,  // measure 46
0100
0000
0000
0000
,  // measure 47
0010
0000
0010
0000
,  // measure 48
0010
0000
0000
0000
,  // measure 49
1001
0000
0000
0000
,  // measure 50
1000
0000
0000
0000
,  // measure 51
0001
0000
0000
0000
,  // measure 52
1000
0000
0000
0000
,  // measure 53
0100
0000
0000
0000
,  // measure 54
0010
0000
0000
0000
,  // measure 55
0001
0000
0000
0000
,  // measure 56
1000
0000
0000
0000
,  // measure 57
0001
0000
0000
1000
,  // measure 58
0000
0001
0000
1000
,  // measure 59
0000
0001
0000
0100
,  // measure 60
0000
0010
0000
0100
,  // measure 61
0000
0010
0000
0000
,  // measure 62
0000
1001
0000
0000
;
