#TITLE:Need Your Love;
#SUBTITLE:;
#ARTIST:Sota Fujimori;
#TITLETRANSLIT:;
#SUBTITLETRANSLIT:;
#ARTISTTRANSLIT:;
#CREDIT:DMAxel;
#BANNER:Need Your Love.png;
#BACKGROUND:Need Your Love-bg.png;
#LYRICSPATH:;
#CDTITLE:REFLEC BEAT.png;
#MUSIC:Need Your Love.mp3;
#OFFSET:-8.620;
#SAMPLESTART:54.596;
#SAMPLELENGTH:12.000;
#SELECTABLE:YES;
#BPMS:0.000=146.000;
#STOPS:;
#BGCHANGES:;

//---------------dance-single - ----------------
#NOTES:
     dance-single:
     :
     Easy:
     3:
     0.254,0.295,0.085,0.246,0.000: // measure 1
1000
0001
2000
0000
,  // measure 2
3010
0100
0020
0000
,  // measure 3
1030
0100
0020
0000
,  // measure 4
0031
0010
0200
0000
,  // measure 5
1300
0000
0000
0000
,  // measure 6
0001
0000
0000
0000
,  // measure 7
1000
1001
0001
0000
,  // measure 8
0100
0010
0100
0001
,  // measure 9
1000
1001
0001
0000
,  // measure 10
0100
0010
0100
0001
,  // measure 11
1000
1001
0001
0000
,  // measure 12
0010
0100
0010
0001
,  // measure 13
1000
1001
0001
0000
,  // measure 14
0220
0000
0330
1000
,  // measure 15
1002
0000
0000
0000
,  // measure 16
0103
0010
2000
0000
,  // measure 17
3010
0100
0002
0000
,  // measure 18
0013
0100
1000
0001
,  // measure 19
0100
0001
1000
0000
,  // measure 20
1000
0100
1000
0001
,  // measure 21
0100
0010
0100
0000
,  // measure 22
0002
0000
1000
0000
0000
1003
0000
0000
,  // measure 23
1000
0000
0000
0000
,  // measure 24
1000
0000
0000
0000
,  // measure 25
1000
0000
0000
0000
,  // measure 26
1000
0000
0000
0000
,  // measure 27
0001
0000
0000
0000
,  // measure 28
0000
0000
0000
0000
,  // measure 29
0001
0010
0100
1000
,  // measure 30
0002
0000
1000
0000
,  // measure 31
1003
0100
0010
0001
,  // measure 32
2000
0000
0001
0000
,  // measure 33
3001
0010
0100
1000
,  // measure 34
0010
0100
0010
1000
,  // measure 35
0002
0000
1000
0000
,  // measure 36
1003
0000
0001
0000
,  // measure 37
1001
0100
0010
0001
,  // measure 38
2000
0000
0001
0000
,  // measure 39
3001
0010
0100
1000
,  // measure 40
0002
0000
1000
0000
,  // measure 41
1003
0010
0100
0001
,  // measure 42
0010
0100
0010
0001
,  // measure 43
2000
0000
3001
0000
,  // measure 44
0220
0000
0000
0330
,  // measure 45
0010
0100
0001
1000
,  // measure 46
2000
0000
3001
0000
,  // measure 47
0100
0010
1000
0001
,  // measure 48
0002
0000
1003
0000
,  // measure 49
0000
0100
0010
1000
,  // measure 50
2000
0000
3001
0000
,  // measure 51
0010
0100
0001
1000
,  // measure 52
2002
0000
0000
3003
,  // measure 53
0002
0000
0000
0000
,  // measure 54
1003
1000
0001
0001
,  // measure 55
1000
1000
0020
0000
,  // measure 56
0130
0100
0010
0010
,  // measure 57
2000
0000
0001
0000
0000
3001
0000
0000
;

//---------------dance-single - ----------------
#NOTES:
     dance-single:
     :
     Medium:
     5:
     0.384,0.405,0.189,0.350,0.005: // measure 1
0001
1000
0001
0000
0200
0000
0320
0000
,  // measure 2
1030
0001
1000
0000
0020
0000
0230
0000
,  // measure 3
0301
1000
0001
0000
0200
0000
0320
0000
,  // measure 4
1030
0001
1000
0000
0010
0100
0001
0000
,  // measure 5
2000
0000
0000
0000
,  // measure 6
3002
0000
0000
0000
,  // measure 7
1003
1100
0020
0001
,  // measure 8
0031
0000
0100
0010
0100
0000
0001
0000
,  // measure 9
0001
0011
0200
1000
,  // measure 10
1300
0000
0010
0100
0010
0000
1000
0000
,  // measure 11
1000
0101
0020
1000
,  // measure 12
1030
0000
0100
0010
0100
0000
0001
0000
,  // measure 13
0001
0000
1010
0000
0100
0001
0100
0000
,  // measure 14
0220
0000
0000
0000
0330
0000
0001
0100
,  // measure 15
1000
0100
0001
1000
,  // measure 16
0001
0000
0100
0000
1000
0100
0001
0000
,  // measure 17
0100
0000
0010
0000
1000
0001
1000
0000
,  // measure 18
0010
0000
0110
0000
1000
0100
0001
0000
,  // measure 19
0100
1000
0010
0100
,  // measure 20
0001
0100
1000
0000
0100
0000
0001
0000
,  // measure 21
0100
0000
0010
1000
0000
1000
0000
0000
,  // measure 22
0001
0000
0001
0100
0000
0100
0000
0000
,  // measure 23
0002
0000
0000
0000
,  // measure 24
2003
0000
0000
0000
,  // measure 25
3020
0000
0000
0000
,  // measure 26
0230
0000
0000
0000
,  // measure 27
0302
0000
0000
1003
,  // measure 28
2000
0000
0000
3000
,  // measure 29
0001
0010
0100
0000
1000
0000
1010
0000
,  // measure 30
1000
0000
0002
0000
0000
0103
0000
0000
,  // measure 31
1000
0100
0010
0000
0001
0000
0101
0000
,  // measure 32
0001
0000
2000
0000
0000
3010
0000
0000
,  // measure 33
0001
0100
0001
0000
1000
0010
1000
0000
,  // measure 34
0010
0100
0010
0100
0010
1000
0001
0000
,  // measure 35
1000
0100
1000
0000
0001
0010
0001
0000
,  // measure 36
0100
0010
0100
0010
0100
0001
1000
0000
,  // measure 37
0001
0000
0000
1000
0000
0000
0020
0000
0000
0000
0000
0000
1030
0000
0000
0000
,  // measure 38
0001
0000
0100
0001
0000
1000
0000
0000
,  // measure 39
1000
0001
0100
0000
0100
0001
1000
0000
,  // measure 40
1000
0000
0010
1000
0000
0001
0000
0000
,  // measure 41
0010
0001
0010
0000
0100
1000
0100
0000
,  // measure 42
1000
0001
1000
0001
1000
0010
0100
0000
,  // measure 43
0002
0000
0000
2003
0000
0000
3001
0000
,  // measure 44
0220
0000
0000
0330
,  // measure 45
0110
0100
1100
0101
,  // measure 46
2000
0000
0001
0002
0000
0000
0000
0000
,  // measure 47
3003
0100
0101
1100
,  // measure 48
0002
0000
1000
1000
2000
0000
0000
0000
,  // measure 49
3003
0010
1010
0011
,  // measure 50
2000
0000
0001
0002
0000
0000
0000
0000
,  // measure 51
3003
0010
0011
1010
,  // measure 52
2002
0000
0000
3003
,  // measure 53
1000
1000
1000
2000
,  // measure 54
3001
0010
0100
0000
0010
0100
1000
0000
,  // measure 55
0010
0100
0001
0000
1002
0000
1000
0000
,  // measure 56
1003
0100
0010
0000
0100
0010
0001
0000
,  // measure 57
0100
0000
0010
1000
0000
2000
0000
0000
,  // measure 58
3000
0000
0000
0000
;

//---------------dance-single - ----------------
#NOTES:
     dance-single:
     :
     Hard:
     7:
     0.531,0.486,0.464,0.208,0.071: // measure 1
0001
0100
0001
1000
0200
0000
0001
0000
,  // measure 2
1300
0100
1000
0001
0020
0000
1000
0000
,  // measure 3
0031
0100
0001
1000
0200
0000
0001
0000
,  // measure 4
1300
0100
1000
0001
0020
1000
1030
0000
,  // measure 5
1001
0010
0100
1000
,  // measure 6
0001
0001
1000
1000
,  // measure 7
1001
1100
0102
1000
,  // measure 8
1003
0100
0010
0001
1000
0100
0010
0000
,  // measure 9
1001
0011
2010
0001
,  // measure 10
3001
0010
0100
1000
0001
0010
0100
0000
,  // measure 11
1001
1010
0012
1000
,  // measure 12
1003
0010
0100
0001
0010
0100
0010
0000
,  // measure 13
1001
0101
2100
3001
,  // measure 14
1001
0000
0000
0000
0001
0000
0100
0000
1000
0000
0000
0000
0100
0000
0001
1000
,  // measure 15
0001
0010
0100
0020
0000
0001
0031
0000
,  // measure 16
1000
0100
0010
0001
0100
1000
0100
0000
,  // measure 17
0001
0010
0200
0000
0310
0001
1000
0000
,  // measure 18
0100
0010
0100
1000
0001
0100
0110
0000
,  // measure 19
1000
0100
0001
0100
1000
0010
0100
0000
,  // measure 20
0001
0100
1000
0100
0001
1000
0010
0000
,  // measure 21
1000
0100
0001
0001
0100
1000
0000
0000
,  // measure 22
1100
0000
1100
1001
0000
0101
0000
0000
,  // measure 23
2000
0100
0010
3001
,  // measure 24
0002
0010
0100
1003
,  // measure 25
0100
1000
0020
0000
0100
0000
0130
0000
,  // measure 26
0010
0001
0200
0000
0310
1000
0100
0000
,  // measure 27
2000
0000
0001
0000
0001
0000
3001
0001
,  // measure 28
0100
0010
0200
0000
0010
0000
0310
0000
,  // measure 29
1000
0100
0010
0001
1000
0100
0001
0100
,  // measure 30
0010
0000
0101
0000
0000
1100
0000
0000
,  // measure 31
0001
0010
0100
1000
0001
0100
1000
0100
,  // measure 32
0010
0000
1100
0000
0000
0101
0000
0000
,  // measure 33
0100
1000
0010
0100
0001
0010
0100
0000
,  // measure 34
0010
0001
0100
0010
1000
0100
0010
0000
,  // measure 35
0100
1000
0100
0001
0000
0100
1000
0100
,  // measure 36
0010
0001
0100
0010
1000
0100
0010
0000
,  // measure 37
1001
0000
0000
1000
0000
0000
0001
0000
0010
0000
0100
0000
0010
0000
0001
0000
,  // measure 38
1000
0000
1100
0000
0000
0101
0000
0000
,  // measure 39
1000
0100
0010
0100
1000
0100
0001
0100
,  // measure 40
0010
0000
0101
0000
0000
1100
0000
0000
,  // measure 41
0001
0010
0100
0010
0001
0100
1000
0100
,  // measure 42
0010
1001
0101
1010
,  // measure 43
0100
0001
0100
1000
0000
0100
0001
0010
,  // measure 44
0200
0000
0010
0310
,  // measure 45
1001
0101
0110
1010
,  // measure 46
0100
0001
0010
0100
0000
1000
0010
0100
,  // measure 47
0010
1010
0110
0101
,  // measure 48
0010
1000
0100
0010
0000
0001
0100
0010
,  // measure 49
0100
0011
0110
1100
,  // measure 50
0010
0001
0010
0100
0000
1000
0010
0100
,  // measure 51
0010
1100
0110
0011
,  // measure 52
1002
0000
0000
0000
0000
0000
0000
0000
1000
0000
1003
0000
0100
1000
0100
0000
,  // measure 53
0010
0001
1000
0001
,  // measure 54
0100
0001
0000
1000
0000
1000
0000
0000
0010
1000
0000
0001
0000
0001
0000
0000
,  // measure 55
0100
0010
0000
1000
0000
1000
0000
0002
0000
0000
0103
0000
0001
0000
0010
0000
,  // measure 56
0100
0000
0000
1000
0010
0000
0000
0010
0200
0000
0000
0000
0301
0000
0000
0000
,  // measure 57
0101
0000
0101
1001
0000
2200
0000
0000
,  // measure 58
3300
0000
0000
0000
;

//---------------dance-single - ----------------
#NOTES:
     dance-single:
     :
     Beginner:
     1:
     0.078,0.159,0.066,0.000,0.000: // measure 1
1000
0000
0000
0000
,  // measure 2
0001
0000
0000
0000
,  // measure 3
1000
0000
0000
0000
,  // measure 4
0001
0000
0000
0000
,  // measure 5
1000
0000
0000
0000
,  // measure 6
0000
0000
0000
0000
,  // measure 7
1000
0000
0000
0000
,  // measure 8
0000
0000
0000
0000
,  // measure 9
1000
0000
0000
0000
,  // measure 10
0000
0000
0000
0000
,  // measure 11
0001
0000
0000
0000
,  // measure 12
0000
0000
0000
0000
,  // measure 13
0001
0000
0000
0000
,  // measure 14
1001
0000
0000
0000
,  // measure 15
0100
0000
0000
0000
,  // measure 16
0100
0000
0000
0000
,  // measure 17
0100
0000
0000
0000
,  // measure 18
0000
0000
0000
0000
,  // measure 19
0010
0000
0000
0000
,  // measure 20
0010
0000
0000
0000
,  // measure 21
0010
0000
0000
0000
,  // measure 22
0110
0000
0000
0000
,  // measure 23
1000
0000
0000
0000
,  // measure 24
0000
0000
0000
0000
,  // measure 25
1000
0000
0000
0000
,  // measure 26
0000
0000
0000
0000
,  // measure 27
1000
0000
0000
0000
,  // measure 28
0000
0000
0000
0000
,  // measure 29
1001
0000
0000
0000
,  // measure 30
0001
0000
0000
0000
,  // measure 31
1000
0000
0000
0000
,  // measure 32
0001
0000
0000
0000
,  // measure 33
1000
0000
0000
0000
,  // measure 34
0001
0000
0000
0000
,  // measure 35
0100
0000
0000
0000
,  // measure 36
0100
0000
0000
0000
,  // measure 37
0010
0000
0000
0000
,  // measure 38
0100
0000
0000
0000
,  // measure 39
0010
0000
0000
0000
,  // measure 40
0100
0000
0000
0000
,  // measure 41
0001
0000
0000
0000
,  // measure 42
1000
0000
0000
0000
,  // measure 43
0001
0000
0000
0000
,  // measure 44
1001
0000
0000
0000
,  // measure 45
0001
0000
0000
0000
,  // measure 46
1000
0000
0000
0000
,  // measure 47
0001
0000
0000
0000
,  // measure 48
0100
0000
0000
0000
,  // measure 49
0010
0000
0000
0000
,  // measure 50
1000
0000
0000
0000
,  // measure 51
0100
0000
0000
0000
,  // measure 52
0010
0000
0000
0000
,  // measure 53
0001
0000
0000
0000
,  // measure 54
1001
0000
0001
0000
,  // measure 55
0001
0000
0000
0000
,  // measure 56
1001
0000
1000
0000
,  // measure 57
1001
0000
0000
0000
;
