#TITLE:My Console;
#SUBTITLE:;
#ARTIST:EIFFEL 65;
#TITLETRANSLIT:;
#SUBTITLETRANSLIT:;
#ARTISTTRANSLIT:;
#CREDIT:DMAxel;
#BANNER:My Console.png;
#BACKGROUND:My Console-bg.png;
#LYRICSPATH:My Console.lrc;
#CDTITLE:DMAxel original simfile.png;
#MUSIC:My Console.mp3;
#OFFSET:-7.840;
#SAMPLESTART:22.580;
#SAMPLELENGTH:12.000;
#SELECTABLE:YES;
#BPMS:0.000=130.020;
#STOPS:96.000=1.380
;
#BGCHANGES:;

//---------------dance-single - ----------------
#NOTES:
     dance-single:
     :
     Easy:
     3:
     0.293,0.256,0.095,0.210,0.000: // measure 1
1000
0001
2000
0000
,  // measure 2
3010
0100
0020
0000
,  // measure 3
1030
0001
2000
0000
,  // measure 4
3010
0100
0020
0000
,  // measure 5
1030
0001
1000
0001
,  // measure 6
1000
0010
0100
0010
,  // measure 7
0100
0010
1000
0001
,  // measure 8
2000
0000
0000
3000
,  // measure 9
1001
0010
0100
1000
,  // measure 10
0001
1000
0100
0010
,  // measure 11
0001
1000
0001
0010
,  // measure 12
0100
1000
0001
0001
,  // measure 13
1000
0100
0010
0001
,  // measure 14
1000
0001
0010
0100
,  // measure 15
1000
0001
1000
0100
,  // measure 16
0010
0001
1000
1000
,  // measure 17
0020
1000
1000
1030
,  // measure 18
0001
0010
0100
0110
,  // measure 19
0200
0001
0001
0301
,  // measure 20
1000
0100
0010
0110
,  // measure 21
0020
0001
0001
0031
,  // measure 22
1000
0010
0100
0110
,  // measure 23
0200
1000
1000
1300
,  // measure 24
0001
0100
0010
0110
,  // measure 25
0100
0010
0100
0010
,  // measure 26
1000
0100
1000
0100
,  // measure 27
0010
0001
0010
0001
,  // measure 28
0100
0010
1000
0100
,  // measure 29
1000
0010
0010
0100
,  // measure 30
0001
0100
0100
0001
,  // measure 31
1000
0001
0001
1000
,  // measure 32
0001
1000
1000
0010
,  // measure 33
0100
0020
1000
1000
,  // measure 34
1030
0002
0100
0100
,  // measure 35
0103
1001
0000
0110
,  // measure 36
0000
2002
0000
0000
,  // measure 37
3003
0100
0010
2000
,  // measure 38
0010
3010
0100
0002
,  // measure 39
0100
0103
0010
2000
,  // measure 40
0001
3001
1000
0020
,  // measure 41
0100
0130
0001
0200
,  // measure 42
0010
0310
1000
0002
,  // measure 43
1000
1003
0010
0200
,  // measure 44
0010
0310
1000
0001
,  // measure 45
0001
1001
0000
0000
;

//---------------dance-single - ----------------
#NOTES:
     dance-single:
     :
     Challenge:
     8:
     0.514,0.442,0.389,0.000,0.163: // measure 1
1000
0000
0001
0000
1000
0100
0010
0000
,  // measure 2
0100
0000
1000
0000
0001
0010
0100
0000
,  // measure 3
0010
0000
0001
0000
1000
0100
0010
0000
,  // measure 4
0100
0000
0000
0000
1000
0000
0000
1000
0010
0000
0010
0000
0100
0000
0100
0000
,  // measure 5
0001
0010
0100
0000
1000
0100
0001
0100
,  // measure 6
1000
0100
0010
0000
0001
0010
1000
0010
,  // measure 7
0001
0010
0100
0000
1000
0100
0001
0100
,  // measure 8
0110
0000
0000
0000
0000
0000
0000
1000
0010
0000
0010
0000
0100
0000
0100
0000
,  // measure 9
0001
0010
0001
1000
0100
1000
0001
0000
,  // measure 10
1000
0100
1000
0001
0010
0001
1000
0000
,  // measure 11
0001
0100
0001
1000
0010
1000
0001
0000
,  // measure 12
1000
0000
0010
0000
1000
0001
0000
0001
0100
0000
0100
0000
0010
0000
0010
0000
,  // measure 13
1000
0100
0010
0100
1000
0001
0100
0000
,  // measure 14
0001
0010
0100
0010
0001
1000
0010
0000
,  // measure 15
1000
0010
0100
0010
1000
0001
0010
0000
,  // measure 16
0001
0000
0100
0000
0010
0100
0000
0100
0001
0000
0001
0000
1000
0000
1000
0000
,  // measure 17
1100
0000
0000
0110
0000
0000
0011
0000
0000
0000
1001
0000
0000
0000
0100
0000
,  // measure 18
0100
0000
0000
1001
0000
0000
0100
0000
0001
0000
1000
0000
1001
0000
0000
0000
,  // measure 19
0011
0000
0000
0110
0000
0000
1100
0000
0000
0000
1001
0000
0000
0000
0010
0000
,  // measure 20
0010
0000
0000
1001
0000
0000
0010
0000
1000
0000
0001
0000
1001
0000
0000
0000
,  // measure 21
0101
0000
0000
0110
0000
0000
1010
0000
0000
0000
1001
0000
0000
0000
0010
0000
,  // measure 22
0010
0000
0000
1001
0000
0000
0010
0000
1000
0000
0001
0000
1001
0000
0000
0000
,  // measure 23
1010
0000
0000
0110
0000
0000
0101
0000
0000
0000
1001
0000
0000
0000
0100
0000
,  // measure 24
0100
0000
0000
1001
0000
0000
0100
0000
0001
0000
1000
0000
1001
0000
0000
0000
,  // measure 25
1001
0000
0001
1000
0010
0100
0000
0100
,  // measure 26
0010
1000
0100
0010
0100
1000
0010
0100
,  // measure 27
0001
0000
0001
0010
0100
1000
0010
0100
,  // measure 28
0001
0010
0000
0010
0001
0010
0100
1000
,  // measure 29
0100
1000
0001
0000
0001
0100
0010
0100
,  // measure 30
0000
0100
0010
1000
0100
0010
0001
0010
,  // measure 31
0001
0000
0001
0100
0010
1000
0010
0100
,  // measure 32
0010
0000
0010
1000
0001
1000
0100
0010
,  // measure 33
0001
1001
1010
1010
,  // measure 34
1010
1001
0101
0101
,  // measure 35
0101
0000
0000
0000
1001
0000
0010
0000
0100
0000
1000
0000
0110
0000
0000
0100
,  // measure 36
0000
0001
0100
0010
1000
0100
0001
0100
,  // measure 37
1000
0000
0000
0000
0010
0000
0100
0000
0010
0000
1000
0010
0000
0100
0001
0000
,  // measure 38
0010
0000
0100
0000
1000
0000
0010
0000
0100
0000
0001
0010
0000
0100
1000
0000
,  // measure 39
0010
0000
1000
0000
0100
0000
0010
0000
0001
0000
1000
0010
0000
0100
0001
0000
,  // measure 40
0100
0000
0010
0000
0100
0000
0001
0000
1000
0010
0000
0010
0100
0000
0100
0000
,  // measure 41
0001
0000
0001
0000
1000
0000
0010
0000
0100
0000
0001
0100
0000
0010
1000
0000
,  // measure 42
0001
0000
0010
0000
0001
0000
0010
0000
0001
0000
0100
0010
0000
1000
0001
0000
,  // measure 43
0100
0000
0010
0000
1000
0000
0100
0000
0010
0000
0001
0100
0000
0010
1000
0000
,  // measure 44
0010
0000
0100
0000
0010
0000
1000
0000
0010
0100
0000
0100
0001
0000
0001
0000
,  // measure 45
0100
0100
1001
0000
0000
0000
0000
0000
;

//---------------dance-single - ----------------
#NOTES:
     dance-single:
     :
     Hard:
     6:
     0.398,0.349,0.315,0.053,0.047: // measure 1
0001
0010
0100
0010
,  // measure 2
0001
1000
0100
0010
,  // measure 3
0100
1000
0001
0010
,  // measure 4
0100
0000
1000
0010
1100
0000
1010
0000
,  // measure 5
1000
0010
0001
0010
,  // measure 6
1000
0100
0001
0100
,  // measure 7
1000
0100
0010
0001
,  // measure 8
1001
0000
0000
0000
0000
0000
0000
0001
1000
0000
1000
0000
0001
0000
0001
0000
,  // measure 9
1001
0000
1000
0000
0010
0100
0010
0000
,  // measure 10
1000
0010
1000
0000
0001
0100
0001
0000
,  // measure 11
0100
0010
0100
0000
0001
0010
0001
0000
,  // measure 12
1000
0100
1000
0001
0100
1000
0100
0001
,  // measure 13
1000
0010
1000
0000
0001
0010
0001
0000
,  // measure 14
0100
0010
0100
0000
0001
1000
0001
0000
,  // measure 15
1000
0010
0100
0000
0001
0100
0010
0000
,  // measure 16
1000
0010
0100
0001
0100
1000
0100
0001
,  // measure 17
0100
0000
0000
0010
0000
0000
1000
0000
0000
0000
1001
0000
0000
0000
1000
0000
,  // measure 18
0001
0000
0000
0010
0000
0000
0100
0000
0010
0000
0000
0000
1001
0000
0000
0000
,  // measure 19
0010
0000
0000
0100
0000
0000
0001
0000
0000
0000
1001
0000
0000
0000
0001
0000
,  // measure 20
1000
0000
0000
0100
0000
0000
0010
0000
0100
0000
0000
0000
1001
0000
0000
0000
,  // measure 21
0001
0000
0000
0100
0000
0000
1000
0000
0000
0000
1001
0000
0000
0000
0001
0000
,  // measure 22
1000
0000
0000
0100
0000
0000
0001
0000
1000
0000
0000
0000
1001
0000
0000
0000
,  // measure 23
1000
0000
0000
0100
0000
0000
0001
0000
0000
0000
1001
0000
0000
0000
1000
0000
,  // measure 24
0001
0000
0000
0100
0000
0000
1000
0000
0001
0000
0000
0000
1001
0000
0000
0000
,  // measure 25
1001
0000
0101
0000
1000
0000
0100
0010
,  // measure 26
0100
1000
0000
1000
0001
0000
1001
0000
,  // measure 27
0001
0000
0100
0001
0100
0001
1000
0100
,  // measure 28
1000
0001
0000
0100
0000
0010
0000
0000
,  // measure 29
0000
0000
2000
0000
0001
3001
0000
0100
,  // measure 30
0000
0100
0010
0100
0001
1000
0001
0000
,  // measure 31
0001
0200
0310
0110
,  // measure 32
1000
0000
0020
0000
0130
0000
0010
0100
,  // measure 33
0010
1001
0100
0100
,  // measure 34
0100
1001
0010
0010
,  // measure 35
0010
1001
0100
1010
,  // measure 36
0010
0202
0000
0000
,  // measure 37
0303
0000
1001
0000
0101
0000
1000
0100
,  // measure 38
0001
0000
1001
0000
1100
0000
0001
0100
,  // measure 39
1000
0000
0110
0000
1001
0000
1000
0100
,  // measure 40
0001
0000
0110
0000
1001
0000
0001
0100
,  // measure 41
1000
0100
0001
0100
0010
0000
1000
0100
,  // measure 42
0001
0100
1000
0100
0010
0000
0001
0010
,  // measure 43
1000
0010
0001
0010
0100
0000
1000
0010
,  // measure 44
0001
0010
1000
0010
0100
0000
0001
0001
,  // measure 45
1000
1000
0110
0000
0000
0000
0000
0000
;

//---------------dance-single - ----------------
#NOTES:
     dance-single:
     :
     Beginner:
     1:
     0.084,0.116,0.021,0.000,0.000:
0001
0000
0000
0000
,
0001
0000
0000
0000
,
0001
0000
0000
0000
,
0001
0000
0000
0000
,
1000
0000
0000
0000
,
1000
0000
0000
0000
,
1000
0000
0000
0000
,
1001
0000
0000
0000
,
0001
0000
1000
0000
,
0001
0000
0000
0000
,
1000
0000
0001
0000
,
1000
0000
0000
0000
,
0010
0000
0100
0000
,
0010
0000
0000
0000
,
0100
0000
0010
0000
,
0100
0000
0000
0000
,
1001
0000
0000
0000
,
0001
0000
0000
0000
,
0001
0000
0000
0000
,
1000
0000
0000
0000
,
1000
0000
0000
0000
,
0001
0000
0000
0000
,
1000
0000
0000
0000
,
0001
0000
0000
0000
,
1000
0000
0000
0000
,
0000
0100
0000
0000
,
0000
0010
0000
0000
,
0000
0100
0000
0000
,
0000
0010
0000
0000
,
0000
0100
0000
0000
,
0000
0001
0000
1000
,
0000
0001
0000
0000
,
0000
1000
0000
0001
,
0000
1000
0000
0001
,
0000
1000
0000
1000
,
0000
1000
0000
0000
,
0000
0100
0000
0000
,
0000
0010
0000
0000
,
0000
0001
0000
0000
,
0000
1000
0000
0000
,
0000
0001
0000
0000
,
0000
0010
0000
0000
,
0000
0100
0000
0000
,
0000
1000
0000
0001
,
0000
1000
0000
0000
;

//---------------dance-single - ----------------
#NOTES:
     dance-single:
     :
     Medium:
     5:
     0.330,0.302,0.126,0.053,0.000: // measure 1
1000
1000
1000
1000
,  // measure 2
0001
0001
0001
0001
,  // measure 3
0100
0100
0100
0100
,  // measure 4
0010
0010
1001
1001
,  // measure 5
0100
0010
1000
0100
,  // measure 6
1000
0001
0010
0001
,  // measure 7
0100
0010
0100
0010
,  // measure 8
1000
0000
0000
0000
0001
1000
0001
1000
,  // measure 9
0001
0100
0010
0100
,  // measure 10
0001
0010
0001
0010
,  // measure 11
0001
1000
0100
1000
,  // measure 12
0010
0000
0100
0000
0010
0100
0010
0100
,  // measure 13
0010
1000
0001
0010
,  // measure 14
0001
1000
0100
1000
,  // measure 15
0010
0100
0010
1000
,  // measure 16
0100
0000
0010
0000
0001
1000
0001
1000
,  // measure 17
0002
0100
0100
0103
,  // measure 18
0101
0000
1000
0000
0001
1000
0001
0000
,  // measure 19
2000
0100
0100
3100
,  // measure 20
1100
0000
0001
0000
1000
0001
1000
0000
,  // measure 21
0002
0100
0100
0103
,  // measure 22
0101
0000
1000
0000
0001
1000
0001
0000
,  // measure 23
2000
0010
0010
3010
,  // measure 24
1010
0000
0001
0000
1000
0001
1000
0000
,  // measure 25
1001
0000
0100
0000
0010
0000
1000
0100
,  // measure 26
1000
0000
0010
0000
0100
0000
0001
0010
,  // measure 27
0001
0000
0100
0000
0010
0000
1000
0010
,  // measure 28
1000
0000
0010
0000
0100
0000
0001
0100
,  // measure 29
0010
1000
0001
0000
1000
0000
0001
0010
,  // measure 30
0001
0000
0100
0000
0010
0000
1000
0100
,  // measure 31
1000
0000
0010
0000
0100
0000
0001
1000
,  // measure 32
0001
0000
0100
0000
0010
0000
1000
0001
,  // measure 33
1000
1001
0010
0010
,  // measure 34
0010
1001
0100
0100
,  // measure 35
0100
1001
0000
0101
,  // measure 36
0000
1020
0000
0000
,  // measure 37
0000
0000
1030
0000
0001
0000
0100
0001
,  // measure 38
1000
0000
0001
0000
1000
0000
0010
1000
,  // measure 39
0001
0000
0010
0000
0100
0000
1000
0100
,  // measure 40
0001
0000
0100
0000
0010
0000
1000
0001
,  // measure 41
1000
0001
1000
0000
0010
0000
0100
0001
,  // measure 42
1000
0000
0001
0000
0100
0000
0010
1000
,  // measure 43
0001
0000
0100
0010
0100
0000
0010
0100
,  // measure 44
0010
0000
1000
0001
1000
0000
0010
0100
,  // measure 45
0010
0100
0010
0000
0000
0000
0000
0000
;
