#TITLE:Mickey Mouse Club March [The Mickey Mouse Club];
#SUBTITLE:(HOUSE NATION Re-Edit);
#ARTIST:AYUZE KOZUE;
#TITLETRANSLIT:;
#SUBTITLETRANSLIT:;
#ARTISTTRANSLIT:;
#CREDIT:DMAxel;
#BANNER:Mickey Mouse Club March [The Mickey Mouse Club] (HOUSE NATION Re-Edit).png;
#BACKGROUND:Mickey Mouse Club March [The Mickey Mouse Club] (HOUSE NATION Re-Edit)-bg.png;
#LYRICSPATH:;
#CDTITLE:avex.png;
#MUSIC:Mickey Mouse Club March [The Mickey Mouse Club] (HOUSE NATION Re-Edit).mp3;
#OFFSET:-0.300;
#SAMPLESTART:34.500;
#SAMPLELENGTH:12.000;
#SELECTABLE:YES;
#BPMS:0.000=126.050;
#STOPS:;
#BGCHANGES:;

//---------------dance-single - ----------------
#NOTES:
     dance-single:
     :
     Easy:
     3:
     0.201,0.258,0.041,0.041,0.000:
0000
0000
0000
0000
,
0000
0000
0000
0000
,
0001
0000
0000
0000
,
1000
0000
0000
0000
,
0001
0000
0000
0000
,
0000
0000
0000
0000
,
0001
0000
0001
0000
,
0001
0000
1000
0000
,
1000
0000
0010
0000
,
0010
0000
1000
0000
,
0002
0000
0000
0000
,
0203
0000
0000
0000
,
0302
0000
0000
0000
,
2003
0000
0000
0000
,
3001
0000
0001
0000
,
1000
0000
1000
0000
,
0001
0000
0001
0000
,
1001
0000
0000
0000
,
1000
0100
1000
0000
,
0001
0000
0001
0000
,
0001
0010
0001
0000
,
1000
0000
1000
0000
,
1000
0010
1000
0000
,
0001
0000
0001
0000
,
0001
0100
0001
0000
,
1000
0000
1000
0000
,
1001
1000
0100
1000
,
0100
1000
0100
0000
,
0010
0001
0010
0010
,
0001
1000
0001
0000
,
1000
0010
1000
0010
,
1000
0010
0010
0000
,
0100
0001
0001
0001
,
1000
1000
1000
0000
,
1001
0001
0010
0001
,
1000
0001
1000
0001
,
0010
0001
0010
0001
,
1000
0100
1000
0100
,
1000
0001
1000
0001
,
0100
0010
0100
0010
,
1000
0001
1000
0001
,
0010
0010
0010
0010
,
1001
0000
0001
0000
,
1000
0100
1000
0010
,
1000
0000
0001
0000
,
0001
0010
0001
0000
,
1000
0010
1000
1000
,
0001
0000
0010
0000
,
0001
0100
0001
1000
,
0010
0100
0010
0100
,
0010
0000
0000
0000
;

//---------------dance-single - ----------------
#NOTES:
     dance-single:
     :
     Medium:
     5:
     0.331,0.362,0.124,0.093,0.000:
0000
0000
0000
0000
,
0000
0000
0000
0000
,
1000
0001
1000
0001
,
1000
0100
0010
0001
,
2000
0000
0000
0000
,
3002
0000
0000
0000
,
1003
1000
0001
0001
,
1000
1000
0100
0010
,
0001
0000
0001
0010
,
0001
1000
0100
1000
,
0020
0000
0000
0000
,
0230
0000
0000
0000
,
0320
0000
0000
0000
,
0130
0100
0100
0000
,
0001
0001
1000
1000
,
0001
0010
0100
1000
,
0010
0010
0100
0100
,
0101
0101
1001
0000
,
0001
0000
0010
0000
0001
0000
0100
0001
,
0100
0000
0001
0000
1000
0100
1000
0001
,
0002
0000
0000
1000
1000
1003
0000
0010
,
1000
0000
0000
0010
1000
0000
0000
0000
,
1000
0000
0100
0000
1000
0000
0010
1000
,
0010
0000
1000
0000
0001
0010
0001
1000
,
2000
0000
0000
0001
0001
3001
0000
0100
,
0001
1000
0001
1000
,
0001
0010
0001
0000
0100
0001
0100
0000
,
0001
0010
0001
0000
1000
0000
0001
0000
,
1100
1000
0011
0001
,
1000
0010
0100
0000
,
0001
0100
0001
0000
0010
0001
0010
0000
,
0001
0100
0001
0000
1000
0000
0001
0000
,
1100
1000
0011
0001
,
1000
0010
0110
0000
,
1000
0010
1000
0000
0100
1000
0100
0000
,
1000
0000
0010
0000
0100
0000
0001
1000
,
0001
1000
0100
1000
,
0001
0010
0001
0010
,
0001
1000
0001
0000
1000
0010
1000
0000
,
0001
0000
0100
0000
0010
0000
1000
0001
,
1000
0000
0001
0100
0001
0000
1000
0000
,
1010
0000
0010
0000
0010
0100
0010
0000
,
1000
0010
1000
0000
0001
0010
0001
0000
,
1001
0000
1000
0000
0001
0000
0100
0001
,
0002
0000
0000
1000
1000
1003
0000
0010
,
1000
0000
0000
0010
1000
0000
0000
0000
,
0001
0010
0001
0000
1000
0010
1000
0000
,
1001
0000
0001
0000
1000
0000
0010
1000
,
2000
0000
0000
0001
0001
3001
0000
0100
,
0001
0000
0100
0001
0010
0001
0010
0000
,
1010
0000
0000
0000
;

//---------------dance-single - ----------------
#NOTES:
     dance-single:
     :
     Beginner:
     1:
     0.037,0.052,0.000,0.000,0.000:
0000
0000
0000
0000
,
0000
0000
0000
0000
,
1000
0000
0000
0000
,
0000
0000
0000
0000
,
1000
0000
0000
0000
,
0000
0000
0000
0000
,
0001
0000
0000
0000
,
0000
0000
0000
0000
,
1000
0000
0000
0000
,
0000
0000
0000
0000
,
0001
0000
0000
0000
,
0000
0000
0000
0000
,
0001
0000
0000
0000
,
0000
0000
0000
0000
,
1000
0000
0000
0000
,
0000
0000
0000
0000
,
0010
0000
0000
0000
,
0000
0000
0000
0000
,
0010
0000
0000
0000
,
0000
0000
0000
0000
,
0100
0000
0000
0000
,
0000
0000
0000
0000
,
0010
0000
0000
0000
,
0000
0000
0000
0000
,
1000
0000
0000
0000
,
0000
0000
0000
0000
,
0001
0000
0000
0000
,
0000
0000
0000
0000
,
1000
0000
0000
0000
,
0000
0000
0000
0000
,
1000
0000
0000
0000
,
0000
0000
0000
0000
,
0001
0000
0000
0000
,
0000
0000
0000
0000
,
0001
0000
0000
0000
,
0000
0000
0000
0000
,
1000
0000
0000
0000
,
0000
0000
0000
0000
,
0010
0000
0000
0000
,
0000
0000
0000
0000
,
0010
0000
0000
0000
,
0000
0000
0000
0000
,
0100
0000
0000
0000
,
0000
0000
0000
0000
,
0100
0000
0000
0000
,
0000
0000
0000
0000
,
0010
0000
0000
0000
,
0000
0000
0000
0000
,
0010
0000
0000
0000
,
0000
0000
0000
0000
,
1000
0000
0000
0000
;

//---------------dance-single - ----------------
#NOTES:
     dance-single:
     :
     Hard:
     7:
     0.428,0.413,0.258,0.165,0.072:
0000
0000
0000
0000
,
0000
0000
0000
0000
,
0100
0000
0100
0000
0100
0010
1000
0100
,
0001
0100
0000
0001
0000
1000
0010
0000
,
0220
0000
0000
0330
,
2002
0000
0000
3003
,
0001
0000
0000
0100
0001
0000
0100
0000
0000
0000
0010
0000
1000
0000
0000
0010
,
0100
0000
0000
0010
1000
0000
0010
0000
0000
0000
0100
0000
0001
0000
0000
0000
,
0001
1000
0000
0000
0000
0000
0001
0000
0001
0000
0001
0000
0000
0000
1000
0000
,
0100
0000
1000
0001
1000
0001
1000
0000
,
2020
0000
0000
3030
,
0022
0000
0000
0033
,
2002
0000
0000
3003
,
2020
0000
0000
3030
,
1000
0000
1000
0000
0001
0000
0001
0010
,
0100
1000
0010
0100
0000
0100
0000
0000
,
0001
0001
1000
1000
,
1100
0011
1001
0000
,
1000
0000
0000
0100
1000
0000
0010
0000
0000
0000
0100
0000
0001
0000
0000
0010
,
0001
0000
0000
0010
0001
0000
0100
0000
0000
0000
0010
0000
1000
0000
0010
0000
,
1000
0002
0000
0000
0000
0000
1000
0000
1000
0000
1003
0000
0000
0000
0100
0000
,
1000
0010
0000
1000
0010
0100
0000
0000
,
0001
0000
0000
0010
0001
0000
0100
0000
0000
0000
0010
0000
1000
0000
0000
0100
,
1000
0000
0000
0100
1000
0000
0010
0000
0000
0000
0100
0000
0001
0000
0100
0000
,
0001
2000
0000
0000
0000
0000
0001
0000
0001
0000
3001
0000
0000
0000
0010
0000
,
0001
0100
0000
0100
0001
0010
0100
0000
,
1000
0010
0100
0000
0100
0000
1001
0000
,
0001
0100
0010
0000
0110
0000
1000
0000
,
1100
1100
0011
0011
,
0001
0100
0010
1000
1001
0000
0000
0000
,
0001
0100
0010
0000
0010
0000
1001
0000
,
1000
0010
0100
0000
0110
0000
0001
0000
,
0011
0011
1100
1100
,
1000
0010
0100
0001
1001
0000
0000
0000
,
1000
0100
1000
0000
0001
0100
0010
0000
,
1000
0100
1000
0000
0001
0100
0010
0000
,
1000
0100
0010
0000
0001
1000
0001
0000
,
0010
0100
1000
0000
0010
0100
0010
0000
,
1000
0010
0100
0000
0010
0100
0001
0100
,
0001
0010
0100
0000
1000
0010
0100
0010
,
1000
0100
0010
0000
0010
0000
0010
0000
,
0011
0000
1100
0000
0100
0010
0100
0000
,
0001
0100
0010
0000
1000
0100
0001
0100
,
0010
0100
0000
0100
0000
0100
0001
0100
,
0001
2000
0000
0000
0000
0000
0001
0000
0001
0000
3001
0000
0000
0000
0100
0000
,
0001
0010
0000
0010
0001
0100
0001
0000
,
1000
0010
0100
0000
0001
0100
1000
0010
,
0100
0010
0000
0010
0000
0010
1000
0010
,
1000
0002
0000
0000
0000
0000
1000
0000
1000
0000
1003
0000
0000
0000
0010
0000
,
1000
0100
1000
0100
0001
0010
1000
0001
,
0010
0000
0000
0000
;

//---------------dance-single - ----------------
#NOTES:
     dance-single:
     :
     Challenge:
     8:
     0.508,0.439,0.145,0.114,0.098: // measure 1
0000
0000
0000
0000
,  // measure 2
0000
0000
0000
0000
,  // measure 3
0010
1000
0010
0000
0010
0100
0001
0010
,  // measure 4
1000
0020
0000
0001
0000
0031
1000
0010
,  // measure 5
0100
0000
0100
0000
0100
0010
1000
0100
,  // measure 6
0001
0200
0000
1000
0000
1300
0001
0001
,  // measure 7
0001
0000
0000
0100
0001
0000
1000
0000
0100
0000
1000
0000
0001
0000
0000
0001
,  // measure 8
0100
0000
0000
0100
0001
0000
1000
0000
0100
0000
1000
0000
0001
0000
0001
0000
,  // measure 9
1000
0002
0000
0000
0000
0000
1000
0000
1000
0000
1003
0010
0000
0000
1000
0000
,  // measure 10
0010
0000
1000
0100
0010
0100
1000
1000
,  // measure 11
0002
0010
0010
0013
,  // measure 12
0010
0000
0001
0000
0100
0010
1000
0000
,  // measure 13
2000
0100
0100
3100
,  // measure 14
0100
0000
1000
0000
0010
0100
0001
0000
,  // measure 15
0002
0000
0010
0000
0010
0000
0013
0001
,  // measure 16
0010
0100
1000
0010
0000
0010
1000
0000
,  // measure 17
2000
0100
0100
3100
,  // measure 18
1010
1010
1001
0000
,  // measure 19
1000
0000
0000
0010
1000
0000
0001
0000
0010
0000
0001
0000
1000
0000
0000
1000
,  // measure 20
0010
0000
0000
0010
1000
0000
0001
0000
0010
0000
0001
0000
1000
0000
1000
0000
,  // measure 21
0001
2000
0000
0000
0000
0000
0001
0000
0001
0000
3001
0100
0000
0000
0001
0000
,  // measure 22
0100
0001
0000
0001
0100
0001
1000
0000
,  // measure 23
0001
0000
0000
0100
0001
0000
1000
0000
0100
0000
1000
0000
0001
0000
0000
0001
,  // measure 24
0100
0000
0000
0100
0001
0000
1000
0000
0100
0000
1000
0000
0001
0000
0001
0000
,  // measure 25
1000
0002
0000
0000
0000
0000
1000
0000
1000
0000
1003
0010
0000
0000
1000
0000
,  // measure 26
0010
1000
0000
1000
0010
1000
0001
1000
,  // measure 27
0100
0010
0100
1000
0001
0001
0001
0010
,  // measure 28
0100
0010
0001
1000
1001
0000
0001
0000
,  // measure 29
0010
0100
1100
0000
0010
0100
1100
0000
,  // measure 30
1000
0010
0100
0001
1001
0000
1000
0001
,  // measure 31
0010
0100
0010
0001
1000
1000
1000
0100
,  // measure 32
0010
0100
1000
0001
1001
0000
1000
0000
,  // measure 33
0100
0010
0011
0000
0100
0010
0011
0000
,  // measure 34
0001
0100
0010
1000
1001
0000
1001
0000
,  // measure 35
0001
0010
0100
1000
0001
1000
0100
0000
,  // measure 36
1000
0100
0010
0001
1000
0001
0010
0000
,  // measure 37
0001
0010
1000
0100
0010
0001
1000
0010
,  // measure 38
1000
0100
0001
0010
0100
1000
0001
0000
,  // measure 39
1000
0010
0100
0001
1000
0001
0010
0000
,  // measure 40
0001
0100
0010
1000
0001
1000
0010
0000
,  // measure 41
1000
0100
0001
0010
0100
1000
0010
0100
,  // measure 42
0101
0000
1100
0000
1000
0001
1000
0001
,  // measure 43
1000
0010
0100
0010
1000
0100
0001
0010
,  // measure 44
1000
0010
0100
0001
0000
0001
0010
0100
,  // measure 45
1000
0002
0000
0000
0000
0000
1000
0000
1000
0000
1003
0010
0000
0000
1000
0000
,  // measure 46
0010
1000
0000
1000
0010
1000
0001
0000
,  // measure 47
0001
0100
0010
1000
0001
0010
1000
0100
,  // measure 48
0001
0010
0100
1000
0000
1000
0010
0100
,  // measure 49
0001
2000
0000
0000
0000
0000
0001
0000
0001
0000
3001
0100
0000
0000
0001
0000
,  // measure 50
0100
0001
1000
0100
0001
0010
1000
0100
,  // measure 51
0010
0000
0000
0000
;
