#TITLE:Manhattan Sports Club;
#SUBTITLE:;
#ARTIST:simon;
#TITLETRANSLIT:;
#SUBTITLETRANSLIT:;
#ARTISTTRANSLIT:;
#CREDIT:DMAxel;
#BANNER:Manhattan Sports Club.png;
#BACKGROUND:Manhattan Sports Club-bg.png;
#LYRICSPATH:;
#CDTITLE:Keyboardmania.png;
#MUSIC:Manhattan Sports Club.mp3;
#OFFSET:-0.740;
#SAMPLESTART:43.131;
#SAMPLELENGTH:12.000;
#SELECTABLE:YES;
#BPMS:0.000=178.000;
#STOPS:;
#BGCHANGES:;

//---------------dance-single - ----------------
#NOTES:
     dance-single:
     :
     Easy:
     4:
     0.392,0.435,0.529,0.173,0.000:
0000
0000
0000
0000
,
0000
0000
1001
0000
,
0000
1000
1001
0000
,
0000
0001
1001
0000
,
0110
0000
0101
0010
,
1000
0001
1010
0000
,
0000
0001
1001
0000
,
0000
1000
1001
0000
,
0110
0000
1000
0010
,
0100
0001
2000
0000
,
0000
0000
0000
0000
,
3010
0000
1001
0000
,
0110
0000
1100
0011
,
1100
0011
0200
0000
,
0000
0000
0000
0000
,
0300
0000
0000
0001
,
1000
1001
0010
0100
,
0010
1010
1000
0001
,
0100
0001
0100
0010
,
1000
0001
0000
0010
,
0001
0011
0000
0100
,
1000
1100
0000
0001
,
1000
0010
0100
0010
,
1000
0010
2000
0000
,
0000
3100
0002
0000
,
0000
0013
0200
0000
,
0000
0310
1000
0100
,
0010
0001
0000
1000
,
0010
1001
0000
0001
,
0100
1001
0000
0100
,
0010
0100
0010
1000
,
0100
0010
0002
0000
,
0000
1003
0200
0000
,
0000
1300
0020
0000
,
0000
0130
0002
0000
,
0000
0013
0200
0000
,
0000
0301
0200
0000
,
0000
0310
2000
0000
,
0000
3010
1100
0000
,
1001
0000
0012
0000
,
0013
0001
0010
0100
,
1000
0010
2100
0000
,
3100
1000
0100
0010
,
0001
0010
0102
0000
,
0103
0001
0010
0100
,
1000
0010
2010
0000
,
3010
0100
1001
0000
,
0000
1001
0000
0010
,
0000
0010
0000
0010
,
0000
0000
1001
0010
,
0010
1001
0100
0100
,
0100
1001
0010
0010
,
0010
0100
0001
1000
,
0010
0100
0001
1000
,
0001
1001
0010
0100
,
0001
0101
0010
0001
,
1000
0010
1000
0001
,
0010
0001
1010
0000
,
0010
0101
0100
1100
,
0010
0011
0100
0010
,
1000
1001
0001
1001
,
1000
1001
0010
0100
,
0001
1001
1000
0110
,
0010
0011
0001
0100
,
0010
1001
1000
1100
,
0001
0011
1001
0000
,
0000
0000
0000
0000
,
0010
0000
1100
0000
,
1001
0000
0011
0100
,
0010
1000
0002
0000
,
0000
1003
0010
0100
,
0000
1001
0000
0000
;

//---------------dance-single - ----------------
#NOTES:
     dance-single:
     :
     Hard:
     8:
     0.613,0.580,0.488,0.081,0.000: // measure 1
0000
0000
0000
0000
,  // measure 2
0000
0000
1001
0000
,  // measure 3
0000
0001
1001
0000
,  // measure 4
0000
1000
1001
0000
,  // measure 5
0110
0000
0000
0000
0001
1000
0001
1000
,  // measure 6
0010
0100
0010
0100
1001
0000
0000
0000
,  // measure 7
0000
0001
0101
0000
,  // measure 8
0000
1000
1010
0000
,  // measure 9
1001
0000
0000
0000
0100
0010
0100
0010
,  // measure 10
1000
0001
1000
0001
1000
0000
0100
0000
,  // measure 11
0001
0010
1000
0100
,  // measure 12
1001
0000
1001
0000
,  // measure 13
1100
0000
0011
1010
,  // measure 14
0101
0000
1001
0000
0010
0100
0010
0100
,  // measure 15
0010
0100
0100
0100
,  // measure 16
0100
0000
0000
1001
0000
0010
1000
0010
,  // measure 17
1000
0000
1001
0000
0000
0100
0001
0100
,  // measure 18
0001
0000
1001
0000
0000
0100
0010
0100
,  // measure 19
0001
0010
0001
0010
0100
1000
0100
1000
,  // measure 20
0001
0010
0100
1000
0000
0010
1000
0010
,  // measure 21
1000
0000
1001
0000
0000
0100
0001
0100
,  // measure 22
0001
0000
1001
0000
0000
0010
0100
0010
,  // measure 23
1000
0100
1000
0100
0010
0001
0010
0001
,  // measure 24
1000
0100
0010
0001
0000
0001
0010
0001
,  // measure 25
0010
0000
1001
0000
0000
0100
1000
0100
,  // measure 26
1000
0000
1001
0000
0000
0010
0100
0010
,  // measure 27
1000
0100
0010
0001
1000
0100
0010
0001
,  // measure 28
0100
0010
0100
0001
0000
0100
0001
0100
,  // measure 29
0001
0000
1010
0000
0000
0010
1000
0010
,  // measure 30
1000
0000
0101
0000
0000
0100
0010
1000
,  // measure 31
0010
1000
0010
0100
0001
0100
0001
1000
,  // measure 32
0010
0100
0001
0000
0020
0000
0000
0001
,  // measure 33
0031
0000
0100
0010
1000
0000
0010
0100
,  // measure 34
0001
0000
0100
0010
2000
0000
0000
0001
,  // measure 35
3001
0000
0010
0001
0100
0000
0010
1000
,  // measure 36
0010
0000
1000
0001
2000
0000
0000
0100
,  // measure 37
3100
0000
0010
0001
0100
0000
0010
1000
,  // measure 38
0100
0000
1000
0010
2000
0000
0000
0010
,  // measure 39
3010
0000
1000
0010
0101
0000
0001
0100
,  // measure 40
1010
0000
0100
0010
0200
0000
0000
0001
,  // measure 41
0301
0000
0010
0001
0100
0001
0010
0100
,  // measure 42
1000
0000
0001
0010
0002
0000
0000
1000
,  // measure 43
1003
0000
0100
1000
0010
1000
0100
0010
,  // measure 44
0001
0000
1000
0100
2000
0000
0000
0001
,  // measure 45
3001
0000
0010
0001
0100
0001
0010
0100
,  // measure 46
1000
0000
0010
0100
0020
0000
0000
0100
,  // measure 47
0130
0000
0001
0010
1000
1000
0000
0000
,  // measure 48
0000
0000
0001
0001
0100
0000
0100
0000
,  // measure 49
0100
0100
0010
0100
,  // measure 50
0010
0000
0000
1001
0000
1000
0100
1000
,  // measure 51
0100
0000
0011
0000
0000
0001
0010
0001
,  // measure 52
0010
0000
1100
0000
0000
0010
0100
0001
,  // measure 53
0010
0001
0010
0100
1000
0100
1000
0100
,  // measure 54
0010
0001
1000
0001
0000
0100
0001
0100
,  // measure 55
0001
0000
1010
0000
0000
0010
1000
0010
,  // measure 56
1000
0000
0101
0000
0000
0010
0100
0010
,  // measure 57
1000
0010
1000
0010
0100
0001
0100
0001
,  // measure 58
0100
0010
1000
0010
1001
0000
0010
0000
,  // measure 59
0010
0011
0010
0110
,  // measure 60
0100
0000
1100
0000
0001
0010
1000
0010
,  // measure 61
0100
1010
0010
0110
,  // measure 62
0100
0000
0101
0000
0010
1000
0100
0010
,  // measure 63
0001
0101
0100
0110
,  // measure 64
0010
0000
1010
0000
0001
1000
0010
0100
,  // measure 65
0001
1100
0100
0110
,  // measure 66
0010
0000
0011
0000
0100
0010
0100
0010
,  // measure 67
1000
0100
1000
0100
0010
0001
0010
0001
,  // measure 68
0100
0000
1001
0000
,  // measure 69
0010
0000
1001
1000
,  // measure 70
0001
0000
1000
0000
0001
0010
0100
1000
,  // measure 71
0001
0000
0010
0100
1000
0010
0100
0000
,  // measure 72
1001
1001
0000
0000
;

//---------------dance-single - ----------------
#NOTES:
     dance-single:
     :
     Challenge:
     9:
     0.722,0.689,0.590,0.092,0.265: // measure 1
0000
0000
0000
0000
,  // measure 2
0000
0000
0000
0000
1001
0000
0001
0010
,  // measure 3
1000
0000
0001
0000
1001
0000
1000
0100
,  // measure 4
0001
0000
1000
0000
1001
0000
0001
0010
,  // measure 5
1100
0000
1000
0100
0011
0100
0010
0100
,  // measure 6
0001
0000
1000
0001
0000
0000
0100
0000
1001
0000
0000
0000
0001
0000
0100
0000
,  // measure 7
1000
0000
0010
0000
1010
0000
1000
0100
,  // measure 8
0001
0000
0010
0000
0101
0000
0001
0010
,  // measure 9
1100
0000
1000
0100
0011
0100
0010
0100
,  // measure 10
0010
1000
0001
1000
0001
0100
1000
0100
,  // measure 11
0010
0001
0100
0001
0010
0100
1000
0010
,  // measure 12
0100
0010
0000
0000
0000
0000
0000
0000
1001
0000
0000
0000
0000
0000
0000
0000
,  // measure 13
0110
0000
1001
0011
,  // measure 14
1100
0000
0011
0000
0100
0010
0100
0010
,  // measure 15
0100
0000
0000
0010
1000
0000
0010
0000
1000
0000
0010
0000
0001
0000
0000
0100
,  // measure 16
0010
0000
0000
0000
0000
0000
1001
0000
0000
0000
0010
0001
0000
0000
0010
0000
,  // measure 17
0001
0000
0000
0000
1001
0000
0000
0000
0000
0000
0100
1000
0000
0000
0100
0000
,  // measure 18
1000
0000
0000
0000
1001
0000
0000
0000
0000
0000
0010
0100
0000
0000
0010
0000
,  // measure 19
1000
0100
0010
0001
0010
1000
0010
0100
,  // measure 20
0001
0000
0100
0010
0000
0000
1000
0000
0000
0000
0010
0100
0000
0000
0010
0000
,  // measure 21
0100
0000
0000
0000
1001
0000
0000
0000
0000
0000
0010
1000
0000
0000
0010
0000
,  // measure 22
1000
0000
0000
0000
1001
0000
0000
0000
0000
0000
0100
0001
0000
0000
0100
0000
,  // measure 23
0001
0010
0100
1000
0010
0100
0001
0100
,  // measure 24
1000
0000
0010
0100
0000
0000
0001
0000
0000
0000
0100
0001
0000
0000
0100
0000
,  // measure 25
0010
0000
0010
0000
1001
0000
0000
0000
0000
0000
0010
1000
0000
0000
0010
0000
,  // measure 26
0100
0000
0100
0000
1001
0000
0000
0000
0000
0000
0001
1000
0000
0000
0010
0000
,  // measure 27
0100
0001
0010
0100
1000
0010
0001
0100
,  // measure 28
0010
0000
0100
0010
0000
0000
1000
0000
0000
0000
0010
0100
0000
0000
0010
0000
,  // measure 29
0100
0000
0100
0000
0011
0000
0000
0000
0000
0000
0100
0010
0000
0000
0100
0000
,  // measure 30
0010
0000
0010
0000
1100
0000
0000
0000
0000
0000
0010
0100
0000
0000
0010
0000
,  // measure 31
0100
0001
0010
0100
1000
0010
0001
0010
,  // measure 32
0100
1000
0010
0100
1002
0000
0000
0010
,  // measure 33
0013
0000
0000
0000
0001
0000
0010
0000
0001
0000
0100
0010
0000
0000
0010
0000
,  // measure 34
1000
0000
0010
0100
2001
0000
0000
0100
,  // measure 35
3100
0000
0000
0000
1000
0000
0100
0000
1000
0000
0010
0100
0000
0000
0100
0000
,  // measure 36
0001
0000
0010
0100
1002
0000
0000
0100
,  // measure 37
0103
0000
0000
0000
0001
0000
0100
0000
0001
0000
0100
0010
0000
0000
0010
0000
,  // measure 38
1000
0000
0100
0010
2001
0000
0000
0010
,  // measure 39
3010
0000
1000
0010
1000
1000
0010
0100
,  // measure 40
0001
0001
0100
0010
2100
0000
0000
0100
,  // measure 41
3100
0000
0000
0000
1000
0000
0100
0000
0010
0000
0001
0100
0000
0000
0100
0000
,  // measure 42
0010
0000
1000
0100
0012
0000
0000
0010
,  // measure 43
0013
0000
0000
0000
0001
0000
0010
0000
0100
0000
1000
0010
0000
0000
0010
0000
,  // measure 44
0100
0000
0010
1000
0201
0000
0000
0001
,  // measure 45
0301
0000
0000
0000
1000
0000
0100
0000
0010
0000
0001
0100
0000
0000
0100
0000
,  // measure 46
0010
0000
0100
0001
1020
0000
0000
1000
,  // measure 47
1030
0000
0010
0100
0001
0002
0000
0000
,  // measure 48
0000
0000
1003
1000
0010
0000
0010
0000
,  // measure 49
0010
0000
0000
0000
0010
0000
0000
0000
0010
0000
0100
0000
0010
0000
1000
0010
,  // measure 50
0000
0000
0000
0000
0000
0000
0101
0000
0000
0000
0010
0001
0000
0000
0100
0000
,  // measure 51
0010
0000
0000
0000
1010
0000
0000
0000
0000
0000
0010
1000
0000
0000
0010
0000
,  // measure 52
0100
0000
0000
0000
0101
0000
0000
0000
0000
0000
0100
0010
0000
0000
0100
0000
,  // measure 53
0010
1000
0100
0010
0001
0010
1000
0010
,  // measure 54
0100
0000
0001
0100
0000
0000
1001
0000
0000
0000
0010
0100
0000
0000
0001
0000
,  // measure 55
0010
0000
0010
0000
1001
0000
0000
0000
0000
0000
0100
0010
0000
0000
1000
0000
,  // measure 56
0100
0000
0100
0000
1001
0000
0000
0000
0000
0000
0010
0100
0000
0000
0010
0000
,  // measure 57
0100
0001
0010
0100
1000
0100
0001
0100
,  // measure 58
0010
0000
1000
0100
0000
0000
1000
0000
1001
0000
0000
0000
0010
0000
0000
0000
,  // measure 59
0101
0000
0000
0000
1001
0000
0000
0000
0010
0100
0000
0000
1001
0000
0000
0000
,  // measure 60
0100
0010
0000
0000
1001
0000
0000
0000
0100
0000
1000
0010
0000
0000
0100
0000
,  // measure 61
0001
0100
0000
0000
1001
0000
0000
0000
0010
0100
0000
0000
1001
0000
0000
0000
,  // measure 62
0100
0010
0000
0000
1001
0000
0000
0000
0010
0000
0001
0100
0000
0000
0010
0000
,  // measure 63
1000
0010
0000
0000
1001
0000
0010
0000
0100
0010
0000
0000
1001
0000
0100
0000
,  // measure 64
0010
0100
0000
0000
1001
0000
0000
0000
0100
0000
1000
0100
0000
0000
0010
0000
,  // measure 65
0001
0010
0000
0000
1001
0000
0100
0000
0010
0100
0000
0000
0010
0100
0000
0000
,  // measure 66
0010
0100
0000
0000
0001
0000
0100
0000
0001
0000
0010
0000
1000
0000
0010
0000
,  // measure 67
0100
0001
0010
0001
0100
1000
0010
0100
,  // measure 68
0001
1000
0000
0000
0000
0000
0000
0000
0101
0000
0000
0000
0000
0000
0000
0000
,  // measure 69
1010
0000
0101
1010
,  // measure 70
1100
0000
0011
0000
1000
0100
0010
0001
,  // measure 71
0100
0000
0000
0100
0010
0000
0100
0000
0001
0000
0100
0000
1000
0000
0000
0010
,  // measure 72
0100
1001
0000
0000
;

//---------------dance-single - ----------------
#NOTES:
     dance-single:
     :
     Medium:
     6:
     0.504,0.471,0.468,0.081,0.000:
0000
0000
0000
0000
,
0000
0000
1001
0000
,
0000
1000
1001
0000
,
0000
0001
1001
0000
,
0110
0000
0001
0010
,
0100
1000
1001
0000
,
0000
1000
1010
0000
,
0000
0001
0101
0000
,
1001
0000
1000
0100
,
0010
0001
1000
1000
,
1000
0001
0001
0001
,
1100
0000
1001
0000
,
0011
0000
1000
0001
,
1000
0001
0100
0100
,
0100
1001
1000
0001
,
1000
0000
0000
1001
0000
0001
0100
0001
,
0100
0000
1001
0000
0000
0010
1000
0010
,
0100
0000
0101
0000
0000
0001
1000
0000
,
0010
0100
0010
0100
,
0001
0000
1000
0010
0000
0100
0001
0100
,
0001
0000
1001
0000
0000
0100
1000
0100
,
1000
0000
1001
0000
0000
0010
0001
0010
,
0001
0100
0001
0010
,
0100
0000
1000
0100
0000
0010
0001
0010
,
0001
0000
1001
0000
0000
0100
0010
0100
,
0010
0000
1010
0000
0000
0001
0100
0000
,
0010
1000
0100
1000
,
0001
0000
0010
0001
0000
1000
0100
0010
,
0001
0000
0101
0000
0000
0001
0010
0100
,
1000
0000
1010
0000
0000
0010
0100
0000
,
0001
1000
0001
0010
,
0100
0000
1000
0000
0020
0000
0000
0100
,
0130
0000
0010
0100
0001
0000
0100
0000
,
0010
0000
0100
0010
0200
0000
0000
0010
,
0310
0000
1000
0010
0100
0000
0001
0000
,
0100
0000
0010
0100
0002
0000
0000
1000
,
1003
0000
0010
0100
0001
0000
0100
0000
,
0010
0000
1000
0100
2000
0000
0000
0001
,
3001
0010
1001
0100
,
1001
0000
0010
0000
0200
0000
0000
0010
,
0310
0000
1000
0010
0100
0000
0001
0000
,
0010
0000
0001
1000
0002
0000
0000
1000
,
1003
0000
0100
1000
0010
0000
0100
0000
,
0001
0000
0100
0010
2000
0000
0000
0001
,
3001
0000
0010
0001
0100
0000
0010
0100
,
0001
0000
0100
0010
2000
0000
0000
0001
,
3001
0000
0100
0010
0100
0100
0000
0000
,
0000
0000
0010
0010
1000
0000
1000
0000
,
1000
1000
0001
0010
,
0001
0000
0000
1001
0000
0100
0010
0000
,
0100
0000
1010
0000
0000
0010
0100
0000
,
0010
0000
0101
0000
0000
0010
0100
0000
,
0001
0100
1000
0010
,
0001
0010
0100
1000
0000
0100
1000
0000
,
0010
0000
1001
0000
0000
0010
0001
0000
,
0100
0000
1001
0000
0000
0010
1000
0000
,
0010
0001
0100
1000
,
0010
0100
0001
0000
1001
0000
0010
0000
,
0010
0011
0100
1100
,
0010
0110
1000
0100
,
0010
0001
0101
0100
,
0110
0010
1010
0100
,
0001
0101
0100
0110
,
0010
1010
1000
0001
,
1000
1100
0100
0110
,
0010
0011
0100
0100
,
0010
0010
1000
0010
,
0101
0000
1010
0000
,
1001
0000
1001
0010
,
0100
0000
0010
0000
1000
0100
0010
0001
,
1000
0010
0100
0010
,
1000
1001
0000
0000
;

//---------------dance-single - ----------------
#NOTES:
     dance-single:
     :
     Beginner:
     2:
     0.103,0.217,0.112,0.000,0.000:
0000
0000
0000
0000
,
0000
0000
0000
0000
,
0000
0000
0000
0000
,
0000
0000
0000
0000
,
0000
0000
0000
0000
,
0000
0000
1001
0000
,
0000
0000
1001
0000
,
0000
0000
1001
0000
,
1001
0000
1000
0000
,
0001
0000
1000
0000
,
0000
0000
0000
0000
,
0000
0000
0010
0000
,
0000
0000
0010
0000
,
0000
0000
1000
0000
,
0000
0000
0000
0000
,
0000
0000
1001
0000
,
0000
0001
0000
0000
,
0000
1000
0000
0000
,
0000
0000
0001
0000
,
0000
0000
0000
0000
,
0000
0100
0000
0000
,
0000
0010
0000
0000
,
0000
0000
0000
0000
,
0000
0000
0100
0000
,
0000
0100
0000
0000
,
0000
0010
0000
0000
,
0000
0000
0000
0000
,
0000
0000
0000
0000
,
0000
1001
0000
0000
,
0000
1001
0000
0000
,
0000
0000
0000
0000
,
0000
0000
0010
0000
,
0000
0000
0000
0000
,
0000
0000
0010
0000
,
0000
0000
0000
0000
,
0000
0000
0100
0000
,
0000
0000
0000
0000
,
0000
0000
0100
0000
,
0000
0000
1001
0000
,
0000
0000
1000
0000
,
0000
0000
0000
0000
,
0000
0000
0001
0000
,
0000
0000
0000
0000
,
0000
0000
1000
0000
,
0000
0000
0000
0000
,
0000
0000
0001
0000
,
0000
0000
0100
0000
,
0000
0000
0000
0010
,
0000
0010
0000
0010
,
0000
0000
1001
0000
,
0000
1000
0000
0000
,
0000
0001
0000
0000
,
0000
0000
0000
0000
,
0000
0000
0000
0000
,
0000
0100
0000
0000
,
0000
0010
0000
0000
,
0000
0000
0000
0000
,
0000
0000
1001
0000
,
0000
0001
0000
1000
,
0000
0001
0000
0000
,
0000
1000
0000
0001
,
0000
1000
0000
0000
,
0000
0010
0000
0100
,
0000
0010
0000
0000
,
0000
0100
0000
0010
,
0000
0100
0000
0000
,
0000
0000
0000
0000
,
0001
0000
1000
0000
,
1000
0000
1000
0000
,
0000
0000
0000
0010
,
0000
0010
0000
0010
,
0000
0110
0000
0000
;
