#TITLE:ムーンバイク;
#SUBTITLE:;
#ARTIST:BeForU;
#TITLETRANSLIT:MOON BIKE;
#SUBTITLETRANSLIT:;
#ARTISTTRANSLIT:;
#CREDIT:DMAxel;
#BANNER:MOON BIKE.png;
#BACKGROUND:MOON BIKE-bg.png;
#LYRICSPATH:MOON BIKE.lrc;
#CDTITLE:avex.png;
#MUSIC:MOON BIKE.mp3;
#OFFSET:-0.500;
#SAMPLESTART:67.062;
#SAMPLELENGTH:12.000;
#SELECTABLE:YES;
#BPMS:0.000=173.000;
#STOPS:;
#BGCHANGES:;

//---------------dance-single - ----------------
#NOTES:
     dance-single:
     :
     Easy:
     4:
     0.293,0.352,0.162,0.057,0.000: // measure 1
0000
0000
0000
0000
,  // measure 2
0000
0000
0000
0000
,  // measure 3
0000
0000
0000
0000
,  // measure 4
0000
0000
0000
0000
,  // measure 5
0001
1000
0001
0000
,  // measure 6
0001
0100
0010
0100
,  // measure 7
0001
0000
1000
0000
,  // measure 8
0001
1000
0001
1000
,  // measure 9
0010
0000
0100
0000
,  // measure 10
0010
0000
1000
0000
,  // measure 11
0001
1001
0000
0110
,  // measure 12
0000
1001
0000
0000
,  // measure 13
1000
0001
1000
0000
,  // measure 14
0001
0100
0010
0100
,  // measure 15
0010
0000
0010
0000
,  // measure 16
0000
1000
0000
0000
1001
0000
0000
0001
,  // measure 17
0000
0000
1000
0100
,  // measure 18
1000
0001
1000
0000
,  // measure 19
0001
0010
0001
0000
,  // measure 20
1000
0001
1000
0000
,  // measure 21
0001
0010
0001
1000
,  // measure 22
0001
0000
0001
0000
,  // measure 23
0010
0000
0100
0000
,  // measure 24
1000
0001
1000
0010
,  // measure 25
0100
0000
0100
0000
,  // measure 26
0010
0100
0010
1000
,  // measure 27
0001
0000
0001
0000
,  // measure 28
0010
0001
0100
0010
,  // measure 29
0100
0000
0100
0000
,  // measure 30
0001
1000
0010
0100
,  // measure 31
0010
0000
0010
0000
,  // measure 32
0110
0000
1001
0000
,  // measure 33
0002
0000
1000
0000
,  // measure 34
0000
1003
0100
1000
,  // measure 35
0002
0000
1000
0000
,  // measure 36
0000
0000
0003
1000
,  // measure 37
0100
0000
1000
0000
,  // measure 38
0001
0000
0010
0000
,  // measure 39
0001
1000
0001
1000
,  // measure 40
0001
0000
0010
0000
,  // measure 41
0100
1000
0100
0000
,  // measure 42
1000
0001
1000
0010
,  // measure 43
0100
0000
0100
0000
,  // measure 44
0010
0000
0010
0000
,  // measure 45
1000
1000
0001
0001
,  // measure 46
1000
1000
0001
0010
,  // measure 47
0011
0000
0000
0000
0000
0000
0000
1001
,  // measure 48
0000
0000
0000
0000
,  // measure 49
1000
0100
1000
0100
,  // measure 50
1000
0001
1000
0001
,  // measure 51
0010
0001
0010
0001
,  // measure 52
1000
0001
1000
0001
,  // measure 53
1000
0100
1000
0100
,  // measure 54
1000
0001
1000
0001
,  // measure 55
0010
0011
0000
1001
,  // measure 56
0000
0000
0000
0000
,  // measure 57
0001
0010
0001
0010
,  // measure 58
0001
1000
0001
1000
,  // measure 59
0010
1000
0010
1000
,  // measure 60
0001
1000
0001
1000
,  // measure 61
0010
0100
0010
0000
,  // measure 62
1000
0100
1000
0010
,  // measure 63
0200
0000
0000
0000
0000
0000
0000
0301
,  // measure 64
0000
0000
0000
1001
0000
0000
0000
2000
,  // measure 65
0000
0000
0000
0000
0000
0000
0000
0001
,  // measure 66
0000
0000
0000
0000
0000
0000
0000
3001
,  // measure 67
0000
0000
0000
0000
0000
0000
0000
1000
,  // measure 68
0000
0000
0000
1001
0000
0000
0000
0002
,  // measure 69
0000
0000
0000
0000
0000
0000
0000
1000
,  // measure 70
0000
0000
0000
0000
0000
0000
0000
1003
,  // measure 71
0000
0000
0000
0000
0000
0000
0000
0001
,  // measure 72
0000
0000
0000
1001
0000
0000
0000
1000
,  // measure 73
0000
0001
0100
0001
,  // measure 74
1000
0001
0010
0100
,  // measure 75
1000
0010
1000
0001
,  // measure 76
1000
0100
0010
0001
,  // measure 77
0010
0001
1000
0001
,  // measure 78
0010
0100
1000
0100
,  // measure 79
1000
1001
0000
0110
,  // measure 80
0000
1001
0000
0000
,  // measure 81
0001
0010
0001
0100
,  // measure 82
0010
0100
0001
0010
,  // measure 83
0100
0000
0000
0000
,  // measure 84
0000
1001
0000
0000
1000
0000
0000
0001
,  // measure 85
0000
1001
0000
0000
0001
0000
0000
0001
,  // measure 86
0000
1001
0000
0000
0100
0000
0000
2002
,  // measure 87
0000
0000
0000
0000
,  // measure 88
3003
0000
0000
0000
;

//---------------dance-single - ----------------
#NOTES:
     dance-single:
     :
     Medium:
     7:
     0.460,0.564,0.227,0.089,0.000: // measure 1
0000
0000
0000
0000
,  // measure 2
0000
0000
0000
0000
,  // measure 3
0000
0000
0000
0000
,  // measure 4
0000
0000
0000
0000
,  // measure 5
1000
0000
0010
0100
0000
0100
0000
0001
,  // measure 6
0000
0101
0100
0010
,  // measure 7
1000
0000
0010
0100
0000
0100
0000
0001
,  // measure 8
0000
0101
0100
0010
,  // measure 9
1000
0000
0001
1000
0001
0000
1000
0001
,  // measure 10
1000
0000
0010
0100
0010
0000
0100
0010
,  // measure 11
0100
1001
0000
1100
,  // measure 12
0010
0001
0010
0001
,  // measure 13
1000
0001
1000
0000
0001
0000
0100
0000
,  // measure 14
0001
1000
0001
0000
1000
0000
0010
0000
,  // measure 15
1000
0001
1000
0000
0001
0000
0010
0000
,  // measure 16
0000
0001
0001
0000
1000
1000
0000
1001
,  // measure 17
0000
0000
0100
0000
0010
0000
0001
1000
,  // measure 18
0001
0000
0100
0010
0100
0000
0001
0000
,  // measure 19
1000
0010
1000
0000
0010
0100
0010
0000
,  // measure 20
1000
0000
0010
0000
0100
0000
0001
1000
,  // measure 21
0001
0100
0001
0000
0100
0010
0100
0000
,  // measure 22
0001
0000
0100
0000
0010
0000
1000
0001
,  // measure 23
1000
0100
1000
0000
0010
0100
0010
0000
,  // measure 24
1000
0000
0100
0000
0010
0000
0001
1000
,  // measure 25
0001
0010
0001
0000
0100
0010
0100
0000
,  // measure 26
0001
0000
0010
0000
0100
0000
1000
0001
,  // measure 27
1000
0100
1000
0000
0010
0100
0010
0000
,  // measure 28
1000
0000
0100
0000
0010
0000
0001
1000
,  // measure 29
0001
0010
0001
0000
0100
0010
0100
0000
,  // measure 30
0001
0010
0100
1000
,  // measure 31
1010
1000
0001
0100
,  // measure 32
0101
0000
1001
1001
,  // measure 33
0200
0000
0000
0001
0002
0000
0000
0000
,  // measure 34
0303
0010
0100
1000
,  // measure 35
0020
0000
0000
1000
2000
0000
0000
0000
,  // measure 36
0000
3030
0000
0100
,  // measure 37
1001
0100
0010
0001
,  // measure 38
1000
0000
0100
0000
1000
0000
0001
0010
,  // measure 39
1000
0000
0010
0100
0010
0000
1000
0001
,  // measure 40
1000
1000
0001
0001
,  // measure 41
1001
0010
0100
1000
,  // measure 42
0001
0000
0010
0000
0001
0000
1000
0100
,  // measure 43
0001
0000
0100
0010
0100
0000
0001
1000
,  // measure 44
0001
1000
0001
0100
,  // measure 45
1001
1000
0001
0001
,  // measure 46
1000
0000
1000
0000
0001
0100
0001
0000
,  // measure 47
1000
1000
0000
0001
0000
0100
0000
0110
,  // measure 48
0000
0000
0000
0000
,  // measure 49
0001
0000
0100
0010
0100
0000
0001
0000
,  // measure 50
0010
1000
0010
0001
,  // measure 51
1000
0000
0010
0100
0010
0000
1000
0000
,  // measure 52
0100
0001
0100
1000
,  // measure 53
0001
0000
0010
0100
0010
0000
0001
0000
,  // measure 54
0010
1000
0010
0001
,  // measure 55
0100
1001
0100
1001
,  // measure 56
1000
1000
0001
0001
,  // measure 57
1000
0000
0100
0010
0100
0000
1000
0000
,  // measure 58
0100
0001
0100
1000
,  // measure 59
0001
0000
0010
0100
0010
0000
0001
0000
,  // measure 60
0010
1000
0010
0001
,  // measure 61
2000
0000
0000
0001
3001
0000
1000
0000
,  // measure 62
0010
0000
0100
0000
0001
0000
1000
0001
,  // measure 63
2000
0000
0000
0000
0000
0000
0000
3001
,  // measure 64
0000
0001
0000
1000
0000
1000
0000
1002
,  // measure 65
0000
0000
0000
0000
0103
0000
0100
0010
,  // measure 66
0000
0000
1000
0000
0010
0000
0010
0100
,  // measure 67
0000
0000
0001
0000
0010
0000
0100
1000
,  // measure 68
0000
1000
0000
0001
0000
0001
0000
2001
,  // measure 69
0000
0000
0000
0000
3010
0000
0010
0100
,  // measure 70
0000
0000
0001
0000
0100
0000
0100
0010
,  // measure 71
0000
0000
1000
0000
0100
0000
0010
0001
,  // measure 72
0000
0001
0000
1000
0000
1000
0000
1001
,  // measure 73
0000
0000
1000
0010
0000
0010
0000
1000
,  // measure 74
0000
1000
0100
0010
,  // measure 75
0001
0000
0100
0001
0000
0001
0000
1000
,  // measure 76
0000
0001
0010
0100
,  // measure 77
1000
0001
1000
0000
0010
0100
0010
0000
,  // measure 78
0100
0010
0100
0000
0001
1000
0001
0000
,  // measure 79
0100
1001
0100
1100
,  // measure 80
1100
0011
0011
1001
,  // measure 81
1001
0000
0100
1000
0000
1000
0000
0001
,  // measure 82
0100
0001
1000
0001
0000
1000
0010
2000
,  // measure 83
0000
0000
0000
3000
,  // measure 84
0000
0001
0001
0000
1000
0001
0000
1001
,  // measure 85
0000
0001
0001
0000
0001
1000
0000
1001
,  // measure 86
0000
1000
1000
0000
0001
1000
0000
2002
,  // measure 87
0000
0000
0000
0000
,  // measure 88
3003
0000
0000
0000
;

//---------------dance-single - ----------------
#NOTES:
     dance-single:
     :
     Hard:
     8:
     0.614,0.634,0.600,0.065,0.000: // measure 1
0000
0000
0000
0000
,  // measure 2
0000
0000
0000
0000
,  // measure 3
0000
0000
0000
0000
,  // measure 4
0000
0000
0000
0000
,  // measure 5
0001
0100
0001
1000
0000
0100
0000
0001
,  // measure 6
1000
0010
1000
0000
0010
0100
0010
0000
,  // measure 7
1000
0010
1000
0001
0000
0010
0000
1000
,  // measure 8
0001
0100
0001
0000
0100
0010
0100
0000
,  // measure 9
1001
0000
1000
0100
1000
0000
0010
0100
,  // measure 10
0010
0000
0100
0001
0100
0000
0001
0010
,  // measure 11
0001
1100
0001
1100
,  // measure 12
1000
0001
0000
0100
0000
0100
0000
0001
,  // measure 13
1000
0100
1000
0000
0010
0100
0010
0000
,  // measure 14
1000
0010
0100
0001
0000
0010
0100
1000
,  // measure 15
0001
0010
0001
0000
0100
0010
0100
0000
,  // measure 16
0000
0001
0100
0000
0001
0100
0000
1001
,  // measure 17
0000
0000
0010
0000
0100
0000
1000
0010
,  // measure 18
1000
0000
0010
0100
0010
1000
0001
0000
,  // measure 19
1000
0000
0100
0000
0010
0000
0001
0100
,  // measure 20
0001
0000
0100
0010
0100
0001
1000
0000
,  // measure 21
0010
0100
0001
0000
0010
0001
0010
0000
,  // measure 22
0001
1000
0010
0100
0010
0000
1000
0000
,  // measure 23
1001
0000
0001
0010
0001
0000
0100
0010
,  // measure 24
0100
0000
0010
0100
0001
0000
1000
0001
,  // measure 25
1000
0100
1000
0100
1000
0001
0100
0001
,  // measure 26
1000
1001
0001
1001
,  // measure 27
0001
0010
0001
0010
0001
1000
0010
1000
,  // measure 28
0001
1001
1000
1001
,  // measure 29
1000
0010
1000
0010
1000
0001
0010
0001
,  // measure 30
1000
1001
0001
1001
,  // measure 31
0011
0000
0010
0100
1000
0000
1000
0000
,  // measure 32
1100
1100
0101
1001
,  // measure 33
0010
0100
0010
1000
0100
0000
0001
0000
,  // measure 34
0010
1010
1000
0001
,  // measure 35
0100
0010
0100
0001
0010
0000
1000
0000
,  // measure 36
0100
0001
0010
1000
,  // measure 37
1001
0000
0010
0100
0010
0000
1000
0010
,  // measure 38
1000
0000
0010
0100
0001
0000
1000
0100
,  // measure 39
0001
0100
1000
0001
1000
0010
0100
0010
,  // measure 40
0100
0101
0101
1100
,  // measure 41
1001
0000
0100
0010
0100
0000
0001
0100
,  // measure 42
0001
0000
0100
0010
1000
0000
0001
0010
,  // measure 43
1000
0010
0001
1000
0001
1000
0001
0000
,  // measure 44
0011
1000
1100
1001
,  // measure 45
0010
0100
1000
0000
0010
0100
0010
0000
,  // measure 46
1000
0100
0010
0001
1000
0010
1000
0000
,  // measure 47
0010
0100
0000
0101
0000
0101
0000
2002
,  // measure 48
0000
0000
0000
3003
,  // measure 49
0100
0010
0001
0010
0100
0000
1010
0000
,  // measure 50
0010
1001
0010
1001
,  // measure 51
0010
0100
1000
0100
0010
0000
0101
0000
,  // measure 52
0100
1001
0100
1001
,  // measure 53
0100
0010
0001
0010
0100
0010
0100
1000
,  // measure 54
0001
0000
0011
0000
1001
0000
1000
0100
,  // measure 55
0010
0000
0011
0000
1000
0100
0010
0000
,  // measure 56
0011
0011
1100
1100
,  // measure 57
1001
0000
0010
0100
1000
0100
0010
0000
,  // measure 58
0011
0010
1001
0010
,  // measure 59
1001
0000
0100
0010
0001
0010
0100
0000
,  // measure 60
1100
0100
1001
0100
,  // measure 61
1001
0000
0001
0010
0100
0000
1000
0000
,  // measure 62
0010
0100
0010
0100
0010
1000
0001
0010
,  // measure 63
0100
0000
1100
0000
1100
0000
1000
0001
,  // measure 64
0000
0011
0000
0011
0000
0110
0000
1001
,  // measure 65
0000
0000
0010
0001
0010
0100
0010
0002
,  // measure 66
0000
0000
0103
1000
0100
0010
0100
2000
,  // measure 67
0000
0000
3010
0001
0010
0100
0010
0001
,  // measure 68
0000
0011
0000
0011
0000
0110
0000
1001
,  // measure 69
0000
0000
0100
1000
0100
0010
0100
2000
,  // measure 70
0000
0000
3010
0001
0010
0100
0010
0002
,  // measure 71
0000
0000
0103
1000
0100
0010
0100
1000
,  // measure 72
0000
1100
0000
1100
0000
0110
0000
1001
,  // measure 73
0000
0000
0010
1000
0000
0100
0000
0001
,  // measure 74
0000
0100
0010
0100
0001
0100
0010
0000
,  // measure 75
1000
0010
0100
0001
0000
0010
0000
1000
,  // measure 76
0000
0010
0100
0010
1000
0010
0100
0000
,  // measure 77
0001
0100
0010
0000
1000
0100
0010
0000
,  // measure 78
0001
0010
0100
0000
1000
0010
0100
0000
,  // measure 79
0101
1001
1010
1001
,  // measure 80
0011
0011
1100
1100
,  // measure 81
1001
0000
0010
0001
0000
0100
0000
1000
,  // measure 82
0010
0100
0001
1000
0000
0100
0010
0001
,  // measure 83
1000
0010
1000
0000
0010
0100
0001
0100
,  // measure 84
0000
0010
1000
0000
1000
0010
0000
1001
,  // measure 85
0000
0010
0001
0000
0001
0010
0000
1001
,  // measure 86
0000
0100
1000
0000
1000
0100
0000
2002
,  // measure 87
0000
0000
0000
0000
,  // measure 88
3003
0000
0000
0000
;

//---------------dance-single - ----------------
#NOTES:
     dance-single:
     :
     Challenge:
     8:
     0.699,0.599,0.705,0.049,0.000: // measure 1
0000
0000
0000
0000
,  // measure 2
0000
0000
0000
0000
,  // measure 3
0000
0000
0000
0000
,  // measure 4
0000
0000
0000
0000
,  // measure 5
1000
0010
1000
1100
0000
1100
0000
1001
,  // measure 6
0000
0001
0010
0001
1000
0100
0010
0000
,  // measure 7
0001
0100
0001
0011
0000
0011
0000
1001
,  // measure 8
0000
1000
0100
1000
0001
0010
0100
0000
,  // measure 9
1001
0000
0100
0010
0001
1000
0001
0000
,  // measure 10
0010
0100
1000
0001
1000
0100
0010
0000
,  // measure 11
0011
1001
0011
1001
,  // measure 12
0011
0110
1100
1001
,  // measure 13
0010
0100
1000
0001
1000
0001
1000
0000
,  // measure 14
0100
0010
0001
1000
0000
1000
0010
0100
,  // measure 15
0001
1000
0001
0000
0010
0100
1000
0001
,  // measure 16
0000
0010
0011
0000
0100
1100
0000
1001
,  // measure 17
0000
0000
0100
0010
0001
0100
0001
0100
,  // measure 18
0001
1000
0100
0010
0100
1000
0001
0010
,  // measure 19
0001
0000
0010
0100
1000
0010
1000
0010
,  // measure 20
1000
0001
0010
0100
0010
0001
1000
0100
,  // measure 21
1000
0000
0100
0010
0001
1000
0001
1000
,  // measure 22
0100
0010
0100
1000
0001
0100
0001
0000
,  // measure 23
0010
0100
1000
0001
1000
0000
0100
0010
,  // measure 24
0001
1000
0001
0000
0011
0000
1001
0000
,  // measure 25
0100
0010
0001
0010
1000
0010
0001
0010
,  // measure 26
0100
1000
0010
0100
0001
1000
0001
0000
,  // measure 27
0010
0100
1000
0100
0001
0100
1000
0100
,  // measure 28
0010
0001
0100
0010
1000
0001
1000
0000
,  // measure 29
0100
0010
0001
0010
1000
0010
0001
0010
,  // measure 30
0100
1000
0010
0100
0001
1000
0001
0000
,  // measure 31
1001
0000
1000
0100
0001
0000
0100
0000
,  // measure 32
0110
0110
1001
1001
,  // measure 33
0010
0100
1000
0100
0020
0000
0001
0000
,  // measure 34
0031
0000
0001
0010
0001
0100
1000
0000
,  // measure 35
0100
0010
0001
0010
0200
0000
1000
0000
,  // measure 36
1300
0010
1000
0000
0010
0100
0001
0000
,  // measure 37
1001
0000
0010
0100
0010
1000
0001
0000
,  // measure 38
0011
0000
0100
0000
1000
0000
0001
1000
,  // measure 39
0100
0001
1000
0001
1000
0100
0010
0100
,  // measure 40
1000
1100
0110
0011
,  // measure 41
1001
0000
1000
0001
0010
0001
0010
0001
,  // measure 42
1000
0010
1000
0001
0010
0100
1000
0000
,  // measure 43
1001
0001
1100
0001
,  // measure 44
1100
1000
0011
1001
,  // measure 45
1000
0010
0011
0000
1000
0010
0011
0000
,  // measure 46
1000
0010
0100
0001
0100
1000
0001
1000
,  // measure 47
0010
0110
0000
1010
0000
0011
0000
2002
,  // measure 48
0000
0000
0000
3003
,  // measure 49
0010
0100
1000
0100
0001
0100
1000
0010
,  // measure 50
0100
0001
0010
0100
1000
0001
1000
0000
,  // measure 51
0100
0010
0001
0010
1000
0010
0001
0100
,  // measure 52
0010
1000
0100
0010
0001
1000
0001
0000
,  // measure 53
0010
0100
1000
0100
1000
0001
0010
0001
,  // measure 54
1000
0100
0001
0100
1000
0000
0001
0100
,  // measure 55
0010
0000
1010
0000
1000
0010
0100
0000
,  // measure 56
0101
0101
0110
1010
,  // measure 57
1001
0000
0100
0010
0001
0010
1000
0010
,  // measure 58
0001
0010
0100
1000
0010
0100
0001
1000
,  // measure 59
0001
0000
0010
0100
1000
0100
0001
0100
,  // measure 60
1000
0100
0010
0001
0100
0010
1000
0000
,  // measure 61
1001
0000
1000
0100
0001
0000
0100
0010
,  // measure 62
0100
0001
0010
0100
0010
0001
1000
0100
,  // measure 63
0001
1000
0001
1000
0001
1000
0001
0011
,  // measure 64
0000
0110
0000
1100
0000
0110
0000
1001
,  // measure 65
0000
1000
0001
0010
0100
1000
0001
0101
,  // measure 66
0000
0001
1000
0100
0010
0001
1000
1010
,  // measure 67
0000
0001
1000
0100
0010
0001
1000
1100
,  // measure 68
0000
0110
0000
0011
0000
0110
0000
1001
,  // measure 69
0000
1000
0001
0100
0010
1000
0001
0011
,  // measure 70
0000
0001
1000
0010
0100
0001
1000
1100
,  // measure 71
0000
1000
0001
0100
0010
1000
0001
0101
,  // measure 72
0000
0110
0000
1010
0000
0110
0000
1001
,  // measure 73
0000
0000
0010
0100
0010
1000
0100
0001
,  // measure 74
0000
0010
0100
1000
0010
0100
0010
1000
,  // measure 75
0001
0010
1000
0010
0000
0011
0000
1001
,  // measure 76
0000
0100
0010
0001
0100
0010
0100
0001
,  // measure 77
1000
0000
1000
0010
0100
0000
0001
0010
,  // measure 78
0100
0000
1000
0100
0010
0000
0001
0100
,  // measure 79
0010
1001
1100
1001
,  // measure 80
1100
0110
0011
0110
,  // measure 81
1001
1000
0010
0100
0010
1000
0000
0100
,  // measure 82
0010
0001
1000
0001
0010
0100
1000
0010
,  // measure 83
0100
0010
1000
0001
0000
0010
0100
1000
,  // measure 84
0001
1000
1100
0000
0001
0011
0000
1001
,  // measure 85
0000
0010
1010
0000
0100
0101
0000
1001
,  // measure 86
0000
0100
0101
0000
0010
1010
0000
2002
,  // measure 87
0000
0000
0000
0000
,  // measure 88
3003
0000
0000
0000
;

//---------------dance-single - ----------------
#NOTES:
     dance-single:
     :
     Beginner:
     2:
     0.072,0.139,0.016,0.000,0.000: // measure 1
0000
0000
0000
0000
,  // measure 2
0000
0000
0000
0000
,  // measure 3
0000
0000
0000
0000
,  // measure 4
0000
0000
0000
0000
,  // measure 5
1000
0000
0000
0000
,  // measure 6
1000
0000
0000
0000
,  // measure 7
0001
0000
0000
0000
,  // measure 8
0001
0000
0000
0000
,  // measure 9
1000
0000
0000
0000
,  // measure 10
1000
0000
0000
0000
,  // measure 11
0000
1001
0000
0001
,  // measure 12
0000
0000
0000
0000
,  // measure 13
0001
0000
0000
0000
,  // measure 14
1000
0000
0000
0000
,  // measure 15
0001
0000
0000
0000
,  // measure 16
0000
0000
0000
0000
,  // measure 17
1000
0000
0000
0000
,  // measure 18
0000
0000
0000
0000
,  // measure 19
0010
0000
0000
0000
,  // measure 20
0000
0000
0000
0000
,  // measure 21
0100
0000
0000
0000
,  // measure 22
0000
0000
0000
0000
,  // measure 23
0001
0000
0000
0000
,  // measure 24
0001
0000
0000
0000
,  // measure 25
0001
0000
0000
0000
,  // measure 26
0000
0000
0000
0000
,  // measure 27
0100
0000
0000
0000
,  // measure 28
0000
0000
0000
0000
,  // measure 29
0010
0000
0000
0000
,  // measure 30
0000
0000
0000
0000
,  // measure 31
1000
0000
0000
0000
,  // measure 32
1000
0000
0000
0000
,  // measure 33
1000
0000
0000
0000
,  // measure 34
0000
0000
0000
0000
,  // measure 35
0100
0000
0000
0000
,  // measure 36
0000
0000
0000
0000
,  // measure 37
0010
0000
0000
0000
,  // measure 38
0000
0000
0000
0000
,  // measure 39
0001
0000
0000
0000
,  // measure 40
0001
0000
0000
0000
,  // measure 41
0001
0000
0000
0000
,  // measure 42
0000
0000
0000
0000
,  // measure 43
0010
0000
0000
0000
,  // measure 44
0000
0000
0000
0000
,  // measure 45
0100
0000
0000
0000
,  // measure 46
1000
0000
0000
0000
,  // measure 47
0100
0000
0000
0000
,  // measure 48
0000
0000
0000
0000
,  // measure 49
1000
0000
0000
0000
,  // measure 50
0000
0000
0000
0000
,  // measure 51
0001
0000
0000
0000
,  // measure 52
0000
0000
0000
0000
,  // measure 53
1000
0000
0000
0000
,  // measure 54
0001
0000
0000
0000
,  // measure 55
1000
0000
0000
0000
,  // measure 56
0000
0000
0000
0000
,  // measure 57
0010
0000
0000
0000
,  // measure 58
0000
0000
0000
0000
,  // measure 59
0100
0000
0000
0000
,  // measure 60
0000
0000
0000
0000
,  // measure 61
0010
0000
0000
0000
,  // measure 62
0010
0000
0000
0000
,  // measure 63
0000
0000
0000
0000
0000
0000
0000
1000
,  // measure 64
0000
0000
0000
0000
0000
0000
0000
0001
,  // measure 65
0000
0000
0000
0000
,  // measure 66
0000
0000
0000
0000
,  // measure 67
0000
0000
0000
0000
0000
0000
0000
0001
,  // measure 68
0000
0000
0000
0000
0000
0000
0000
1000
,  // measure 69
0000
0000
0000
0000
,  // measure 70
0000
0000
0000
0000
,  // measure 71
0000
0000
0000
0000
0000
0000
0000
1000
,  // measure 72
0000
0000
0000
0000
0000
0000
0000
0001
,  // measure 73
0000
0000
0000
0000
,  // measure 74
1000
0000
0000
0000
,  // measure 75
0001
0000
0000
0000
,  // measure 76
1000
0000
0000
0000
,  // measure 77
0010
0000
0000
0000
,  // measure 78
0010
0000
0000
0000
,  // measure 79
0000
1001
0000
1000
,  // measure 80
0000
0000
0000
0000
,  // measure 81
0001
0000
0000
0000
,  // measure 82
0001
0000
0000
0000
,  // measure 83
1000
0000
0000
0000
,  // measure 84
0000
1000
0000
0000
0000
0000
0000
0001
,  // measure 85
0000
0000
0000
0000
0000
0000
0000
0010
,  // measure 86
0000
0000
0000
0000
0000
0000
0000
0100
;
