#TITLE:この子の七つのお祝いに;
#SUBTITLE:;
#ARTIST:あさき;
#TITLETRANSLIT:Konoko no nanatsu no oiwaini;
#SUBTITLETRANSLIT:;
#ARTISTTRANSLIT:Asaki;
#CREDIT:DMAxel;
#BANNER:Konoko no nanatsu no oiwaini.png;
#BACKGROUND:Konoko no nanatsu no oiwaini-bg.png;
#LYRICSPATH:;
#CDTITLE:Guitar Freaks & Drummania.png;
#MUSIC:Konoko no nanatsu no oiwaini.mp3;
#OFFSET:0.060;
#SAMPLESTART:69.614;
#SAMPLELENGTH:12.000;
#SELECTABLE:YES;
#DISPLAYBPM:*;
#BPMS:0.000=80.500,5.000=161.000,88.000=80.500,94.000=161.000,139.750=135.240,140.500=161.000,151.000=322.001,199.000=161.000,270.000=80.500;
#STOPS:;
#BGCHANGES:0.000=Konoko no nanatsu no oiwaini.avi=1.000=1=1=0,
99999=-nosongbg-=1.000=0=0=0 // don't automatically add -songbackground-
;

//---------------dance-single - ----------------
#NOTES:
     dance-single:
     :
     Easy:
     4:
     0.327,0.358,0.304,0.209,0.000: // measure 1
0000
0000
0000
0000
,  // measure 2
0000
0000
0000
0000
,  // measure 3
2002
0000
0000
3003
,  // measure 4
0010
0010
0010
0010
,  // measure 5
2002
0000
0000
3003
,  // measure 6
0100
0100
0100
0100
,  // measure 7
1001
0100
0010
0001
,  // measure 8
0010
0100
1000
0100
,  // measure 9
0010
0001
0010
0001
,  // measure 10
2000
0000
0000
0000
,  // measure 11
3010
0000
0010
0000
,  // measure 12
0010
0000
0010
1001
,  // measure 13
0100
0000
0101
0000
,  // measure 14
0010
0000
0000
0000
0000
1001
0000
0000
,  // measure 15
0100
0100
1000
0010
,  // measure 16
0100
0100
0001
0010
,  // measure 17
0001
0001
1000
0010
,  // measure 18
1100
0000
0011
0000
,  // measure 19
1001
0001
0100
0010
,  // measure 20
0100
0100
0010
1000
,  // measure 21
0100
0100
1000
1000
,  // measure 22
0001
0001
0010
0010
,  // measure 23
1001
0000
0010
0000
,  // measure 24
0100
0000
2002
0000
,  // measure 25
0000
3003
0011
0100
,  // measure 26
0010
0100
1010
0010
,  // measure 27
0100
0010
0101
0010
,  // measure 28
0100
0000
0010
0000
0100
0000
0000
1001
,  // measure 29
0000
0000
0001
0010
,  // measure 30
1001
0100
1000
1001
,  // measure 31
0001
0010
0002
0000
,  // measure 32
0203
0000
0320
0000
,  // measure 33
0130
0100
0010
1001
,  // measure 34
0100
1000
0100
1001
,  // measure 35
0100
0001
0100
0001
,  // measure 36
1001
0010
0100
0001
,  // measure 37
1100
0101
1001
0000
,  // measure 38
0020
0000
0130
0001
,  // measure 39
0000
0010
0000
0100
,  // measure 40
0000
1000
0000
0100
,  // measure 41
0000
1000
0000
0001
,  // measure 42
0000
0010
0000
0001
,  // measure 43
0000
1000
0000
0001
,  // measure 44
0000
1000
0000
0010
,  // measure 45
0000
0100
0000
0010
,  // measure 46
0000
1000
0000
0010
,  // measure 47
0000
1000
0000
0001
,  // measure 48
0000
0100
0000
0001
,  // measure 49
0000
2002
0000
0000
,  // measure 50
0000
0000
0000
3003
,  // measure 51
0001
0100
0010
0100
,  // measure 52
0101
0010
1000
0010
,  // measure 53
1000
1010
0100
0001
,  // measure 54
1000
0000
0000
1001
0000
0000
0000
0000
,  // measure 55
0010
0000
0000
0101
0000
0000
0100
0000
,  // measure 56
0100
0000
0000
1010
0000
0000
0000
0000
,  // measure 57
0001
0010
0100
1000
,  // measure 58
2002
0000
3003
0000
,  // measure 59
0110
1000
0100
0010
,  // measure 60
0001
0100
0010
1000
,  // measure 61
0100
0001
0100
1000
,  // measure 62
0020
0000
0100
0000
,  // measure 63
0230
0000
0001
0000
,  // measure 64
0302
0000
1000
0000
,  // measure 65
2003
0000
0010
0000
,  // measure 66
3020
0000
0100
0000
,  // measure 67
0130
0001
0010
0100
,  // measure 68
1000
0001
2002
0000
,  // measure 69
0000
0000
3003
0000
;

//---------------dance-single - ----------------
#NOTES:
     dance-single:
     :
     Hard:
     9:
     0.612,0.609,0.181,0.057,0.176: // measure 1
0000
0000
0000
0000
,  // measure 2
0000
0000
0000
0000
,  // measure 3
0010
0000
0000
0010
0000
0000
0010
0000
0000
0000
0100
0000
0010
0000
0100
0000
,  // measure 4
0001
0010
0100
1000
0100
0010
0001
0000
,  // measure 5
0100
0000
0000
0100
0000
0000
0100
0000
0000
0000
0010
0000
0100
0000
0010
0000
,  // measure 6
1000
0100
0010
0001
0010
0100
1000
0000
,  // measure 7
0001
0000
0010
0001
0010
0001
0100
0001
,  // measure 8
0010
0000
0100
0000
1000
0010
0100
0000
,  // measure 9
1001
0000
0001
0100
0010
0000
0100
0000
,  // measure 10
0010
0000
0000
0010
0000
0000
0010
0000
0000
0000
0100
0000
0010
0000
0100
0000
,  // measure 11
1001
0000
0010
1000
0000
1000
0100
0010
,  // measure 12
0001
0000
0000
0000
0001
0000
0100
0000
0000
0000
0100
0000
0010
0000
0000
0101
,  // measure 13
0000
0000
0000
0000
0100
0010
0000
0000
1000
0000
0010
0000
0100
0000
0001
0000
,  // measure 14
0010
0000
0100
0000
1000
0000
0000
0010
0000
0000
1001
0000
0000
0000
0000
0000
,  // measure 15
0001
0100
0010
0000
0010
0100
0001
0000
,  // measure 16
1000
0100
0010
0001
0100
0010
1000
0000
,  // measure 17
1000
0010
0100
0000
0100
0010
1000
0000
,  // measure 18
0001
0100
0000
0010
0000
0100
0000
0010
1000
0000
0100
0000
0010
0000
0001
0000
,  // measure 19
1000
0010
0100
0000
0100
0010
1000
0001
,  // measure 20
1000
0100
0010
0001
0010
0001
0100
0000
,  // measure 21
0001
0100
0010
0000
0010
0100
0001
1000
,  // measure 22
0001
0010
0100
1000
0010
0100
0010
0100
,  // measure 23
1001
0000
0000
0100
0000
1000
0100
0010
0001
0000
0000
0010
0000
0001
0010
0100
,  // measure 24
1000
0000
0000
0010
0000
1000
0010
0100
0001
0000
0000
1000
0000
0000
0001
0000
,  // measure 25
0000
0010
0000
0000
0001
0000
0010
0000
1000
0000
0000
0000
0100
0000
1000
0000
,  // measure 26
0100
1000
0001
1000
0001
0000
0010
0001
,  // measure 27
0010
0001
1000
0001
1000
0000
1000
0010
,  // measure 28
0000
0000
0010
0000
0100
0000
0001
0000
0100
0010
0100
0000
0001
0000
1000
0001
,  // measure 29
0000
0000
1001
0000
1000
0010
0100
0010
,  // measure 30
1000
0100
0010
0001
0100
0010
0100
0001
,  // measure 31
0010
0000
0100
0000
1000
0010
0000
0100
0000
0010
0000
0100
0001
0000
0010
0000
,  // measure 32
0001
0100
0001
0010
0100
1000
0100
1000
,  // measure 33
0010
1000
0000
0010
0000
0100
0000
0001
,  // measure 34
0100
0010
0100
0001
1000
0001
0100
0010
,  // measure 35
0100
0000
0010
0000
1000
0000
0100
0000
0010
0000
0001
0000
0100
0001
0000
0000
,  // measure 36
0000
1000
0000
0010
0000
0000
0100
0000
0010
0000
0000
0100
0000
0000
0001
0000
,  // measure 37
1100
0000
0000
0010
0000
0000
0100
0000
0011
0000
0000
0000
0100
0000
0010
0000
,  // measure 38
1000
0100
0010
0001
1001
0000
1000
0010
,  // measure 39
1000
0010
1000
0010
1000
0010
1000
0001
,  // measure 40
0100
0001
0100
0001
0100
0000
0010
0000
,  // measure 41
0100
0010
0100
0010
,  // measure 42
1000
0001
1000
1001
,  // measure 43
0000
0000
0001
0010
0001
0010
0001
0010
,  // measure 44
0001
0010
0001
1000
0100
1000
0100
1000
,  // measure 45
0100
1000
0100
1000
0001
1000
0001
1000
,  // measure 46
0001
1000
0001
0000
1000
0000
0100
0000
,  // measure 47
0010
1001
0100
0010
,  // measure 48
1000
0100
0010
0001
,  // measure 49
0000
1100
0000
0011
,  // measure 50
0000
1001
0000
0000
,  // measure 51
1000
0010
0000
0000
0010
0100
0000
0010
0000
0000
0100
0000
0001
0000
0010
0000
,  // measure 52
0001
0100
0001
0010
0100
1000
0010
1000
,  // measure 53
0000
0001
0100
0001
0010
0001
0010
0100
,  // measure 54
1001
0000
0000
2002
0000
0000
3003
0000
,  // measure 55
1000
0010
0100
2002
0000
0000
3003
0000
,  // measure 56
0001
0100
0010
2002
0000
0000
3003
0000
,  // measure 57
1000
0100
1000
0010
1000
0001
0010
0100
,  // measure 58
1001
1000
0001
1000
,  // measure 59
0001
0100
0001
0010
0001
0100
0001
0010
,  // measure 60
0100
1000
0010
1000
0100
1000
0010
1000
,  // measure 61
0100
0000
0100
0010
0000
0010
0001
0100
,  // measure 62
0001
0010
0100
1000
0100
0010
0001
0010
,  // measure 63
0100
1000
0010
0001
0010
1000
0010
0100
,  // measure 64
0001
0100
0010
1000
0100
0001
0100
1000
,  // measure 65
0100
0010
0001
0100
0001
0010
0100
1000
,  // measure 66
0100
1000
0010
1000
0001
0010
0001
0010
,  // measure 67
0100
1000
0100
1000
0010
0001
0010
0100
,  // measure 68
1000
0000
0000
1000
0001
1000
0001
0000
0000
0000
0000
0000
;

//---------------dance-single - ----------------
#NOTES:
     dance-single:
     :
     Challenge:
     10:
     0.726,0.812,0.342,0.000,0.366: // measure 1
0000
0000
0000
0000
,  // measure 2
0000
0000
1000
0100
0010
0001
0010
0100
,  // measure 3
1010
0000
0000
0110
0000
0000
0101
0000
0000
0000
0010
0000
0100
0000
0010
0000
,  // measure 4
1000
0100
0010
0001
0010
0100
1000
0000
,  // measure 5
0011
0000
0000
0110
0000
0000
1100
0000
0000
0000
0010
0000
0100
0000
0010
0000
,  // measure 6
1000
0100
0010
0001
0010
0100
1000
0000
,  // measure 7
0001
0000
0000
0010
0001
0000
0010
0000
0100
0000
0000
1000
0010
0000
1000
0000
,  // measure 8
0100
0000
0000
0010
0001
0000
0100
0000
0010
0000
1000
0000
0010
0000
0000
0000
,  // measure 9
1001
0000
0000
0010
0001
0000
0010
0000
0100
0000
0000
1000
0010
0000
1000
0000
,  // measure 10
0101
0000
0000
0110
0000
0000
1010
0000
0000
0000
0001
0000
0100
0000
0010
0000
,  // measure 11
1001
0000
0000
0001
0100
0000
0010
0000
0100
0000
0001
0000
0010
0000
0100
0000
,  // measure 12
1000
0000
0000
0010
1000
0000
0010
0000
0100
0000
0010
0000
1000
0100
0000
1001
,  // measure 13
0000
0000
0001
0000
0010
0001
0000
0000
1001
0000
0010
0000
0100
0010
0000
0000
,  // measure 14
1000
0001
1000
0001
1000
0001
0000
1100
0000
0000
0101
0000
0000
0000
0000
0000
,  // measure 15
1000
0010
0100
0010
1000
0100
0010
0001
,  // measure 16
0100
0001
0010
0001
0010
0100
1000
0010
,  // measure 17
1000
0100
1000
0010
0100
0001
0010
0001
,  // measure 18
0100
0010
0000
0100
0000
0001
0000
1000
0010
0000
0100
0000
1001
0000
0000
0000
,  // measure 19
0001
0010
0000
0000
0001
0000
0100
0000
0010
0100
0000
0000
0010
0000
1000
0000
,  // measure 20
0010
1000
0000
0000
0100
0000
1000
0000
0100
0000
0010
0000
0001
0000
0100
0000
,  // measure 21
0010
0100
0000
0000
0001
0000
0010
0000
0001
0100
0000
0000
0010
0000
0100
0000
,  // measure 22
0001
0100
0010
1000
0100
0010
0001
0010
,  // measure 23
1001
0000
0000
1010
0000
0100
0001
0100
1000
0000
0000
0101
0000
0010
1000
0010
,  // measure 24
0001
0000
0000
1001
0000
0001
0010
0100
1000
0001
0000
1000
0001
0000
0100
0010
,  // measure 25
0000
0100
0010
0000
1000
0000
0010
0000
0001
0000
0000
0000
0001
0000
0100
0000
,  // measure 26
0010
1000
0010
0100
0010
0000
0010
1000
,  // measure 27
0000
1000
0010
0100
0010
0000
0010
0100
,  // measure 28
0000
0000
0100
0000
0001
0000
0010
0000
0001
1000
0001
0000
0100
0000
0010
1000
,  // measure 29
0000
0000
0000
0000
1001
0000
0000
0000
0100
0010
0000
0000
0100
0000
0001
0000
,  // measure 30
0010
0000
0100
0000
1000
0001
0000
0000
1000
0000
0010
0000
0100
0010
0000
0000
,  // measure 31
1000
0000
0010
0000
0100
0001
0000
0100
0000
0010
0000
0100
0001
0000
0100
0000
,  // measure 32
0010
1000
0010
1000
0010
0000
0100
0001
0100
0001
0100
0001
0100
0000
0010
0000
,  // measure 33
0100
0010
0000
1000
0000
0000
0001
0000
0010
0000
0001
0000
0010
0000
0100
0000
,  // measure 34
1001
0000
0100
0000
0010
0000
1000
0000
0001
0100
0000
0000
0100
0010
0000
0000
,  // measure 35
1000
0000
0010
0000
1000
0000
0100
0000
0010
0001
0000
0000
0001
0100
0000
1001
,  // measure 36
0000
0000
0000
0011
0000
0000
0100
0000
0010
0000
0000
1100
0000
0000
0010
0000
,  // measure 37
1001
0000
0000
1001
0000
0000
0100
0000
1001
0000
0000
0000
0010
0000
1000
0001
,  // measure 38
1000
0001
0010
0100
1001
0000
1000
0001
,  // measure 39
1000
0001
1000
0001
1000
0001
0010
0001
,  // measure 40
0010
0001
0010
0001
0010
0001
1000
0100
,  // measure 41
1000
0100
1000
0100
1000
0000
0010
0000
,  // measure 42
0100
0000
0001
1000
0001
0000
1001
0000
,  // measure 43
0000
0000
1000
0001
1000
0001
1000
0001
,  // measure 44
1000
0010
1000
0010
1000
0010
1000
0010
,  // measure 45
0100
0001
0100
0001
0100
0001
0100
0001
,  // measure 46
0100
0010
0100
0010
0100
0010
0100
0010
,  // measure 47
0100
1001
0001
0010
,  // measure 48
0100
1000
0001
1000
,  // measure 49
0100
0010
0001
0010
,  // measure 50
0100
1000
0001
1001
,  // measure 51
0001
0100
0000
0000
0100
0010
0000
0100
0000
0000
0010
0000
1000
0000
0100
0000
,  // measure 52
0010
0001
0100
0001
0010
0001
0100
0010
,  // measure 53
0000
0000
0010
1000
0000
0000
0100
0000
1000
0000
0010
0000
1000
0000
0100
0000
,  // measure 54
1000
0001
1000
0000
0010
0000
1001
0000
0000
0000
0000
0000
1000
0001
1000
0000
,  // measure 55
0001
0000
0100
0000
0010
0000
1100
0000
0000
0000
0000
0000
0001
1000
0001
0000
,  // measure 56
1000
0100
1000
0011
0000
0000
0100
0000
,  // measure 57
1000
0100
1000
0010
0100
0010
1000
0001
,  // measure 58
1000
0100
0000
0000
0010
0001
0000
0000
1000
0000
0001
0000
1000
0000
0001
0000
,  // measure 59
0010
0001
0100
0001
0010
0001
0010
0100
,  // measure 60
1000
0100
1000
0010
1000
0100
1000
0010
,  // measure 61
0100
0000
0100
0001
0010
0001
1000
0100
,  // measure 62
1000
0100
0010
0001
0010
0100
1000
0010
,  // measure 63
0100
0001
0100
0010
1000
0010
0001
0010
,  // measure 64
0100
1000
0100
0010
0001
0100
1000
0100
,  // measure 65
0010
0001
0100
0010
1000
0100
0001
0010
,  // measure 66
1000
0100
0001
0010
1000
0010
0100
0010
,  // measure 67
1000
0001
0100
0010
0100
0001
0010
0100
,  // measure 68
1000
0000
0000
0000
0000
0000
0000
0000
0000
0000
0000
0000
0010
0000
0000
0000
0100
0000
0000
0000
0010
0000
0000
0000
1001
0000
0000
0000
0000
0000
0100
0000
0000
0000
0000
0000
0000
0000
0000
0001
0000
0000
0000
0000
0000
0000
0000
0000
,  // measure 69
0010
0000
1000
1000
0000
0000
0000
0000
;

//---------------dance-single - ----------------
#NOTES:
     dance-single:
     :
     Medium:
     7:
     0.490,0.577,0.285,0.124,0.071: // measure 1
0000
0000
0000
0000
,  // measure 2
0000
0000
0000
0000
,  // measure 3
1001
0000
0000
1001
0000
0100
0010
0000
,  // measure 4
1000
0100
1000
0010
1000
0100
1000
0000
,  // measure 5
1001
0000
0000
1001
0000
0010
0100
0000
,  // measure 6
0001
0010
0001
0100
0001
0010
0001
0000
,  // measure 7
1000
0000
0100
1000
0000
1000
0010
0000
,  // measure 8
0100
0000
0001
0100
0000
0100
0010
0000
,  // measure 9
1001
0000
0000
1100
0000
0000
0011
0000
,  // measure 10
0200
0000
0000
0310
0000
0000
0100
0000
,  // measure 11
1001
0100
0010
0100
,  // measure 12
0001
0000
0000
0000
0100
0000
0000
0000
0010
0000
0000
0000
0100
0000
0000
1001
,  // measure 13
0000
0000
0010
0000
1001
0000
0100
0010
,  // measure 14
0200
0000
0000
0300
0000
1001
0000
0000
,  // measure 15
0100
0010
0100
0000
0010
0100
0010
0000
,  // measure 16
0100
0001
0100
0000
0001
0100
0001
0000
,  // measure 17
1000
0100
1000
0000
0100
1000
0100
0000
,  // measure 18
1000
0000
0000
1001
0000
0000
0010
0000
0001
0000
0010
0000
0100
0000
1000
0000
,  // measure 19
0001
0010
0001
0100
0001
0100
0010
0000
,  // measure 20
0010
1000
0010
0100
0010
1000
0100
0000
,  // measure 21
0100
1000
0010
1000
0100
0010
0001
0100
,  // measure 22
0001
0010
0100
1000
0010
0100
0010
0100
,  // measure 23
1001
0000
0000
0010
0000
0200
0000
0000
0310
0000
0000
0100
0000
0002
0000
0000
,  // measure 24
0103
0000
0000
0010
0000
2000
0000
0000
3002
0000
0000
0000
0000
0000
0000
0000
,  // measure 25
0000
0000
0103
0000
0010
0000
0100
0010
,  // measure 26
0000
0010
1000
0010
1000
0000
0010
0100
,  // measure 27
0000
0100
0001
0100
0001
0000
1000
0010
,  // measure 28
0000
0010
0100
0010
0200
0000
0000
0000
,  // measure 29
0000
0000
0310
0000
0100
0010
1000
0000
,  // measure 30
0001
0010
1000
0000
0010
0100
0001
0000
,  // measure 31
1000
0000
0100
0000
0001
0000
0000
0011
0000
0000
0000
0000
0100
0000
0000
0000
,  // measure 32
1100
0000
1000
0000
0010
0100
0010
0100
,  // measure 33
0000
0001
0000
0010
0000
0100
0000
1000
,  // measure 34
0100
1000
0010
1000
0001
0000
0010
0001
,  // measure 35
0100
0000
0001
0000
1000
0000
0001
0000
0010
0000
0100
0000
1000
0000
0000
1001
,  // measure 36
0000
0000
0000
0010
0000
0000
0010
0000
0100
0000
0000
0100
0000
0000
0010
0000
,  // measure 37
1000
0000
0000
0001
0000
0000
1000
0000
1001
0000
0000
0000
0100
0000
0000
0000
,  // measure 38
2002
0000
3003
1000
,  // measure 39
0100
1000
0100
1000
,  // measure 40
0001
1000
0001
1000
,  // measure 41
0010
0100
0010
0100
,  // measure 42
0001
2002
0000
0000
,  // measure 43
3003
1000
0100
1000
,  // measure 44
0010
1000
0010
1000
,  // measure 45
0001
0100
0001
1000
,  // measure 46
0010
1000
0000
0010
,  // measure 47
0000
0100
0000
0010
,  // measure 48
0000
1000
0001
1000
,  // measure 49
0000
2002
0000
0000
,  // measure 50
0000
0000
0000
3003
,  // measure 51
0011
0000
0100
0000
0010
0000
0100
0010
,  // measure 52
1000
0000
1000
0001
0000
0001
0100
0010
,  // measure 53
0000
0010
0100
0001
0010
0100
1000
0000
,  // measure 54
0011
0000
0000
1010
0000
0000
0100
0010
,  // measure 55
1100
0000
0000
0101
0000
0000
0010
0001
,  // measure 56
1010
0000
0000
0011
0000
0000
0100
0000
,  // measure 57
1000
0100
1000
0010
0100
0000
0001
0010
,  // measure 58
0101
0000
0110
0000
1010
0100
0010
0001
,  // measure 59
0100
0001
0100
0010
0100
0001
1000
0010
,  // measure 60
0100
0010
1000
0010
0100
0001
0010
0001
,  // measure 61
1000
0100
1000
0001
0100
0001
1000
0010
,  // measure 62
1000
0100
0010
0001
,  // measure 63
0010
1000
0010
0001
,  // measure 64
0100
0010
1000
0100
,  // measure 65
0001
0100
1000
0010
,  // measure 66
0100
0001
0010
0100
,  // measure 67
1000
0100
0010
0001
,  // measure 68
1000
0000
0000
0001
1000
0001
1000
0000
0000
0000
0000
0000
;

//---------------dance-single - ----------------
#NOTES:
     dance-single:
     :
     Beginner:
     2:
     0.115,0.192,0.095,0.000,0.000: // measure 1
0000
0000
0000
0000
,  // measure 2
0000
0000
0000
0000
,  // measure 3
0000
0000
0000
0000
,  // measure 4
0000
0000
0000
0000
,  // measure 5
1001
0000
0000
0000
,  // measure 6
0000
0000
0000
0000
,  // measure 7
1000
0000
0001
0000
,  // measure 8
0001
0000
0010
0000
,  // measure 9
0001
0000
1000
0000
,  // measure 10
1001
0000
0000
0000
,  // measure 11
0100
0000
0000
0000
,  // measure 12
1000
0000
0000
0000
,  // measure 13
0001
0000
0010
0000
,  // measure 14
0001
0000
0000
0000
,  // measure 15
1000
0000
1000
0000
,  // measure 16
1000
0000
1000
0000
,  // measure 17
0001
0000
0001
0000
,  // measure 18
0001
0000
0000
0000
,  // measure 19
0100
0000
0100
0000
,  // measure 20
0100
0000
0100
0000
,  // measure 21
0010
0000
0010
0000
,  // measure 22
0010
0000
0010
0000
,  // measure 23
1001
0000
0000
0000
,  // measure 24
0000
0000
1001
0000
,  // measure 25
0000
0000
1000
0000
,  // measure 26
0000
0000
0001
0000
,  // measure 27
0000
0000
1000
0000
,  // measure 28
0000
0000
0010
0000
,  // measure 29
0000
0000
1000
0000
,  // measure 30
1000
0000
1000
0000
,  // measure 31
1000
0000
0000
0000
,  // measure 32
0001
0000
0000
0000
,  // measure 33
0100
0000
0000
0000
,  // measure 34
0001
0000
0001
0000
,  // measure 35
0001
0000
0001
0000
,  // measure 36
0000
0000
0100
0000
,  // measure 37
1001
0000
0000
0000
,  // measure 38
0001
0000
0000
1000
,  // measure 39
0000
0000
0000
0000
,  // measure 40
0000
0000
0000
0000
,  // measure 41
0000
0000
0000
0000
,  // measure 42
0000
0000
0000
0000
,  // measure 43
0000
0001
0000
0000
,  // measure 44
0000
0000
0000
0000
,  // measure 45
0000
0000
0000
0000
,  // measure 46
0000
0000
0000
0000
,  // measure 47
0000
1000
0000
0000
,  // measure 48
0000
0000
0000
0000
,  // measure 49
0000
0001
0000
0000
,  // measure 50
0000
0000
0000
0000
,  // measure 51
0000
1000
0000
0010
,  // measure 52
0000
1000
0000
0001
,  // measure 53
0000
0100
0000
0001
,  // measure 54
0000
0000
1001
0000
,  // measure 55
0000
0000
1001
0000
,  // measure 56
0000
0000
1001
0000
,  // measure 57
0000
1000
0000
0010
,  // measure 58
0000
1000
0000
0000
,  // measure 59
0001
0000
0100
0000
,  // measure 60
0001
0000
0010
0000
,  // measure 61
0100
0000
1000
0000
,  // measure 62
1001
0000
0000
0000
,  // measure 63
0000
0000
0010
0000
,  // measure 64
0000
0000
0000
0000
,  // measure 65
0100
0000
0000
0000
,  // measure 66
0000
0000
1000
0000
,  // measure 67
0000
0000
0000
0000
,  // measure 68
0001
0000
1001
0000
;
