#TITLE:女王騎士;
#SUBTITLE:;
#ARTIST:猫叉Master;
#TITLETRANSLIT:JOOU KISHI;
#SUBTITLETRANSLIT:;
#ARTISTTRANSLIT:Nekomata Master;
#CREDIT:DMAxel;
#BANNER:JOOU KISHI.png;
#BACKGROUND:JOOU KISHI-bg.png;
#LYRICSPATH:;
#CDTITLE:pop'n music.png;
#MUSIC:JOOU KISHI.mp3;
#OFFSET:-10.240;
#SAMPLESTART:98.338;
#SAMPLELENGTH:12.000;
#SELECTABLE:YES;
#BPMS:0.000=95.000;
#STOPS:;
#BGCHANGES:;

//---------------dance-single - ----------------
#NOTES:
     dance-single:
     :
     Easy:
     2:
     0.112,0.159,0.020,0.100,0.000: // measure 1
2000
0000
3200
0000
,  // measure 2
0320
0000
0032
0000
,  // measure 3
2003
0000
3002
0000
,  // measure 4
0023
0000
0230
0000
,  // measure 5
1300
0001
1000
0000
,  // measure 6
0010
0100
0010
0000
,  // measure 7
1000
0000
0001
0000
,  // measure 8
1001
0000
1000
0000
,  // measure 9
0001
0000
0100
0000
,  // measure 10
0010
0000
0100
0000
,  // measure 11
0001
0000
1000
0000
,  // measure 12
1000
0000
0001
0000
,  // measure 13
1000
0000
0010
0000
,  // measure 14
0100
0000
0010
0000
,  // measure 15
1000
0000
0001
0000
,  // measure 16
2000
0000
0000
0000
,  // measure 17
3002
0000
0000
0000
,  // measure 18
2003
0000
0000
0000
,  // measure 19
3001
0000
0010
0000
,  // measure 20
0100
1000
0100
0000
,  // measure 21
1000
0000
0100
0000
,  // measure 22
0010
0001
0010
0000
,  // measure 23
0001
0000
1000
0000
,  // measure 24
0001
1000
0001
0000
,  // measure 25
0100
0000
0010
0000
,  // measure 26
0100
0000
0010
0000
,  // measure 27
2000
0000
0000
0000
,  // measure 28
3100
0000
0000
0000
,  // measure 29
0020
0000
0000
0000
,  // measure 30
0031
0000
0000
0000
,  // measure 31
0100
0000
0010
0000
,  // measure 32
0100
0000
0000
0000
,  // measure 33
0001
0000
1000
0000
,  // measure 34
0001
0000
0000
0000
,  // measure 35
1000
0000
0000
0000
,  // measure 36
1001
0000
1000
0000
,  // measure 37
0001
0000
0010
0000
,  // measure 38
0100
0000
1000
0000
,  // measure 39
0001
0000
1000
0000
,  // measure 40
0001
0000
1000
0000
,  // measure 41
0100
0000
0010
0000
,  // measure 42
0001
0000
1000
0000
,  // measure 43
1001
0000
0010
0000
,  // measure 44
0001
0000
1000
0000
,  // measure 45
0100
0010
0100
0000
,  // measure 46
1000
0000
0000
0000
,  // measure 47
0001
0000
0010
0000
,  // measure 48
0100
0000
1000
0000
,  // measure 49
0100
0010
0100
0000
,  // measure 50
1000
0000
0001
0100
,  // measure 51
0020
0000
0000
0000
,  // measure 52
0000
0030
0000
0020
,  // measure 53
0000
0000
0000
0030
;

//---------------dance-single - ----------------
#NOTES:
     dance-single:
     :
     Medium:
     4:
     0.245,0.264,0.127,0.347,0.003: // measure 1
0002
0023
0230
0300
,  // measure 2
2000
3200
0320
0031
,  // measure 3
0002
0103
0200
0310
,  // measure 4
0020
0000
2030
0000
,  // measure 5
3002
0103
0110
0000
,  // measure 6
2000
3010
0110
0200
,  // measure 7
0302
2003
3200
0310
,  // measure 8
1002
1003
0100
0010
,  // measure 9
0002
1003
0100
0010
,  // measure 10
0000
0001
2000
0000
3020
0000
0230
0000
,  // measure 11
0302
0000
0013
0100
,  // measure 12
2001
3001
0010
0100
,  // measure 13
1000
0001
0010
0100
,  // measure 14
0000
1000
0002
0000
0203
0000
0320
0000
,  // measure 15
2030
3000
1001
1001
,  // measure 16
0002
0000
0203
0000
,  // measure 17
2300
0000
3200
0000
,  // measure 18
0302
0000
0000
1003
,  // measure 19
1001
0000
1001
0000
,  // measure 20
0010
0001
0010
0001
0010
0000
0000
0000
,  // measure 21
1001
0000
1001
0000
,  // measure 22
0100
1000
0100
1000
0100
0000
0000
0000
,  // measure 23
1001
0000
1001
0000
,  // measure 24
0100
0001
0100
0001
0100
0000
0000
0000
,  // measure 25
0002
0000
2003
0000
,  // measure 26
3020
0000
0000
0000
1030
0001
1000
0000
,  // measure 27
0001
0010
0100
1000
,  // measure 28
0001
0000
0000
0000
,  // measure 29
0001
0010
0100
1000
,  // measure 30
0001
0000
0001
0000
,  // measure 31
1000
0100
0010
0001
,  // measure 32
1000
0000
1000
0000
,  // measure 33
1000
0100
0010
0001
,  // measure 34
1000
0000
1000
0000
,  // measure 35
0020
0000
0130
0000
,  // measure 36
1001
0000
1000
0000
1100
0000
0001
1000
,  // measure 37
0001
0000
0001
0000
0011
0000
0100
1000
,  // measure 38
0020
0230
0320
0130
,  // measure 39
0002
0000
0000
1000
1003
0000
0000
0000
,  // measure 40
1001
0000
0001
0000
0011
0000
1000
0001
,  // measure 41
1000
0000
1000
0000
1100
0000
0010
0001
,  // measure 42
0200
0320
0230
0310
,  // measure 43
2001
0000
3001
0010
0100
0000
1000
0000
,  // measure 44
0002
0000
1003
0100
0010
0000
0001
0000
,  // measure 45
0000
0100
0010
0000
0100
0001
0100
0000
,  // measure 46
0002
0000
0000
0000
1003
0001
1000
0001
,  // measure 47
2000
0000
3001
0010
0100
0000
1000
0000
,  // measure 48
0002
0000
1003
0100
0010
0000
0001
0000
,  // measure 49
0000
0100
0010
0000
0100
0001
0100
0000
,  // measure 50
0002
0000
0000
0000
1003
0001
1000
0000
,  // measure 51
0020
0000
0000
0000
0000
0000
0000
0000
0000
0000
0000
0000
0000
0030
0000
0000
,  // measure 52
0000
0020
0000
0000
0000
0000
0230
0000
,  // measure 53
0000
0000
0000
0000
0300
0000
0000
0000
0000
0000
0000
0100
0000
0000
0000
0000
;

//---------------dance-single - ----------------
#NOTES:
     dance-single:
     :
     Hard:
     5:
     0.314,0.281,0.033,0.454,0.007: // measure 1
0002
0000
0203
0000
2300
0000
3000
0100
,  // measure 2
0002
0000
0203
0000
2300
0000
3010
0100
,  // measure 3
0020
2030
3200
0320
,  // measure 4
0032
0000
0000
1000
1003
0000
0000
0000
,  // measure 5
2000
0000
3200
0000
0302
0000
0003
0100
,  // measure 6
2000
0000
3200
0000
0302
0000
0103
0010
,  // measure 7
0200
0000
0302
0000
0023
0000
0130
1000
,  // measure 8
0002
0000
1003
0100
0001
0000
0100
0000
,  // measure 9
2000
0000
3001
0100
1000
0100
0001
1000
,  // measure 10
0000
0001
1000
0100
0010
0001
1000
0010
,  // measure 11
2000
0000
0000
0000
3001
0100
0010
0100
,  // measure 12
0002
0000
1003
0100
0001
0000
0100
0000
,  // measure 13
2000
0000
3001
0100
1000
0100
0001
1000
,  // measure 14
0000
0001
1000
0100
0010
0001
1000
0010
,  // measure 15
2000
0000
0000
0000
3010
0010
0110
0000
,  // measure 16
0001
0100
1000
0100
,  // measure 17
0010
1000
0100
0001
,  // measure 18
0100
0000
0010
0000
0001
0000
1000
0100
,  // measure 19
0002
0000
0000
0103
2000
0000
0000
3001
,  // measure 20
0100
0010
0100
0001
0010
0000
0000
0001
,  // measure 21
0200
0000
0000
1300
0200
0000
0000
0301
,  // measure 22
1000
0010
0100
0010
1000
0000
1000
0000
,  // measure 23
1001
0000
0000
0100
0020
0000
0000
1030
,  // measure 24
0010
0100
0010
1000
0200
0000
0320
0000
,  // measure 25
0031
1000
0001
0000
0100
0010
0100
0000
,  // measure 26
0001
1000
0001
0000
0100
0010
1000
0100
,  // measure 27
2000
3200
0302
0203
,  // measure 28
0320
0000
0030
0000
,  // measure 29
0002
0203
2300
3200
,  // measure 30
0320
0000
1030
0000
,  // measure 31
0001
0010
1000
0010
,  // measure 32
0001
0100
0010
0100
,  // measure 33
0001
0100
1000
0100
,  // measure 34
0001
0010
0100
0010
,  // measure 35
0002
0000
0000
0000
1003
0000
0100
0100
,  // measure 36
1002
0000
0203
0000
0320
0000
1030
0100
,  // measure 37
0001
0000
0200
0000
2300
0000
3001
0010
,  // measure 38
0100
0200
0320
0130
,  // measure 39
0002
0000
0000
1000
1003
0000
0100
0100
,  // measure 40
2001
0000
3200
0000
0320
0000
0031
0100
,  // measure 41
1000
0000
0200
0000
0302
0000
1003
0100
,  // measure 42
0010
0000
0020
0000
0130
1000
0001
0100
,  // measure 43
0002
0000
1003
0100
0002
0000
0203
0000
,  // measure 44
2300
0000
3001
0010
0100
1000
0001
0100
,  // measure 45
0000
0001
1000
0100
0010
0001
0100
1000
,  // measure 46
0100
0010
1000
0000
0100
0010
0001
1000
,  // measure 47
0002
0000
0103
1000
0100
0001
2000
0000
,  // measure 48
3002
0000
0103
1000
0100
0001
1000
0010
,  // measure 49
0000
1000
0001
0010
0100
1000
0100
0010
,  // measure 50
0100
1000
0001
0000
0100
0100
1001
0000
,  // measure 51
0200
0000
0000
0000
,  // measure 52
0000
0020
0000
0330
0000
0000
2000
0000
,  // measure 53
0000
0000
0000
0000
3001
0000
0000
0000
0000
0000
0000
0000
0000
0000
0000
0000
0000
0000
0000
0000
0000
0000
0000
0000
0000
0000
0000
0000
0000
0000
0000
0000
0000
0001
0000
0000
0000
0000
0000
0000
0000
0000
0000
0000
0000
0000
0000
0000
;

//---------------dance-single - ----------------
#NOTES:
     dance-single:
     :
     Challenge:
     7:
     0.416,0.422,0.080,0.147,0.237: // measure 1
1000
0000
0100
0000
1000
0000
0100
0010
0000
0000
0001
0000
1000
0000
1000
0000
,  // measure 2
0001
0000
0010
0000
0001
0000
0010
0100
0000
0000
1000
0000
0001
0000
0001
0000
,  // measure 3
1000
0000
0010
0000
1000
0000
0010
0100
0000
0000
0001
0000
1000
0000
1000
0000
,  // measure 4
0001
0000
0100
0000
0001
0000
0100
0010
0000
0000
1000
0000
0100
0000
1000
0000
,  // measure 5
0001
0000
0100
0000
1000
0000
0100
0001
0000
0000
0100
0000
0010
0000
0100
0000
,  // measure 6
0001
0000
0010
0000
1000
0000
0010
0001
0000
0000
1000
0000
0100
0000
1000
0000
,  // measure 7
0001
0000
0100
0000
1000
0000
0100
0001
0000
0000
0100
0001
0010
0100
1000
0001
,  // measure 8
1000
0000
0000
0001
1000
0000
0010
0000
0100
0000
0010
0000
1000
0000
0100
0000
,  // measure 9
0010
0000
0000
0001
1000
0000
0010
0000
0100
0000
0010
0000
1000
0000
0100
0000
,  // measure 10
0000
1000
0001
0100
1000
0100
0010
1000
,  // measure 11
0001
0000
0100
0010
0000
0010
0100
0000
0010
0000
1000
0000
0001
0010
0001
0010
,  // measure 12
0001
0000
0000
1000
0001
0000
0100
0000
0010
0000
0100
0000
0001
0000
1000
0000
,  // measure 13
0010
0000
0000
1000
0001
0000
0100
0000
0010
0000
1000
0000
0100
0000
0010
0000
,  // measure 14
0000
0001
1000
0100
0001
0100
0010
0001
,  // measure 15
1000
0000
0010
0100
0000
0100
0010
0000
1010
0000
1010
0000
1001
0000
0000
0000
,  // measure 16
2001
0100
0001
3100
,  // measure 17
0002
0100
1000
0103
,  // measure 18
2000
0000
0000
0000
0001
0000
0000
0000
3001
0000
0001
0000
0100
0000
0010
1000
,  // measure 19
0010
0100
0100
0001
1000
0010
0010
1000
,  // measure 20
0100
0001
0100
0010
0001
0100
1000
0100
,  // measure 21
0010
0000
1000
0000
1000
0000
0001
0010
0001
0000
0100
0000
0100
0000
0001
0000
,  // measure 22
1000
0000
0100
0000
0001
0000
0100
0000
0010
0000
0001
0000
1000
0000
0010
0100
,  // measure 23
0020
1000
1030
0001
0200
0010
0310
1000
,  // measure 24
0100
0001
0100
0010
0001
0100
1000
0100
,  // measure 25
0010
0000
0000
0001
1000
0000
0100
0000
1000
0000
0000
0010
0100
0000
0001
0000
,  // measure 26
0010
0000
0000
0001
1000
0000
0100
0000
1000
0000
0001
0000
0010
0000
0100
0000
,  // measure 27
2000
3200
0302
0203
,  // measure 28
0320
0001
0100
0031
,  // measure 29
0002
0203
2300
3200
,  // measure 30
0320
1000
0230
0001
,  // measure 31
0301
0000
0000
0001
0100
0000
0000
0100
0010
0000
0000
0010
1000
0000
0000
1000
,  // measure 32
0002
0100
1000
0103
,  // measure 33
1000
0000
0000
1000
0010
0000
0000
0010
0100
0000
0000
0100
0001
0000
0000
0001
,  // measure 34
2000
0100
0001
3100
,  // measure 35
0002
0000
0000
0000
1003
0000
0100
0100
,  // measure 36
1001
0000
0100
1000
0100
0000
1000
0000
0001
0000
0100
0001
0100
0000
0010
0000
,  // measure 37
1000
0000
0100
0010
0100
0000
1000
0001
1000
0000
0001
1000
0001
0000
0010
0000
,  // measure 38
0100
0000
0010
0001
0010
0000
0001
0000
1000
0000
0010
1000
0010
0000
0100
0000
,  // measure 39
0001
0000
0010
0100
0010
0000
0001
1000
0001
0000
1000
0001
1000
0000
0010
0100
,  // measure 40
0001
0000
1000
0100
1000
0000
0010
0000
0100
0000
0001
0010
0001
0000
0100
0000
,  // measure 41
0010
0000
1000
0010
1000
0000
0001
0100
0001
0000
1000
0001
1000
0000
0010
0000
,  // measure 42
0100
0000
0001
1000
0001
0000
0010
0000
0100
0000
1000
0001
1000
0001
0100
0010
,  // measure 43
1000
0000
0000
0010
1000
0000
0100
0000
0010
0000
0001
0000
1000
0000
1000
0000
,  // measure 44
0001
0000
0000
0100
0001
0000
0010
0000
0100
0000
1000
0000
0100
0000
0001
0000
,  // measure 45
0000
1100
1001
0010
0100
1000
0100
0001
,  // measure 46
0100
0000
1000
0010
0000
0010
0100
0000
0001
0000
0001
0000
1000
0001
1000
0001
,  // measure 47
1000
0000
0100
1000
0100
0000
1000
0000
0001
0000
0010
0001
0010
0000
0001
0000
,  // measure 48
0100
0000
0010
1000
0010
0000
0100
0001
0100
0000
0001
1000
0001
0000
0100
0000
,  // measure 49
0000
0000
0101
0000
1001
0000
0100
0000
0010
0000
0001
0100
0001
0000
1000
0010
,  // measure 50
1000
0000
0010
0100
0000
0100
0001
0000
0101
0000
0101
0000
1001
0000
0000
0000
,  // measure 51
0200
0000
0000
0000
,  // measure 52
0000
0020
0000
0000
0300
0000
2030
0000
,  // measure 53
0000
0000
0000
0000
3001
0000
0000
0000
0000
0000
0000
0000
0000
0000
0000
0000
0000
0000
0000
0000
0000
0000
0000
0000
0000
0000
0000
0000
0000
0000
0000
0000
0000
0001
0000
0000
0000
0000
0000
0000
0000
0000
0000
0000
0000
0000
0000
0000
;

//---------------dance-single - ----------------
#NOTES:
     dance-single:
     :
     Beginner:
     1:
     0.051,0.067,0.033,0.000,0.000: // measure 1
1000
0000
0000
0000
,  // measure 2
1000
0000
0000
0000
,  // measure 3
1000
0000
0000
0000
,  // measure 4
1000
0000
0000
0000
,  // measure 5
0001
0000
0000
0000
,  // measure 6
0001
0000
0000
0000
,  // measure 7
0001
0000
0000
0000
,  // measure 8
1001
0000
0000
0000
,  // measure 9
0010
0000
0000
0000
,  // measure 10
0100
0000
0000
0000
,  // measure 11
0010
0000
0000
0000
,  // measure 12
0100
0000
0000
0000
,  // measure 13
1000
0000
0000
0000
,  // measure 14
0000
0001
0000
0000
,  // measure 15
1000
0000
0000
0000
,  // measure 16
1000
0000
0000
0000
,  // measure 17
0001
0000
0000
0000
,  // measure 18
1000
0000
0000
0000
,  // measure 19
1001
0000
0000
0000
,  // measure 20
0001
0000
0000
0000
,  // measure 21
1000
0000
0000
0000
,  // measure 22
0001
0000
0000
0000
,  // measure 23
0100
0000
0000
0000
,  // measure 24
0010
0000
0000
0000
,  // measure 25
0100
0000
0000
0000
,  // measure 26
0000
0000
0000
0000
,  // measure 27
1001
0000
0000
0000
,  // measure 28
0000
0000
0000
0000
,  // measure 29
0001
0000
0000
0000
,  // measure 30
0000
0000
0000
0000
,  // measure 31
0001
0000
0000
0000
,  // measure 32
1000
0000
0000
0000
,  // measure 33
0001
0000
0000
0000
,  // measure 34
1000
0000
0000
0000
,  // measure 35
0001
0000
0000
0000
,  // measure 36
1001
0000
0000
0000
,  // measure 37
1000
0000
0000
0000
,  // measure 38
1000
0000
0000
0000
,  // measure 39
0001
0000
0000
0000
,  // measure 40
0001
0000
0000
0000
,  // measure 41
0001
0000
0000
0000
,  // measure 42
1000
0000
0000
0000
,  // measure 43
1001
0000
0000
0000
,  // measure 44
0100
0000
0000
0000
,  // measure 45
0000
0010
0000
0000
,  // measure 46
0100
0000
0000
0000
,  // measure 47
0001
0000
0000
0000
,  // measure 48
1000
0000
0000
0000
,  // measure 49
0000
0001
0000
0000
,  // measure 50
0100
0000
0000
0000
,  // measure 51
0010
0000
0000
0000
;
