#TITLE:Infection;
#SUBTITLE:;
#ARTIST:Inspector K;
#TITLETRANSLIT:;
#SUBTITLETRANSLIT:;
#ARTISTTRANSLIT:;
#CREDIT:;
#BANNER:Infection.png;
#BACKGROUND:Infection-bg.png;
#LYRICSPATH:;
#CDTITLE:in the groove.png;
#MUSIC:Infection.mp3;
#OFFSET:-0.060;
#SAMPLESTART:25.454;
#SAMPLELENGTH:12.000;
#SELECTABLE:YES;
#BPMS:0.000=170.000;
#STOPS:;
#BGCHANGES:;

//---------------dance-single - ----------------
#NOTES:
     dance-single:
     :
     Easy:
     4:
     0.271,0.343,0.101,0.109,0.000:
0000
0000
0000
0000
,
0000
0000
0000
0000
,
0000
0000
0000
0000
,
0000
0000
0000
0000
,
2000
0000
0000
0000
,
3002
0000
0000
0000
,
2003
0000
0000
0000
,
3002
0000
0000
0000
,
1003
1000
0100
1000
,
0000
0000
0001
0000
,
0010
0010
0001
0010
,
0000
0000
0001
0000
,
1000
1000
0010
0100
,
0000
0000
0001
0000
,
0010
0010
0001
0100
,
0000
0000
0010
0000
,
2002
0000
0000
0000
,
3003
0000
0000
0000
,
0010
0001
0010
0001
,
0010
0001
0010
0000
,
0100
1000
0100
1000
,
0100
1000
0100
0000
,
1000
0001
1000
0001
,
1000
0001
1000
0000
,
0001
1000
0001
1000
,
0001
1000
0001
0000
,
1001
0001
0101
0000
,
0001
1000
0010
0000
,
1001
1000
1010
0000
,
1000
0001
0100
0000
,
1001
0001
0011
0000
,
0001
0100
0010
0000
,
1001
1000
1100
0000
,
1000
0010
0100
0000
,
0002
0000
0000
0000
,
1003
0000
1000
0100
,
0010
0000
0001
0000
,
0001
0000
1000
0000
,
0001
0000
1000
0000
,
0001
0000
0001
0000
,
0010
0100
1000
0000
,
1000
0000
0001
0000
,
1000
0000
0001
0000
,
1000
0000
1000
0000
,
0100
0010
0001
0000
,
0001
0000
1000
0000
,
0001
0000
1000
0000
,
0001
0000
0001
0000
,
0010
0100
1000
0000
,
1000
0000
0001
0000
,
1000
0000
0001
0000
,
1000
0010
1000
0010
,
1000
0000
0001
0000
,
0001
0100
0001
0100
,
0001
0000
1000
0000
,
1000
0100
1000
0100
,
1000
0000
0001
0000
,
0001
0010
0001
0010
,
0001
0000
1000
0000
,
1001
0000
0001
0000
,
0010
0000
0001
0000
,
1000
0000
0010
0000
,
1000
0000
0010
0000
,
1000
0000
0100
0000
,
1000
0000
0100
0000
,
1000
0000
0001
0000
,
0200
0000
0000
0000
,
0301
0010
0001
0010
,
0001
1000
0100
0000
,
1000
0100
1000
0100
,
1000
0001
0010
0000
,
0001
0100
0001
0100
,
0001
1000
0010
0000
,
1000
0010
1000
0010
,
1000
0001
0100
0000
,
0010
0100
0010
0100
,
0010
1000
0010
0000
,
0100
0010
0100
0010
,
0100
0001
0100
0000
,
0001
1000
0001
1000
,
0010
0100
0001
0000
,
1000
0001
1000
0001
,
0100
0010
1000
1000
,
2002
0000
0000
3003
,
0012
0000
0000
0000
,
2003
0000
0000
0000
,
3200
0000
0000
0000
,
0320
0000
0000
0030
,
1001
0000
0000
0000
;

//---------------dance-single - ----------------
#NOTES:
     dance-single:
     :
     Beginner:
     1:
     0.059,0.137,0.031,0.000,0.000:
0000
0000
0000
0000
,
0000
0000
0000
0000
,
0000
0000
0000
0000
,
0000
0000
0000
0000
,
0000
0000
0000
0000
,
0000
0000
0000
0000
,
0000
0000
0000
0000
,
0000
0000
0000
0000
,
0001
0000
0000
0000
,
0000
0000
0000
0000
,
0001
0000
0000
0000
,
0000
0000
0000
0000
,
0001
0000
0000
0000
,
0000
0000
0000
0000
,
0001
0000
0000
0000
,
0000
0000
0000
0000
,
1000
0000
0000
0000
,
0000
0000
0000
0000
,
1001
0000
0000
0000
,
0000
0000
0000
0000
,
1000
0000
0000
0000
,
0000
0000
0000
0000
,
1000
0000
0000
0000
,
0000
0000
0000
0000
,
0001
0000
0000
0000
,
0000
0000
0000
0000
,
0001
0000
0000
0000
,
0000
0000
0000
0000
,
1000
0000
0000
0000
,
0000
0000
0000
0000
,
0001
0000
0000
0000
,
0000
0000
0000
0000
,
1000
0000
0000
0000
,
0000
0000
0000
0000
,
0001
0000
0000
0000
,
0100
0000
0000
0000
,
0000
0000
0000
0000
,
0100
0000
0000
0000
,
0000
0000
0000
0000
,
0100
0000
0000
0000
,
0000
0000
0000
0000
,
0100
0000
0000
0000
,
0000
0000
0000
0000
,
0010
0000
0000
0000
,
0000
0000
0000
0000
,
0010
0000
0000
0000
,
0000
0000
0000
0000
,
0010
0000
0000
0000
,
0000
0000
0000
0000
,
0010
0000
0000
0000
,
0000
0000
0000
0000
,
1000
0000
0000
0000
,
0000
0000
0000
0000
,
0001
0000
0000
0000
,
0000
0000
0000
0000
,
1000
0000
0000
0000
,
0000
0000
0000
0000
,
0001
0000
0000
0000
,
0000
0000
0000
0000
,
1000
0000
0000
0000
,
0000
0000
0000
0000
,
1000
0000
0000
0000
,
0000
0000
0000
0000
,
0001
0000
0000
0000
,
0000
0000
0000
0000
,
0001
0000
0000
0000
,
0100
0000
0000
0000
,
0100
0000
0000
0000
,
0000
0000
0000
0000
,
0100
0000
0000
0000
,
0000
0000
0000
0000
,
0010
0000
0000
0000
,
0000
0000
0000
0000
,
0010
0000
0000
0000
,
0000
0000
0000
0000
,
1001
0000
0000
0000
,
1000
0000
0000
0000
,
0001
0000
0000
0000
,
1000
0000
0000
0000
,
0010
0000
0000
0000
,
0100
0000
0000
0000
,
0010
0000
0000
0000
,
0100
0000
0000
0000
,
0010
0000
0000
0000
,
1001
0000
0000
0000
,
1000
0000
0000
0000
,
1000
0000
0000
0000
,
1000
0000
0000
0000
,
1001
0000
0000
0000
;

//---------------dance-single - ----------------
#NOTES:
     dance-single:
     :
     Medium:
     6:
     0.447,0.446,0.195,0.156,0.000:
0000
0000
0000
0000
,
0000
0000
0000
0000
,
0000
0000
0000
0000
,
0000
0000
0000
0000
,
0001
0000
0000
0010
0000
0010
0000
0001
,
1000
0000
0000
0000
,
1000
0000
0000
0100
0000
0100
0000
1000
,
0001
0000
0000
0000
,
0001
0000
0001
0000
0001
0010
0100
1000
,
0000
0000
0000
0010
0100
0000
0001
0000
,
1000
0000
1000
0000
1000
0100
0010
0001
,
0000
0000
0000
0100
0010
0000
1000
0000
,
0001
0000
0001
0000
0001
0100
0010
1000
,
0000
0000
0000
0100
0010
0000
0001
0000
,
1000
0000
1000
0000
1000
0010
0100
0001
,
0000
0000
0000
0010
0100
0000
1000
0000
,
2002
0000
0000
0000
,
3003
0000
0000
0000
,
0010
0000
1000
0100
0000
1000
0100
0000
,
1000
0100
1000
0000
0002
0000
0000
0000
,
0103
0000
0001
0010
0000
0001
0010
0000
,
0001
0010
0001
0000
2000
0000
0000
0000
,
3010
0000
1000
0100
0000
1000
0100
0000
,
1000
0100
1000
0000
0002
0000
0000
0000
,
0013
0000
0001
0100
0000
0001
0100
0000
,
0010
0100
0010
0000
1000
0000
1000
0000
,
1001
0000
1000
0000
1010
0000
1000
0001
,
1000
0000
0010
0100
0001
0000
0000
0000
,
1001
0000
0001
0000
0101
0000
0001
1000
,
0001
0000
0100
0010
1000
0000
0000
0000
,
1001
0000
1000
0000
1100
0000
1000
0001
,
1000
0000
0100
0010
0001
0000
0000
0000
,
1001
0000
0001
0000
0011
0000
0001
1000
,
0001
0000
0010
0100
1000
0000
0000
0000
,
2020
0000
0000
3030
,
1000
0000
0001
1000
0000
0010
0100
0010
,
0000
0000
1000
0001
0000
0100
0001
0000
,
2001
0000
0001
0000
,
3001
0100
1000
0010
,
0001
0000
1000
0001
0000
0100
0010
0100
,
0000
0000
0001
1000
0000
0010
1000
0000
,
1002
0000
1000
0000
,
1003
0100
0001
0010
,
1000
0000
0010
0100
0000
0001
1000
0001
,
0000
0000
0100
0001
0000
1000
0001
0000
,
2001
0000
0001
0000
,
3001
0100
1000
0010
,
0001
0000
0100
0010
0000
1000
0001
1000
,
0000
0000
0010
1000
0000
0001
1000
0000
,
1002
0000
1000
0000
,
1003
0010
0001
0100
,
1000
0000
1000
0000
1000
0010
0100
0001
,
0000
0000
0000
0000
0100
0100
0100
0000
,
0001
0000
0001
0000
0001
0100
0010
1000
,
0000
0000
0000
0000
0010
0010
0010
0000
,
1001
0000
1000
0000
1000
0100
0010
0001
,
0000
0000
0000
0000
0100
0010
0100
0000
,
1001
0000
0001
0000
0001
0010
0100
1000
,
0000
0000
0000
0000
0010
0100
0010
0000
,
1001
0000
1001
0000
1000
0010
1000
0100
,
0000
0010
0001
0010
0100
0000
0100
0000
,
1001
0000
0001
0000
0001
0100
0001
0010
,
0000
0100
1000
0100
0010
0000
0010
0000
,
1001
0000
1000
0000
1000
0100
0010
0100
,
0000
1000
0010
0100
0010
0000
0010
0000
,
1001
0000
0001
0000
0001
0010
0100
0010
,
0001
1000
0001
1000
,
1001
0000
0001
0100
0000
0100
0001
0000
,
1000
0100
1000
0000
0002
0000
0000
0000
,
1003
0000
1000
0010
0000
0010
1000
0000
,
0001
0010
0001
0000
2000
0000
0000
0000
,
3001
0000
0001
0010
0000
0010
0001
0000
,
1000
0010
1000
0000
0002
0000
0000
0000
,
1003
0000
1000
0100
0000
0100
1000
0000
,
0001
0100
0001
0000
2000
0000
0000
0000
,
3001
0000
0100
0001
0000
0001
0010
0000
,
0100
1000
0100
0000
2000
0000
0000
0000
,
3001
0000
0010
0001
0000
0001
0100
0000
,
0010
1000
0010
0000
2000
0000
0000
0000
,
3001
0000
0100
1000
0000
1000
0010
0000
,
0100
0001
0100
0000
0002
0000
0000
0000
,
1003
0000
0010
1000
0000
1000
0100
0000
,
0010
0001
0010
0000
0001
0000
0101
0000
,
2002
0000
0000
3003
,
0010
0000
0000
1000
0000
1000
0000
0001
,
0100
0000
0000
0010
0010
0010
0010
0000
,
1000
0000
0000
0001
0000
0001
0000
0100
,
0001
0001
1000
1000
,
1001
0000
0000
0000
;

//---------------dance-single - ----------------
#NOTES:
     dance-single:
     :
     Hard:
     8:
     0.582,0.549,0.327,0.179,0.000: // measure 1
0000
0000
0000
0000
,  // measure 2
0000
0000
0000
0000
,  // measure 3
0000
0000
0000
0000
,  // measure 4
0000
0000
0000
0000
,  // measure 5
0020
0000
0000
0100
0000
0100
0000
1030
,  // measure 6
0002
0000
0100
0103
,  // measure 7
0200
0000
0000
0010
0000
0010
0000
0301
,  // measure 8
2000
0000
0010
3010
,  // measure 9
1001
0000
1000
0000
1000
0010
0100
0002
,  // measure 10
0000
0000
0003
0100
0010
0100
0001
0000
,  // measure 11
0001
0000
0100
0000
0001
0100
0010
2000
,  // measure 12
0000
0000
0000
3010
0100
0010
1000
0000
,  // measure 13
1000
0000
0001
0000
1000
0100
0010
0002
,  // measure 14
0000
0000
0000
0103
0010
0100
0001
0000
,  // measure 15
0001
0000
0100
0000
0001
0010
0100
2000
,  // measure 16
0000
0000
0000
3010
0100
0010
1000
0000
,  // measure 17
1000
0010
0100
0000
0001
0001
0000
0000
,  // measure 18
0001
0200
0000
0000
0000
0000
0300
0000
,  // measure 19
0001
1000
0001
0010
0000
0010
0100
0000
,  // measure 20
0100
1000
0100
0010
0002
0000
0000
0000
,  // measure 21
1003
0001
1000
0100
0000
0100
0010
0000
,  // measure 22
0010
0001
0010
0100
1000
0000
1000
0000
,  // measure 23
0001
1000
0001
0100
0000
0100
0010
0000
,  // measure 24
0010
1000
0010
0100
0002
0000
0000
0000
,  // measure 25
1003
0001
1000
0010
0000
0010
0100
0000
,  // measure 26
0100
0001
0100
0010
1000
0000
1000
0000
,  // measure 27
1001
0000
1100
0000
1001
0000
1000
0010
,  // measure 28
0100
0001
1000
1000
0001
0000
0000
0000
,  // measure 29
1001
0000
0011
0000
1001
0000
0001
0100
,  // measure 30
0010
1000
0001
0001
1000
0000
1000
0000
,  // measure 31
1001
0000
1010
0000
1001
0000
1000
0100
,  // measure 32
0010
0001
1000
1000
0001
0000
0000
0000
,  // measure 33
1001
0000
0101
0000
1001
0000
0001
0010
,  // measure 34
0100
1000
0001
0001
1000
0000
1000
0000
,  // measure 35
2200
0000
0000
3300
,  // measure 36
1000
0100
1000
0001
0000
0010
0100
1000
,  // measure 37
0000
0010
0100
0001
0100
0010
1000
0000
,  // measure 38
1001
0001
0001
0100
,  // measure 39
1000
0010
1000
0010
0100
0100
0100
0000
,  // measure 40
0001
0010
0001
1000
0000
0100
0010
0001
,  // measure 41
0000
0100
0010
1000
0010
0100
0001
0000
,  // measure 42
1001
1000
1000
0100
,  // measure 43
0001
0100
0001
0100
0010
0010
0010
0000
,  // measure 44
1000
0010
1000
0001
0000
0010
0100
1000
,  // measure 45
0000
0100
0010
0001
0100
0010
1000
0000
,  // measure 46
1001
0001
0001
0010
,  // measure 47
1000
0010
1000
0010
0100
0100
0100
0000
,  // measure 48
0001
0100
0001
1000
0000
0100
0010
0001
,  // measure 49
0000
0010
0100
1000
0010
0100
0001
0000
,  // measure 50
1001
0001
0001
0010
,  // measure 51
1000
0100
1000
0100
0010
0001
0010
0001
,  // measure 52
0100
0000
0101
0000
0001
0100
0010
2000
,  // measure 53
0000
0000
0000
3010
0100
0010
1000
0000
,  // measure 54
1000
0000
1010
0000
1000
0010
0100
0002
,  // measure 55
0000
0000
0000
0103
0010
0100
0001
0000
,  // measure 56
1001
0000
0011
0000
0001
0010
0100
2000
,  // measure 57
0000
0000
0000
3010
0100
0010
1000
0000
,  // measure 58
1001
0000
1100
0000
1000
0100
0010
0002
,  // measure 59
0000
0000
0000
0103
0010
0100
0001
0000
,  // measure 60
1001
0000
1001
0000
0001
0010
0100
0010
,  // measure 61
0000
0001
1000
0100
0010
0000
0011
0000
,  // measure 62
1001
0000
1000
0100
0010
0100
1000
0001
,  // measure 63
0000
0010
0100
1000
0010
0000
0110
0000
,  // measure 64
1001
0000
0001
0010
0100
0010
0001
1000
,  // measure 65
0000
0100
0010
0001
0100
0000
0110
0000
,  // measure 66
1001
0000
1000
0100
0010
0100
1000
0010
,  // measure 67
0100
0101
1100
1001
,  // measure 68
0001
1000
0001
0010
0100
0000
1000
0001
,  // measure 69
1000
0100
0010
0001
0200
0000
0000
0000
,  // measure 70
0301
1000
0001
0010
0100
0000
1000
0001
,  // measure 71
1000
0100
0010
0001
0100
0000
0010
0000
,  // measure 72
1000
0001
1000
0100
0010
0000
0001
1000
,  // measure 73
0001
0010
0100
1000
0020
0000
0000
0000
,  // measure 74
1030
0001
1000
0100
0010
0000
0001
1000
,  // measure 75
0001
0010
0100
1000
0010
0000
0100
0000
,  // measure 76
0001
0010
1000
0001
0010
0100
1000
0010
,  // measure 77
1000
0100
0010
0001
1000
0000
1001
0000
,  // measure 78
1000
0100
0001
1000
0100
0010
0001
0100
,  // measure 79
0001
0010
0100
1000
0001
0000
1001
0000
,  // measure 80
0001
0100
1000
0001
0100
0010
1000
0100
,  // measure 81
1000
0010
0100
0001
0100
0000
1001
0000
,  // measure 82
1000
0010
0001
1000
0010
0100
0001
0010
,  // measure 83
0001
0100
0010
1000
0010
0000
0110
0000
,  // measure 84
2002
0000
0000
3003
,  // measure 85
0200
0000
0000
0001
0000
0301
0000
0001
,  // measure 86
1000
0000
0000
0010
1000
1000
1000
0000
,  // measure 87
0200
0000
0000
1000
0000
1300
0000
1000
,  // measure 88
0001
0100
0010
0000
1010
0000
0000
0000
,  // measure 89
1001
0000
0000
0000
;

//---------------dance-single - ----------------
#NOTES:
     dance-single:
     :
     Challenge:
     9:
     0.689,0.686,0.359,0.187,0.113: // measure 1
0000
0000
0000
0000
,  // measure 2
0000
0000
0000
0000
,  // measure 3
0000
0000
0000
0000
,  // measure 4
0000
0000
0000
0000
,  // measure 5
2001
0000
0000
0010
0000
3010
0000
0100
,  // measure 6
0002
0000
0000
0103
0010
0100
0001
0000
,  // measure 7
1002
0000
0000
0100
0000
0103
0000
0010
,  // measure 8
1000
0100
1000
0001
0010
0001
1000
0000
,  // measure 9
1001
0000
0001
0010
0001
1000
0100
0020
,  // measure 10
0000
0000
0000
0031
0010
0100
1000
0000
,  // measure 11
1001
0000
1000
0100
1000
0001
0010
0200
,  // measure 12
0000
0000
0000
1300
0100
0010
0001
0000
,  // measure 13
1001
0000
0001
0100
0001
1000
0100
0020
,  // measure 14
0000
0000
0000
0031
0100
0010
1000
0000
,  // measure 15
1001
0000
1000
0010
1000
0001
0010
0200
,  // measure 16
0000
0000
0000
1300
0010
0100
0001
0000
,  // measure 17
1000
0000
0010
0000
1000
0001
0000
0000
0100
0000
0101
0000
0000
0000
0001
0000
,  // measure 18
1000
0020
0000
0000
0200
0000
0330
0000
,  // measure 19
1000
0100
0001
0010
0100
1000
0010
0001
,  // measure 20
0100
0001
0010
0100
2000
0000
3001
1000
,  // measure 21
0001
0010
1000
0100
0010
0001
0100
1000
,  // measure 22
0010
1000
0100
0010
0001
0000
1001
0000
,  // measure 23
1000
0010
0001
0010
0100
1000
0100
0001
,  // measure 24
1000
0001
0100
0010
1000
0000
0001
1000
,  // measure 25
0001
0100
1000
0100
0010
0001
0010
1000
,  // measure 26
0001
0000
1000
0000
0010
0000
0100
0000
0001
0000
0000
0000
0010
0001
0010
0000
,  // measure 27
0001
0100
0010
1000
0001
1000
0010
0100
,  // measure 28
0001
0000
0100
0000
1000
0001
1000
0000
0002
0000
0000
0000
1003
0100
1000
0100
,  // measure 29
1000
0010
0100
0001
1000
0001
0100
0010
,  // measure 30
1000
0000
0010
0000
0001
1000
0001
0000
1000
0000
0000
0000
1100
0000
0000
0000
,  // measure 31
0001
0010
0100
1000
0100
0001
0010
0001
,  // measure 32
0100
0000
1000
0000
0001
1000
0001
0000
2000
0000
0000
0000
3001
0010
0001
0010
,  // measure 33
0001
0100
0010
1000
0001
1000
0010
0100
,  // measure 34
0001
0000
0100
0000
1000
0001
1000
0000
0001
0000
0000
0000
0011
0000
0000
0000
,  // measure 35
0001
0000
1000
0010
0000
1000
0010
0000
0100
0000
0001
0000
1001
0000
0000
0000
,  // measure 36
0001
0100
0001
1000
0000
0100
0010
0001
,  // measure 37
0000
0010
0100
1000
0100
0001
0100
0000
,  // measure 38
1001
0010
1010
1001
,  // measure 39
1000
0010
1000
1000
0001
0001
0001
0000
,  // measure 40
1000
0010
1000
0001
0000
0010
0100
1000
,  // measure 41
0000
0100
0010
0001
0100
0010
1000
0000
,  // measure 42
1001
0100
0101
1001
,  // measure 43
0001
0100
0001
0001
1000
1000
1000
0000
,  // measure 44
0001
0100
0001
1000
0100
0001
0010
0100
,  // measure 45
0000
1000
0010
0100
0001
0010
0100
0000
,  // measure 46
1001
0100
1100
1001
,  // measure 47
1000
0100
1000
1000
0001
0001
0001
0000
,  // measure 48
1000
0010
1000
0001
0010
1000
0100
0010
,  // measure 49
0000
0001
0100
0010
1000
0100
0010
0000
,  // measure 50
1001
0010
0011
1001
,  // measure 51
0001
0010
0001
0001
1000
1000
1000
0010
,  // measure 52
0100
0000
0101
0000
0001
1000
0100
0020
,  // measure 53
0000
0000
0000
0031
0010
1000
0010
0000
,  // measure 54
0101
0000
1001
0000
1000
0001
0010
0200
,  // measure 55
0000
0000
0000
1300
0100
0001
0100
0000
,  // measure 56
1010
0000
1001
0000
0001
1000
0100
0020
,  // measure 57
0000
0000
0000
0031
0010
1000
0010
0000
,  // measure 58
0011
0000
1001
0000
1000
0001
0010
0200
,  // measure 59
0000
0000
0000
1300
0100
0001
0100
0000
,  // measure 60
1100
0000
1000
0010
1000
0100
0001
0100
,  // measure 61
0000
1000
0001
0010
0100
0000
1100
0000
,  // measure 62
1001
0000
0001
0100
0001
0010
1000
0010
,  // measure 63
0000
0001
1000
0100
0010
0000
0011
0000
,  // measure 64
1001
0000
1000
0001
1000
0010
0001
0010
,  // measure 65
0000
1000
0001
0010
0100
0000
1100
0000
,  // measure 66
1001
0000
0001
1000
0001
0100
1000
0100
,  // measure 67
0001
0010
0100
1000
0001
0000
1001
0000
,  // measure 68
1000
0100
0001
0010
0100
1000
0001
0010
,  // measure 69
1000
0000
0100
0000
0010
0001
0010
0000
0002
0000
0000
0000
1003
0010
1000
0000
,  // measure 70
0001
0010
1000
0100
0010
0001
1000
0100
,  // measure 71
0001
0000
0010
0000
0100
1000
0100
0000
1000
0000
0000
0000
1001
0000
0000
0000
,  // measure 72
1000
0001
0010
1000
0100
0010
0001
0010
,  // measure 73
1000
0000
0100
0000
0010
0000
0001
0000
2000
0000
0000
0000
3001
0100
0001
0100
,  // measure 74
0001
1000
0100
0001
0010
0100
1000
0100
,  // measure 75
0001
0000
0010
0000
0100
0000
1000
0000
0001
0000
0000
0000
0100
0010
0100
0010
,  // measure 76
0100
0001
0010
1000
0100
0001
0010
0100
,  // measure 77
0010
0000
0001
0000
0010
0100
0010
0000
2000
0000
0000
0000
3010
0100
0010
0100
,  // measure 78
0010
1000
0100
0001
0010
1000
0100
0010
,  // measure 79
0100
0000
1000
0000
0100
0010
0100
0000
0001
0000
0000
0000
1001
0000
0000
0000
,  // measure 80
1000
0100
0010
0100
1000
0001
0010
1000
,  // measure 81
0010
0000
0100
0000
0001
0100
0001
0000
2000
0000
0000
0000
3001
1000
0001
1000
,  // measure 82
0001
0010
0100
0010
0001
1000
0100
0001
,  // measure 83
0100
0000
0010
0000
1000
0010
1000
0000
0001
0000
0000
0000
0101
0000
0000
0000
,  // measure 84
2002
0000
0000
3003
,  // measure 85
2010
0000
0000
0000
0000
0000
0001
0000
0000
0000
3001
0000
0000
0000
0100
0001
,  // measure 86
0100
0000
0000
0001
1000
0100
1000
0000
,  // measure 87
0102
0000
0000
0000
0000
0000
1000
0000
0000
0000
1003
0000
0000
0000
0010
1000
,  // measure 88
0010
1000
0001
0000
0101
0000
0000
0000
,  // measure 89
1001
0000
0000
0000
;
