#TITLE:Have a good dream.;
#SUBTITLE:;
#ARTIST:private states;
#TITLETRANSLIT:;
#SUBTITLETRANSLIT:;
#ARTISTTRANSLIT:;
#CREDIT:DMAxel;
#BANNER:Have a good dream..png;
#BACKGROUND:Have a good dream.-bg.png;
#LYRICSPATH:;
#CDTITLE:pop'n music.png;
#MUSIC:Have a good dream..mp3;
#OFFSET:-10.980;
#SAMPLESTART:0.340;
#SAMPLELENGTH:12.000;
#SELECTABLE:YES;
#BPMS:0.000=98.000,4.000=96.000,8.000=98.000,12.000=96.000,14.000=95.000,16.000=107.000,22.000=98.000,24.000=100.000,28.000=97.000,29.750=96.000,32.000=100.000,34.000=103.000,37.000=97.000,39.000=101.000,41.000=92.000,46.000=87.000,47.500=83.000,50.000=60.000,51.000=98.000,78.000=97.000,80.000=90.000,82.000=85.000,84.000=100.000,115.000=95.000,118.000=88.000,120.000=98.000,150.000=87.000,152.000=84.000,154.000=82.000,156.000=85.000,158.000=82.000,160.000=78.000,162.000=70.000,164.000=74.000;
#STOPS:;
#BGCHANGES:-20.000=Have a good dream..avi=1.000=1=1=0,
99999=-nosongbg-=1.000=0=0=0 // don't automatically add -songbackground-
;

//---------------dance-single - ----------------
#NOTES:
     dance-single:
     :
     Hard:
     6:
     0.348,0.304,0.233,0.024,0.020: // measure 1
0100
0000
1100
0000
0010
0001
1000
0010
,  // measure 2
1010
0000
0000
0000
0110
0000
0000
0000
1001
0000
0000
0000
0000
0000
0001
0100
,  // measure 3
0001
0000
0000
1000
0001
0100
0001
0010
,  // measure 4
0200
0000
0010
0000
0310
0000
0001
1000
,  // measure 5
0010
1000
0010
0100
0001
0100
0010
1000
,  // measure 6
0200
0000
0310
0001
0100
0000
0100
0000
,  // measure 7
1001
0000
1000
0001
0100
0000
0001
0100
,  // measure 8
2000
0000
0100
0000
0001
0000
3000
0001
,  // measure 9
0001
0010
0100
1000
0010
0000
0100
0001
,  // measure 10
0010
0100
1000
0001
0100
0000
0010
1000
,  // measure 11
0100
1000
0100
0010
0001
0000
0010
0100
,  // measure 12
1000
0000
0000
0000
0000
0000
0001
0100
0001
0000
0010
0000
0100
0000
1000
0000
,  // measure 13
0100
0010
0001
1000
0010
0000
1000
0100
,  // measure 14
0001
1000
0001
1000
0100
0010
0100
1000
,  // measure 15
0001
0100
0001
1000
0100
0010
0001
0100
,  // measure 16
1000
0001
1000
0001
0010
0100
0010
0001
,  // measure 17
1000
0010
1000
0001
0010
0100
1000
0100
,  // measure 18
0001
1000
0001
1000
0100
0010
0100
1000
,  // measure 19
1001
0000
0000
0000
0101
0000
0000
0000
1100
0000
0000
0000
0000
0000
0010
0001
,  // measure 20
0010
0001
0100
0010
0100
0001
0100
1000
,  // measure 21
0100
0010
0001
1000
0010
0000
0000
0000
,  // measure 22
1010
0000
1010
0000
1001
0000
0000
0010
,  // measure 23
1000
0100
0010
0001
1000
0000
1000
0000
,  // measure 24
1001
0000
0101
0000
0101
0000
0000
0100
,  // measure 25
0001
0000
1000
1000
0010
0000
0000
0100
,  // measure 26
0001
0010
0100
1000
0001
0100
0001
0010
,  // measure 27
0100
1000
0010
0100
0001
0000
1000
0100
,  // measure 28
0001
0000
0010
0100
1000
0010
0100
0001
,  // measure 29
0100
0000
0000
0000
0000
0000
0010
1000
0010
0000
0000
0000
1000
0000
0001
0000
,  // measure 30
0001
1000
1000
0001
0001
1000
1000
0000
,  // measure 31
1001
0000
1100
0000
1001
0100
0010
0001
,  // measure 32
1000
0000
1000
0000
1100
0000
0010
0001
,  // measure 33
1001
0000
0011
0000
1001
0010
0100
1000
,  // measure 34
0001
0000
0001
0000
0011
0000
1000
0100
,  // measure 35
0101
0000
0101
0000
1001
0100
0010
0001
,  // measure 36
1000
0000
0000
0000
1000
0000
0000
0000
1001
0000
0000
0000
1000
0000
0010
1000
,  // measure 37
0010
1000
0001
0010
0011
0000
1010
0000
,  // measure 38
1001
0010
0100
1000
0001
1000
0100
0010
,  // measure 39
0001
0000
0000
0001
1000
0010
1000
0001
,  // measure 40
0010
0100
1000
0001
0010
0100
0010
0001
,  // measure 41
1000
0100
0010
0001
1000
0100
0010
0100
,  // measure 42
1000
0001
0010
0100
1000
0100
0010
0001
,  // measure 43
0100
0000
0000
0000
;

//---------------dance-single - ----------------
#NOTES:
     dance-single:
     :
     Easy:
     2:
     0.108,0.152,0.024,0.145,0.000: // measure 1
0001
0001
0000
0000
,  // measure 2
2000
0000
3001
0000
,  // measure 3
1000
0000
0001
0000
,  // measure 4
2000
0000
3001
0000
,  // measure 5
0001
0000
0001
0000
,  // measure 6
0001
0000
0000
0000
,  // measure 7
1001
0000
1000
0000
,  // measure 8
0001
0000
1000
0000
,  // measure 9
1000
0000
1000
0000
,  // measure 10
0010
0000
0010
0000
,  // measure 11
0100
0000
0100
0000
,  // measure 12
0001
0000
1001
0000
,  // measure 13
0000
0000
0000
0000
,  // measure 14
0001
0000
0001
0000
,  // measure 15
1000
0000
1000
0000
,  // measure 16
0010
0000
0010
0000
,  // measure 17
0100
0000
0100
0000
,  // measure 18
0001
0000
0001
0000
,  // measure 19
0010
0000
0100
0000
,  // measure 20
2000
0000
3002
0000
,  // measure 21
2003
0000
3000
0000
,  // measure 22
0000
0000
0001
0000
,  // measure 23
0000
0000
1000
0000
,  // measure 24
0000
0000
0001
0000
,  // measure 25
0000
0000
0100
0000
,  // measure 26
0000
0000
0010
0000
,  // measure 27
0000
0000
1000
0000
,  // measure 28
0001
0000
1000
0000
,  // measure 29
0002
0000
0203
0000
,  // measure 30
0000
0000
0000
0300
,  // measure 31
0110
0000
1000
0000
,  // measure 32
0002
0000
1003
0100
,  // measure 33
1000
0002
0000
1003
,  // measure 34
0002
0000
1003
0100
,  // measure 35
1000
0020
0000
0130
,  // measure 36
0001
0010
0200
0000
,  // measure 37
2300
0000
3002
0000
,  // measure 38
2003
0000
0000
0000
,  // measure 39
3001
0000
1000
0000
,  // measure 40
0002
0000
0000
0000
,  // measure 41
2003
0000
0000
0000
,  // measure 42
3002
0000
0000
0000
,  // measure 43
0003
0000
0000
0000
;

//---------------dance-single - ----------------
#NOTES:
     dance-single:
     :
     Medium:
     4:
     0.246,0.253,0.096,0.104,0.000: // measure 1
0100
0000
0100
0000
0000
1000
0001
1000
,  // measure 2
0001
0100
1000
0000
,  // measure 3
1001
0000
0000
0001
1000
0001
1000
0000
,  // measure 4
1100
0010
0001
1000
,  // measure 5
0010
1000
0010
1000
0010
0000
0100
0001
,  // measure 6
2000
0000
3001
0000
,  // measure 7
0011
0000
0100
0000
1000
0000
0001
1000
,  // measure 8
0002
0000
1000
0000
1003
0000
0000
0001
,  // measure 9
1000
0000
1000
0010
1000
0000
0001
0010
,  // measure 10
0001
0000
1000
0010
1000
0000
0001
0010
,  // measure 11
0100
0000
1000
0100
0010
0000
0001
0000
,  // measure 12
2000
0000
3001
0010
,  // measure 13
0100
0000
1000
0000
0001
0000
1000
0100
,  // measure 14
0010
0000
0010
0000
0000
0001
1000
0001
,  // measure 15
2000
0000
0000
0000
3100
0000
0010
0001
,  // measure 16
0100
0000
0100
0000
0010
1000
0001
0000
,  // measure 17
2000
0001
3001
1000
,  // measure 18
0010
0000
0110
0000
0000
0001
1000
0001
,  // measure 19
1000
0000
0100
0000
0001
0000
0000
1000
,  // measure 20
0001
0000
0000
0100
0010
0100
0002
0000
,  // measure 21
2000
0000
3003
0000
,  // measure 22
1000
0000
1000
0000
1000
0000
0000
0001
,  // measure 23
0100
0000
0100
0000
0100
0010
0100
0000
,  // measure 24
0001
0000
0001
0000
0001
0000
0000
1000
,  // measure 25
0010
0000
0010
0100
0010
0000
0000
1000
,  // measure 26
0001
0000
0100
0000
1000
0000
0001
1000
,  // measure 27
0001
0000
0100
0000
1000
0000
0001
1000
,  // measure 28
0001
0000
1000
0100
0010
0000
0001
0000
,  // measure 29
2000
0000
0000
0001
3001
0000
1000
0001
,  // measure 30
1000
0001
1000
0001
1000
0001
1000
0000
,  // measure 31
0110
0000
0110
0000
1000
0010
0100
0000
,  // measure 32
0001
0100
1000
0000
1001
0000
0001
0010
,  // measure 33
0100
0000
1000
0100
0001
0000
1100
0000
,  // measure 34
2002
0000
0000
0000
3003
0000
0001
0010
,  // measure 35
0100
0000
1001
0000
0001
0010
0100
0000
,  // measure 36
1000
0100
0001
0000
1001
0000
0000
1000
,  // measure 37
0001
0000
0000
0100
0001
0100
0001
1000
,  // measure 38
0200
0000
0000
0000
0300
0000
1000
0100
,  // measure 39
0001
0000
0000
0010
0100
0000
1000
0000
,  // measure 40
0001
0010
0100
1000
,  // measure 41
1000
0100
0010
0001
,  // measure 42
2002
0000
0000
0000
,  // measure 43
3003
0000
0000
0000
;

//---------------dance-single - ----------------
#NOTES:
     dance-single:
     :
     Beginner:
     1:
     0.051,0.066,0.008,0.000,0.000:
1000
0000
0000
0000
,
0001
0000
0000
0000
,
1000
0000
0001
0000
,
1000
0000
0000
0000
,
0010
0000
0000
0000
,
0010
0000
0000
0000
,
0100
0000
0000
0000
,
0010
0000
0000
0000
,
0010
0000
0000
0000
,
0010
0000
0000
0000
,
0010
0000
0000
0000
,
0000
0000
1000
0000
,
0000
0000
0000
0000
,
0001
0000
0000
0000
,
1000
0000
0000
0000
,
0001
0000
0000
0000
,
0100
0000
0000
0000
,
0100
0000
0000
0000
,
0010
0000
0000
0000
,
0100
0000
0100
0000
,
0100
0000
0000
0000
,
0010
0000
0000
0000
,
0010
0000
0000
0000
,
0010
0000
0000
0000
,
0010
0000
0000
0000
,
1000
0000
0000
0000
,
0001
0000
0000
0000
,
1000
0000
0000
0000
,
1000
0000
0000
0000
,
0000
0000
0000
0000
,
1001
0000
0000
0000
,
0010
0000
0000
0000
,
0001
0000
0000
0000
,
0010
0000
0000
0000
,
0100
0000
0000
0000
,
1000
0000
0000
0000
,
0100
0000
0000
0000
,
1000
0000
0000
0000
,
0001
0000
0001
0000
,
0001
0000
0000
0000
,
1000
0000
0000
0000
,
0001
0000
0000
0000
;
