#TITLE:白鳥の湖;
#SUBTITLE:;
#ARTIST:Swan Lake Orchestra;
#TITLETRANSLIT:HAKUCHOU NO MIZUUMI;
#SUBTITLETRANSLIT:;
#ARTISTTRANSLIT:;
#CREDIT:DMAxel;
#BANNER:HAKUCHOU NO MIZUUMI.png;
#BACKGROUND:HAKUCHOU NO MIZUUMI-bg.png;
#LYRICSPATH:;
#CDTITLE:jubeat.png;
#MUSIC:HAKUCHOU NO MIZUUMI.mp3;
#OFFSET:-9.440;
#SAMPLESTART:29.433;
#SAMPLELENGTH:12.000;
#SELECTABLE:YES;
#BPMS:0.000=180.000,57.000=220.000,157.000=110.000,171.000=220.000,244.000=300.000,276.000=150.000,284.000=128.000,288.000=163.000,299.000=110.000;
#STOPS:56.000=1.000
,243.000=0.545
,298.333=1.472
;
#BGCHANGES:;

//---------------dance-single - ----------------
#NOTES:
     dance-single:
     :
     Easy:
     4:
     0.221,0.309,0.081,0.207,0.013: // measure 1
0200
0000
0000
0000
,  // measure 2
0301
0000
1000
0000
,  // measure 3
0001
0000
0000
0000
,  // measure 4
1000
0000
0000
0000
,  // measure 5
0010
0000
0010
0000
,  // measure 6
0020
0000
0000
0000
,  // measure 7
0230
0000
0000
0000
,  // measure 8
0320
0000
0000
0000
,  // measure 9
1030
0000
1000
0000
,  // measure 10
2000
0000
0000
0000
,  // measure 11
3002
0000
0000
0000
,  // measure 12
2003
0000
0000
0000
,  // measure 13
3010
0000
0100
0000
,  // measure 14
0010
0000
0010
0000
,  // measure 15
0000
1000
0000
0001
,  // measure 16
0000
1000
0000
1000
,  // measure 17
0000
1000
0000
0001
,  // measure 18
0000
1000
0000
0001
,  // measure 19
0000
0100
0000
0010
,  // measure 20
0000
0100
0000
0010
,  // measure 21
0000
0010
0000
0100
,  // measure 22
0000
0001
0000
1000
,  // measure 23
0000
0010
0100
0010
,  // measure 24
0000
0100
0010
0100
,  // measure 25
0000
0010
0100
0010
,  // measure 26
0000
0100
0010
0100
,  // measure 27
0000
0001
1000
0001
,  // measure 28
0000
1000
0001
1000
,  // measure 29
0000
0001
1000
0001
,  // measure 30
0000
1000
0001
1000
,  // measure 31
0000
1000
0000
0001
,  // measure 32
0000
0002
0000
1000
,  // measure 33
0000
1003
0000
0010
,  // measure 34
0000
0100
0000
0010
,  // measure 35
0000
1000
0000
0001
,  // measure 36
0000
0100
0000
0010
,  // measure 37
0000
0100
0000
0001
,  // measure 38
0000
1000
0000
0001
,  // measure 39
0000
1000
0000
0000
,  // measure 40
0000
1002
0000
2003
,  // measure 41
0000
3002
0000
0203
,  // measure 42
0000
0302
0000
2003
,  // measure 43
0000
3200
0000
0310
,  // measure 44
0000
0001
0000
1000
,  // measure 45
0000
0010
0000
0100
,  // measure 46
0000
0001
0000
0010
,  // measure 47
0000
0100
0000
1000
,  // measure 48
0000
0001
0000
1000
,  // measure 49
0000
1000
0000
0010
,  // measure 50
0000
0100
0000
0010
,  // measure 51
0000
0010
0000
1000
,  // measure 52
0000
0001
0000
2000
,  // measure 53
0000
0000
0000
3001
,  // measure 54
0000
1000
0000
0002
,  // measure 55
0000
0000
0000
0103
,  // measure 56
0000
0010
0000
0100
,  // measure 57
0000
0010
0000
0200
,  // measure 58
0000
0000
0000
0000
,  // measure 59
0000
0000
0000
0000
,  // measure 60
0000
0000
0000
0000
,  // measure 61
0000
0000
0000
0300
,  // measure 62
0110
0000
0000
0000
,  // measure 63
0001
0000
1000
0000
,  // measure 64
0001
0000
1001
0000
,  // measure 65
0000
0000
1001
0000
,  // measure 66
0000
1001
0000
1000
,  // measure 67
0000
0001
0000
1000
,  // measure 68
0000
0001
0000
1000
,  // measure 69
0000
0001
0000
0100
,  // measure 70
0020
0000
0000
0000
,  // measure 71
0230
0000
0000
0000
,  // measure 72
0310
0100
0001
1000
,  // measure 73
0001
0000
0000
0000
0000
0100
0000
0000
0010
0000
0000
0000
,  // measure 74
1000
0000
0000
0000
0002
0000
0000
0000
0000
0000
0000
0000
,  // measure 75
0000
0000
1003
1001
,  // measure 76
0000
0110
0110
0220
,  // measure 77
0000
0000
0330
0000
;

//---------------dance-single - ----------------
#NOTES:
     dance-single:
     :
     Medium:
     6:
     0.375,0.481,0.216,0.593,0.081: // measure 1
0010
0000
0010
0100
,  // measure 2
0020
0000
2030
0000
,  // measure 3
3002
0000
0103
0010
,  // measure 4
0200
0000
0000
0000
,  // measure 5
0310
0100
0010
0100
,  // measure 6
0020
0000
0000
0000
,  // measure 7
2030
0000
0000
0000
,  // measure 8
3002
0000
1000
1003
,  // measure 9
0010
0100
0010
0100
,  // measure 10
0020
0000
0000
0000
,  // measure 11
2030
0000
0000
0000
,  // measure 12
3002
0000
1000
0000
,  // measure 13
2003
0000
3020
0000
,  // measure 14
0230
0000
0002
0000
,  // measure 15
0303
0001
1000
0001
,  // measure 16
1000
0002
0000
2003
,  // measure 17
0000
3002
0000
0103
,  // measure 18
0010
0100
0000
0001
,  // measure 19
1000
0020
0000
1030
,  // measure 20
0100
0020
0000
0032
,  // measure 21
0000
2003
0000
3001
,  // measure 22
0100
0001
0000
0001
,  // measure 23
1000
0100
0010
0001
,  // measure 24
1000
0002
0000
1003
,  // measure 25
0000
2000
0000
3001
,  // measure 26
0000
0002
0000
1003
,  // measure 27
0100
0010
0001
0100
,  // measure 28
0001
0200
0000
0301
,  // measure 29
0000
0002
0000
1003
,  // measure 30
0000
2000
0000
3010
,  // measure 31
0000
0020
0000
0130
,  // measure 32
0000
2001
0000
3001
,  // measure 33
0010
0200
0000
2300
,  // measure 34
0000
3002
0000
0103
,  // measure 35
0001
2000
0000
0000
,  // measure 36
3000
1002
0000
1003
,  // measure 37
0100
0020
0000
0032
,  // measure 38
0000
0203
0000
0310
,  // measure 39
0100
0020
0000
0000
,  // measure 40
0030
1001
1000
0002
,  // measure 41
0103
0200
0310
0020
,  // measure 42
1030
0001
0100
0000
0100
0000
0020
0000
,  // measure 43
1030
2000
3001
0002
,  // measure 44
0000
0203
0000
1300
,  // measure 45
0000
1001
0000
2000
,  // measure 46
0000
3200
0000
0301
,  // measure 47
0000
1001
0000
0002
,  // measure 48
0000
0203
0000
1300
,  // measure 49
0000
0110
0000
2000
,  // measure 50
0000
3200
0000
0301
,  // measure 51
0000
0110
0000
0001
,  // measure 52
0000
1000
0000
0010
0000
0000
0000
0010
0000
0200
0000
0000
,  // measure 53
0000
0000
0000
0301
,  // measure 54
0000
0001
0000
0100
0000
0000
0000
0100
0000
0020
0000
0000
,  // measure 55
0000
0000
0000
0000
0000
0000
0030
1000
0000
0001
0000
0000
,  // measure 56
0000
1000
0000
0001
0000
0000
0000
0001
0000
1000
0000
0000
,  // measure 57
0000
0001
0000
1000
0000
0000
0000
1000
0000
0002
0000
0000
,  // measure 58
0000
0203
0000
2300
,  // measure 59
0000
3020
0000
0032
,  // measure 60
0000
2003
0000
3002
,  // measure 61
0000
0000
0000
0003
,  // measure 62
2002
0000
3003
0000
,  // measure 63
1000
0010
0100
0001
,  // measure 64
1000
0000
1001
0000
,  // measure 65
0001
0000
1001
0000
,  // measure 66
1000
1001
0000
1100
,  // measure 67
0000
0011
0000
1100
,  // measure 68
0000
0011
0000
1001
,  // measure 69
0000
0110
0000
0001
,  // measure 70
2000
0000
0000
0000
3001
0010
0100
1000
,  // measure 71
0002
0000
0000
1000
1003
0000
1000
0000
,  // measure 72
1100
0000
0101
0000
1100
0000
0001
0100
,  // measure 73
1000
0000
0010
0000
0100
0000
0001
0000
0100
0000
0010
0000
,  // measure 74
1000
0000
0000
0000
0010
0000
0100
0000
0010
0000
0100
0000
,  // measure 75
0010
0000
1000
0000
0001
0000
1000
0000
0000
1001
0000
0000
,  // measure 76
0000
1100
1001
2020
,  // measure 77
0000
0000
3030
0000
;

//---------------dance-single - ----------------
#NOTES:
     dance-single:
     :
     Hard:
     8:
     0.565,0.687,0.296,0.530,0.225: // measure 1
0001
0000
1000
0000
0100
0010
0100
0000
,  // measure 2
2000
0000
0000
3001
0200
0000
0000
0301
,  // measure 3
2000
0000
0000
3001
0100
0010
0100
0000
,  // measure 4
0001
0010
0100
0010
,  // measure 5
0001
0000
0101
0000
1100
0000
0010
0100
,  // measure 6
0020
0000
0000
1030
0001
0000
0100
0010
,  // measure 7
0200
0000
0000
0301
1000
0000
0010
0100
,  // measure 8
0020
0000
1030
0010
,  // measure 9
1000
0000
1100
0000
0101
0000
0010
0100
,  // measure 10
0020
0000
0000
1030
0001
0000
0100
0010
,  // measure 11
0200
0000
0000
0301
1000
0000
0010
0100
,  // measure 12
0020
0000
0000
1030
0001
0000
0100
0010
,  // measure 13
0200
0000
0302
0000
,  // measure 14
2003
0000
0200
0000
,  // measure 15
3300
0000
1001
0000
0001
0000
1000
0010
,  // measure 16
0100
0001
2000
0000
0000
3001
0200
0000
,  // measure 17
0000
0301
0020
0000
0000
0031
1000
0100
,  // measure 18
0010
0000
0001
0000
1000
0000
0001
0100
,  // measure 19
0010
1000
0002
0000
0000
0000
1003
0100
,  // measure 20
0010
0001
0200
0000
0000
0301
0020
0000
,  // measure 21
0000
0031
2000
0000
0000
3001
0100
0010
,  // measure 22
1000
0001
1000
0000
0010
0000
1000
0000
,  // measure 23
0001
0101
0101
1000
,  // measure 24
0001
0010
0200
0000
0000
0010
0310
0000
,  // measure 25
1000
0100
0020
0000
0000
0100
0130
0000
,  // measure 26
0001
0010
0200
0000
0000
1300
0001
0010
,  // measure 27
0100
1010
1010
0001
,  // measure 28
1000
0100
0020
0000
0000
0100
0130
0000
,  // measure 29
0001
0010
0200
0000
0000
0010
0310
0000
,  // measure 30
1000
0100
0020
0000
0000
0100
0130
0000
,  // measure 31
0001
0010
0200
0000
0000
0010
0310
0000
,  // measure 32
0000
1000
0002
0000
1000
0000
1003
0100
,  // measure 33
0010
0101
1000
1100
,  // measure 34
0001
0000
1002
0000
0000
1003
0100
0010
,  // measure 35
0001
0100
0001
0000
1000
0000
0100
1000
,  // measure 36
0001
0010
0200
0000
0000
0000
0301
0010
,  // measure 37
0100
1000
0020
0000
0000
1030
0002
0000
,  // measure 38
0000
0103
0020
0000
0000
1030
0001
0010
,  // measure 39
0100
1000
0020
0000
0000
0000
0000
0000
,  // measure 40
1030
0000
0000
0000
0001
0000
0100
0000
0001
0000
1000
0100
0020
0000
0000
0000
,  // measure 41
0130
0001
2000
0000
3010
0100
0002
0000
,  // measure 42
1003
0100
0010
0001
1000
0000
0010
0000
1000
0000
0001
0010
0200
0000
0000
0000
,  // measure 43
0310
0000
0000
1000
0000
0000
0002
0000
0000
0000
0000
0000
1003
0000
0000
0010
0000
0000
0100
0000
0000
0000
0001
0000
,  // measure 44
0000
0100
0000
0001
0000
1000
0000
0100
0000
1000
0000
0000
,  // measure 45
0000
0000
0000
1001
0000
0000
0000
0000
0000
0010
0000
1000
,  // measure 46
0000
0010
0000
1000
0000
0001
0000
0010
0000
0001
0000
0000
,  // measure 47
0000
0000
0000
1001
0000
0000
0000
0000
0000
0100
0000
0001
,  // measure 48
0000
0100
0000
0010
0000
1000
0000
0100
0000
0010
0000
0000
,  // measure 49
0000
0000
0000
0110
0000
0000
0000
0000
0000
0010
0000
1000
,  // measure 50
0000
0010
0000
0100
0000
0001
0000
0010
0000
0100
0000
0000
,  // measure 51
0000
0000
0000
0110
0000
0000
0000
0000
0000
0100
0000
0001
,  // measure 52
0000
1000
0000
0100
0000
1000
0000
0001
0000
0200
0000
0000
,  // measure 53
0000
0000
0000
0001
0000
0000
0000
0000
0000
0310
0000
1000
,  // measure 54
0000
0001
0000
0010
0000
0001
0000
1000
0000
0020
0000
0000
,  // measure 55
0000
0000
0000
1030
0000
0000
0000
1000
0000
0001
0000
0000
,  // measure 56
0000
0001
0000
0100
0000
0000
0000
0100
0000
1000
0000
0000
,  // measure 57
0000
1000
0000
0100
0000
0000
0000
0100
0000
0002
0000
0000
,  // measure 58
0023
0230
2300
3002
,  // measure 59
0203
0302
2003
3200
,  // measure 60
0320
0032
2003
3020
,  // measure 61
2030
0000
0000
3000
,  // measure 62
0001
0010
0001
0010
,  // measure 63
0001
1000
0100
0001
,  // measure 64
0100
0000
1001
0001
,  // measure 65
1000
0000
1001
1000
,  // measure 66
0001
0011
0000
1010
,  // measure 67
0000
0101
0000
1001
,  // measure 68
0000
1100
0000
0101
,  // measure 69
0000
1010
0000
1001
,  // measure 70
0200
0000
0000
0000
0301
0010
1000
0010
,  // measure 71
0002
0000
0000
0100
0103
0000
0010
1000
,  // measure 72
1001
0000
1100
0000
0101
0000
0010
1000
,  // measure 73
0001
0000
0100
0001
0100
0000
0010
1000
0010
0000
0100
0001
,  // measure 74
0010
0000
0000
0000
0100
1000
0100
1000
0100
0010
0001
0010
,  // measure 75
0001
0010
0001
1000
0010
0100
0001
1000
0000
1001
0000
0000
,  // measure 76
0000
1100
0011
0220
,  // measure 77
0000
0000
0330
0000
;

//---------------dance-single - ----------------
#NOTES:
     dance-single:
     :
     Challenge:
     9:
     0.621,0.756,0.314,0.225,0.296: // measure 1
0101
0000
1000
0000
0001
0010
0100
1000
,  // measure 2
0001
0000
0001
0100
0001
0000
0001
0100
,  // measure 3
0001
0000
1000
0100
0010
0001
1000
0010
,  // measure 4
0100
0001
0001
1000
,  // measure 5
0110
0000
0110
0000
0110
0000
0001
0100
,  // measure 6
1000
0000
1000
0100
0001
0000
1000
0010
,  // measure 7
0001
0000
0001
0010
1000
0000
0001
0100
,  // measure 8
1000
0000
0100
1000
0001
0010
0100
1000
,  // measure 9
0010
0000
0110
0000
0110
0000
1000
0100
,  // measure 10
0001
0000
0001
0100
1000
0000
0001
0010
,  // measure 11
1000
0000
1000
0010
0001
0000
1000
0100
,  // measure 12
0001
0000
0100
0001
1000
0100
0010
0001
,  // measure 13
2000
0100
3002
0100
,  // measure 14
2003
0100
0002
0000
,  // measure 15
3003
0000
1100
0000
0001
0000
1000
0100
,  // measure 16
0010
0001
1000
0000
1000
0010
1000
0000
,  // measure 17
1000
0010
1000
0000
0010
1000
0001
0010
,  // measure 18
0100
1000
0001
0000
0001
0000
1000
0001
,  // measure 19
0010
0100
1000
0000
1000
0000
0001
0100
,  // measure 20
0010
1000
0001
0000
0001
0010
0001
0000
,  // measure 21
0001
0010
0001
0000
0010
0001
1000
0100
,  // measure 22
0010
0001
1000
0000
1000
0000
0001
0000
,  // measure 23
0001
0110
0110
0110
,  // measure 24
1000
0100
0001
0000
0001
0100
1000
0000
,  // measure 25
0001
0010
1000
0000
1000
0010
0001
0000
,  // measure 26
1000
0100
0001
0000
0100
0001
1000
0100
,  // measure 27
0010
0110
0110
0110
,  // measure 28
0001
0100
1000
0000
1000
0100
0001
0000
,  // measure 29
1000
0010
0001
0000
0001
0010
1000
0000
,  // measure 30
0001
0100
1000
0000
1000
0100
0001
0000
,  // measure 31
1000
0010
0001
0000
0001
0010
1000
0000
,  // measure 32
0010
0100
0001
0000
0001
0000
0001
0100
,  // measure 33
0001
1000
0100
0000
1000
0100
0010
0000
,  // measure 34
0001
0100
0001
0000
0001
1000
0100
0010
,  // measure 35
0001
1000
0010
0000
0100
0000
0010
1000
,  // measure 36
0001
0010
0100
0000
1000
0000
1000
0010
,  // measure 37
1000
0001
0010
0000
0001
0010
0100
0000
,  // measure 38
1000
0010
1000
0000
1000
0001
0010
0100
,  // measure 39
1000
0001
0200
0000
0010
0000
0010
0000
,  // measure 40
0310
0000
0000
0000
0100
0000
0001
0000
0100
0000
0001
0100
1000
0000
0000
0100
,  // measure 41
0010
0000
0001
0100
1000
0000
0000
0100
0010
0000
0001
0100
1000
0000
0000
0100
,  // measure 42
1000
0001
0100
0001
0100
0000
0001
0000
0100
0000
0001
0100
1000
0000
0000
0100
,  // measure 43
0010
0000
0000
0000
0000
0000
0001
0000
0000
0100
0000
0000
1000
0000
0000
0000
0000
0000
0000
0000
0000
0100
0000
0000
0010
0000
0000
0000
0000
0000
0001
0000
0000
0100
0000
0000
0010
0000
0000
0000
0000
0000
0000
0000
0100
0000
0000
0000
,  // measure 44
0000
0010
0000
0100
0000
0001
0000
0010
0000
0100
0000
0000
,  // measure 45
1000
0000
0000
1001
0000
0000
0001
0000
0000
0100
0000
0010
,  // measure 46
0000
0100
0000
0010
0000
1000
0000
0100
0000
0010
0000
0000
,  // measure 47
0001
0000
0000
1001
0000
0000
1000
0000
0000
0010
0000
1000
,  // measure 48
0000
0001
0000
0010
0000
0001
0000
1000
0000
0100
0000
0000
,  // measure 49
0100
0000
0000
1001
0000
0000
0000
0000
0000
0010
0000
0001
,  // measure 50
0000
1000
0000
0010
0000
1000
0000
0001
0000
0100
0000
0000
,  // measure 51
0100
0000
0000
1001
0000
0000
0000
0000
0000
1000
0000
0010
,  // measure 52
0000
0100
0000
0001
0000
0100
0000
1000
0000
0200
0000
0000
,  // measure 53
0000
0000
0000
0001
0000
0000
0000
0000
0000
0301
0000
0100
,  // measure 54
0000
0010
0000
1000
0000
0100
0000
0001
0000
0200
0000
0000
,  // measure 55
0000
0000
0000
1000
0000
0000
0000
1300
0000
1001
0000
0000
,  // measure 56
0000
0001
0000
0101
0000
0000
0000
1000
0000
1100
0000
0000
,  // measure 57
0000
0001
0000
1001
0000
0000
0000
1000
0000
0002
0000
0000
,  // measure 58
0203
2300
3200
0320
,  // measure 59
0032
0203
2300
3200
,  // measure 60
0320
0032
2003
3200
,  // measure 61
0302
1000
1000
1003
,  // measure 62
0010
1000
0010
0000
1000
0000
0010
0000
,  // measure 63
1000
0001
1000
0000
0001
0100
0001
0100
,  // measure 64
0001
0000
1001
1000
,  // measure 65
0010
0000
0101
0001
,  // measure 66
1000
1100
0000
0011
,  // measure 67
0000
1100
0000
1001
,  // measure 68
0000
0101
0000
1010
,  // measure 69
0000
0101
0000
1001
,  // measure 70
0200
0000
0000
0000
0310
1000
0100
0001
,  // measure 71
0200
0000
0000
0000
0000
0000
0010
0000
0310
0000
0000
0000
1000
0001
1000
0001
,  // measure 72
1000
0000
0010
1000
0010
0000
1000
0010
0100
0000
0001
0100
0001
0100
0010
1000
,  // measure 73
0100
0000
0010
0001
0010
0000
0001
0010
0100
0000
1000
0100
,  // measure 74
1000
0000
0000
0000
0100
1000
0100
0010
0001
0100
0010
0100
,  // measure 75
0001
0010
0100
1000
0100
0001
0100
1000
0000
1001
0000
0000
,  // measure 76
0000
0101
0101
2200
,  // measure 77
0000
0000
3300
0000
;

//---------------dance-single - ----------------
#NOTES:
     dance-single:
     :
     Beginner:
     2:
     0.104,0.136,0.045,0.000,0.000: // measure 1
0001
0000
0000
0000
,  // measure 2
1000
0000
0000
0000
,  // measure 3
0001
0000
0000
0000
,  // measure 4
0000
0000
0000
0000
,  // measure 5
1000
0000
0000
0000
,  // measure 6
0001
0000
0000
0000
,  // measure 7
1000
0000
0000
0000
,  // measure 8
1000
0000
0000
0000
,  // measure 9
0001
0000
0000
0000
,  // measure 10
1000
0000
0000
0000
,  // measure 11
0001
0000
0000
0000
,  // measure 12
0001
0000
0000
0000
,  // measure 13
0001
0000
0000
0000
,  // measure 14
1000
0000
0000
0000
,  // measure 15
0000
1000
0000
0000
,  // measure 16
0000
0001
0000
0000
,  // measure 17
0000
1000
0000
0000
,  // measure 18
0000
0000
0000
0000
,  // measure 19
0000
0001
0000
0000
,  // measure 20
0000
1000
0000
0000
,  // measure 21
0000
0001
0000
0000
,  // measure 22
0000
0000
0000
0000
,  // measure 23
0000
0100
0000
0000
,  // measure 24
0000
0100
0000
0000
,  // measure 25
0000
0100
0000
0000
,  // measure 26
0000
0100
0000
0000
,  // measure 27
0000
0010
0000
0000
,  // measure 28
0000
0010
0000
0000
,  // measure 29
0000
0010
0000
0000
,  // measure 30
0000
0010
0000
0000
,  // measure 31
0000
1000
0000
0000
,  // measure 32
0000
1001
0000
0000
,  // measure 33
0000
1000
0000
0000
,  // measure 34
0000
1000
0000
0000
,  // measure 35
0000
0000
0000
0000
,  // measure 36
0000
0001
0000
0000
,  // measure 37
0000
0001
0000
0000
,  // measure 38
0000
0001
0000
0000
,  // measure 39
0000
0000
0000
0000
,  // measure 40
0000
1001
0000
0000
,  // measure 41
0000
0000
0000
0000
,  // measure 42
0000
1000
0000
0000
,  // measure 43
0000
0000
0000
0001
,  // measure 44
0000
0001
0000
0001
,  // measure 45
0000
0000
0000
1000
,  // measure 46
0000
1000
0000
1000
,  // measure 47
0000
0000
0000
0001
,  // measure 48
0000
0001
0000
0001
,  // measure 49
0000
0000
0000
1000
,  // measure 50
0000
1000
0000
1000
,  // measure 51
0000
0000
0000
0001
,  // measure 52
0000
1000
0000
0001
,  // measure 53
0000
0000
0000
1000
,  // measure 54
0000
0001
0000
1000
,  // measure 55
0000
0000
0000
0001
,  // measure 56
0000
0001
0000
1000
,  // measure 57
0000
1000
0000
0010
,  // measure 58
0000
0000
0000
0000
,  // measure 59
0000
0000
0000
0000
,  // measure 60
0000
0000
0000
0000
,  // measure 61
0000
0000
0000
0000
,  // measure 62
1000
0000
0000
0000
,  // measure 63
0000
0000
0000
0000
,  // measure 64
0000
0000
0001
0000
,  // measure 65
0000
0000
1000
0000
,  // measure 66
0000
0001
0000
0001
,  // measure 67
0000
0001
0000
0001
,  // measure 68
0000
1000
0000
1000
,  // measure 69
0000
1000
0000
1000
,  // measure 70
0000
0000
0000
0000
,  // measure 71
0000
0000
0000
0000
,  // measure 72
1001
0000
0000
0000
,  // measure 73
0110
0000
0000
0000
,  // measure 74
0000
0010
0000
0000
,  // measure 75
0000
0000
0000
1000
,  // measure 76
0000
0001
0000
1001
;
