#TITLE:GRAIN;
#SUBTITLE:(Sunaga t Experience Remix);
#ARTIST:蓜島邦明;
#TITLETRANSLIT:;
#SUBTITLETRANSLIT:;
#ARTISTTRANSLIT:Kuniaki Haishima;
#CREDIT:Kyon;
#BANNER:GRAIN (Sunaga t Experience Remix).png;
#BACKGROUND:GRAIN (Sunaga t Experience Remix)-bg.png;
#LYRICSPATH:;
#CDTITLE:Dj DMA Original Simfile.png;
#MUSIC:GRAIN (Sunaga t Experience Remix).mp3;
#OFFSET:-0.760;
#SAMPLESTART:64.240;
#SAMPLELENGTH:12.000;
#SELECTABLE:YES;
#BPMS:0.000=120.000;
#STOPS:;
#BGCHANGES:-0.760=GRAIN (Sunaga t Experience Remix).avi=1.000=1=0=1,
99999=-nosongbg-=1.000=0=0=0 // don't automatically add -songbackground-
;

//---------------dance-single - ----------------
#NOTES:
     dance-single:
     :
     Easy:
     2:
     0.186,0.221,0.117,0.168,0.000:
0000
0000
0000
0000
,
0000
0000
0000
0000
,
0000
0000
0000
0000
,
0000
0000
0000
0001
,
0000
1000
0000
0001
,
0000
0010
0000
0100
,
0000
1000
0000
0100
,
0000
0010
0000
1001
,
0000
0010
0000
0200
,
0000
0000
0000
0320
,
0000
0000
0000
2030
,
0000
0000
0000
3002
,
0000
0000
0000
0023
,
0000
0000
0000
0031
,
0010
0001
0000
1000
,
0001
1000
0000
0010
,
0100
0010
1000
0001
,
1000
0010
0000
1000
,
0010
1000
0000
0001
,
0100
0001
0000
1000
,
0100
1000
0000
0001
,
0010
0001
0000
0100
,
0010
0100
0000
1001
,
0010
0100
0010
1001
,
0000
0000
0010
0200
,
0000
0000
0000
0301
,
0000
0000
1010
0100
,
0000
0000
0000
0110
,
0000
0000
0011
0010
,
0000
0000
0000
0110
,
0000
0000
1000
0100
,
0000
0000
0000
2001
,
0000
0000
0000
3001
,
0000
0000
0010
0200
,
0000
0000
0310
0200
,
0000
0000
0301
0020
,
0000
0031
0100
0020
,
0000
0000
1030
0200
,
0000
0310
0002
0000
,
0000
1003
0010
1002
,
0000
0000
1003
2000
,
0000
0000
0000
3020
,
0000
0000
0130
0200
,
0000
0000
0000
0301
,
0010
0100
1000
0100
,
0010
1001
0000
0020
,
0000
0000
0000
2030
,
0000
0000
0000
3001
,
0000
0000
0110
2000
,
0000
0000
0000
3001
,
0000
0000
0010
0100
,
0000
0000
0000
1000
,
0100
0010
0001
0010
,
0100
1000
0000
1001
,
0000
0000
0100
0020
,
0000
0000
0000
1030
,
0100
0010
0001
0010
,
0100
1001
0000
0200
,
0000
0000
0000
0320
,
0000
0000
0000
1030
,
1000
0100
0100
0010
,
0010
0001
0001
0010
,
0010
0100
0100
1000
,
1000
0001
0001
1001
,
0000
0000
0000
0110
,
0000
0000
0000
1001
,
0000
0000
0000
1000
,
0100
0000
0010
0001
0000
0000
0000
0000
;

//---------------dance-single - ----------------
#NOTES:
     dance-single:
     :
     Hard:
     5:
     0.277,0.320,0.139,0.226,0.073: // measure 1
0000
0000
0000
0000
,  // measure 2
0000
0000
0000
0000
,  // measure 3
0000
0000
0000
0000
,  // measure 4
0000
0000
0000
0000
0000
0000
0000
0000
0000
0000
0000
0000
0010
0000
0000
0010
,  // measure 5
0000
0000
0010
0000
0000
0000
0000
1000
0000
0000
0001
0000
1000
0000
0000
0010
,  // measure 6
0000
0100
0010
0000
1000
0000
0001
0000
,  // measure 7
0100
0000
0000
0000
0010
0000
0000
0100
0000
0000
0010
0000
0000
0000
0000
1000
,  // measure 8
0000
0001
1000
0000
0010
0000
0110
0000
,  // measure 9
1000
0001
1000
0002
,  // measure 10
0000
0000
0000
2003
,  // measure 11
0000
0000
0000
3200
,  // measure 12
0000
0000
0000
0320
,  // measure 13
0000
0000
0000
0032
,  // measure 14
0000
0000
0000
0000
0000
0000
0000
0000
0000
0000
0000
0000
0103
0000
0000
0100
,  // measure 15
0000
0000
0100
0000
0000
0000
0000
0000
0001
0000
0000
0000
0010
0000
0000
0010
,  // measure 16
0000
0000
0010
0000
0000
0000
0000
0001
1000
0000
0010
0000
1001
0000
0000
0000
,  // measure 17
1000
0100
1000
0000
0100
0000
0010
0100
,  // measure 18
0010
0000
0100
0000
0010
0000
0001
0010
,  // measure 19
0001
0000
0100
0000
0001
0000
0010
0001
,  // measure 20
0010
0000
0000
0000
0000
0000
0001
0000
0000
0100
0000
0000
1001
0000
0000
0000
,  // measure 21
0010
0001
1000
0000
0100
0000
1000
0010
,  // measure 22
0100
0000
0010
0000
0100
0000
0001
1000
,  // measure 23
0001
0000
0000
0000
0010
0000
0000
0000
0001
0000
0000
0010
0000
0001
0000
1000
,  // measure 24
0000
0100
0000
0010
0000
0001
0000
1000
0000
0001
0000
0000
0201
0000
0000
0000
,  // measure 25
0000
0000
0301
0002
,  // measure 26
0000
0000
0000
0203
,  // measure 27
0000
0000
0310
2000
,  // measure 28
0000
0000
0000
3020
,  // measure 29
0000
0000
1030
1002
,  // measure 30
0000
0000
0000
0203
,  // measure 31
0000
0000
0310
2001
,  // measure 32
0000
0000
3001
1001
,  // measure 33
0100
0000
0000
0100
0001
0000
0000
0000
1001
0000
0000
0000
0100
0000
0000
0000
,  // measure 34
0010
0000
0000
1000
0001
0000
0000
0000
1000
0000
0000
0000
0002
0000
0000
0000
,  // measure 35
0000
0000
1003
0020
,  // measure 36
0000
0000
0130
0002
,  // measure 37
0000
1003
0010
0200
,  // measure 38
0000
0000
0310
2000
,  // measure 39
0000
3001
0010
0002
,  // measure 40
0000
1003
0010
0120
,  // measure 41
0100
0100
0130
2001
,  // measure 42
0001
0001
3001
0102
,  // measure 43
0100
0100
0103
1020
,  // measure 44
1000
1000
1030
0100
,  // measure 45
0010
0001
0100
0010
,  // measure 46
0100
1001
0000
2000
,  // measure 47
0000
0000
0000
3020
,  // measure 48
0000
0000
0000
0130
,  // measure 49
0000
0000
1001
0200
,  // measure 50
0000
0000
0000
0320
,  // measure 51
0000
0000
1030
0002
,  // measure 52
0000
0000
0000
0103
,  // measure 53
0001
1000
0010
1000
,  // measure 54
0001
0100
0000
1001
,  // measure 55
0000
0000
0001
2000
,  // measure 56
0000
0000
0000
3010
,  // measure 57
0100
0001
0010
0100
,  // measure 58
1000
1001
0000
0002
,  // measure 59
0000
0000
0000
2003
,  // measure 60
0000
0000
0000
0000
0000
0000
3010
0100
,  // measure 61
0010
0000
1000
0001
1000
0000
0001
0010
,  // measure 62
0001
0000
1000
0100
1000
0000
0001
0100
,  // measure 63
0001
0000
1000
0010
1000
0000
0001
0100
,  // measure 64
0010
0000
1000
0010
0100
0000
1001
0000
,  // measure 65
0010
0000
0100
0001
1000
0000
1001
0000
,  // measure 66
0010
0000
1000
0010
0100
0000
1001
0000
,  // measure 67
0010
0100
0010
1000
0001
0000
0100
0010
,  // measure 68
1000
0000
0010
0000
0100
0000
0001
1000
0000
0000
0000
0000
0000
0000
0000
0000
;

//---------------dance-single - ----------------
#NOTES:
     dance-single:
     :
     Challenge:
     7:
     0.381,0.369,0.270,0.168,0.234:
0000
0000
0000
0000
,
0000
0000
0000
0000
,
0000
0000
0000
0000
,
0000
0000
0000
0000
0000
0000
0000
0000
0000
0000
0000
0000
0100
0000
0000
0010
,
0000
0000
0100
0000
0010
0000
0000
1000
0000
0000
0001
0000
1000
0000
0000
0100
,
0000
0000
1000
0000
0100
0000
0000
0000
0010
0000
0001
0000
0100
0000
0000
0010
,
0000
0000
1000
0000
0001
0000
0000
0010
0000
0000
0001
0000
0010
0000
0000
0100
,
0000
0000
1000
0000
0010
0000
0000
0000
0100
0000
0010
0000
1001
0000
0000
0010
,
0000
0000
0100
0000
0001
0000
0000
0010
0000
0000
0001
0000
0200
0000
0000
0000
,
0000
0310
0100
0001
,
0000
1000
0000
0010
0000
0100
0000
0001
0000
0100
0000
0010
0000
1000
0000
0000
,
0000
0000
1000
0001
0000
0000
0000
0000
0000
0000
0010
0000
0001
0000
0000
0010
,
0000
0001
0000
0000
0000
0000
0000
0000
,
1001
0000
0000
0000
0010
0000
0000
0100
0000
0000
0001
0000
1000
0000
0000
0001
,
0000
0000
0010
0000
0001
0000
0000
0100
0000
0000
0010
0000
1000
0000
0000
0001
,
0000
0000
0010
0000
0001
0000
0000
0100
0010
0000
0100
0000
1001
0000
0000
0000
,
0010
0100
0000
0000
0010
0100
0001
0010
,
0001
1000
0000
0000
0010
0100
0001
1000
,
0010
0100
0000
0000
0010
0000
0100
0010
,
1000
0000
0001
0000
0000
0000
0010
0000
0000
0001
0000
0000
1000
0000
0100
0000
,
0010
0000
0001
0000
0000
0000
0000
0000
0100
0000
0010
0000
0100
0000
0000
0010
,
0000
0000
1000
0000
0000
0000
0000
0000
0001
0000
0100
0000
0010
0000
0000
0100
,
0000
0000
0010
0000
0000
0000
0000
0000
1000
0000
0100
0000
1000
0000
0000
0001
,
0000
0010
0000
0001
0000
0100
0000
0010
0000
0100
0000
0000
2001
0000
0000
0000
,
0000
0000
0010
0000
0000
0000
0000
0000
3010
0000
0000
0000
0200
0000
0000
0001
,
0000
0001
0000
0000
0300
0000
0002
0000
,
0000
0000
1000
0000
0000
0000
0000
0000
1003
0000
0000
0000
0200
0000
0000
0010
,
0000
0010
0000
0000
0300
0000
0002
0000
,
0000
0000
0010
0000
0000
0000
0000
0000
0013
0000
0000
0000
0200
0000
0000
0010
,
0000
0010
0000
0000
0300
0000
0002
0000
,
0000
1000
0000
0000
1003
0000
0200
0000
,
0000
0000
0310
1001
,
1000
0000
0000
1000
0100
0000
0000
0000
0110
0000
0000
0000
0001
0000
0000
0000
,
1001
0000
0000
0010
0100
0000
0000
0000
0010
0000
0000
0000
1001
0000
0000
0000
,
0100
0000
0000
0010
0100
0000
0000
0000
0010
0000
0000
0000
1001
0000
0000
0000
,
0010
0000
0000
0100
0010
0000
0000
0000
0100
0000
0000
0000
1001
0000
0000
0000
,
0001
0000
0000
1000
0001
0000
0000
0000
1000
0000
0000
0000
1001
0000
0000
0010
,
0000
0100
0000
0010
0100
0010
1001
0000
,
1000
0000
0000
0001
1000
0000
0000
0000
0011
0000
0000
0000
1100
0000
0000
0010
,
0000
0001
0000
0010
0000
0100
0000
1000
0000
0001
0000
0000
2002
0000
0000
0000
,
0000
0000
0000
0000
3003
0000
0010
0000
0000
0001
0000
0000
2200
0000
0000
0000
,
0000
0000
3300
0000
0010
0000
0000
0100
0000
0000
0010
0000
0202
0000
0000
0000
,
0000
0303
1001
2020
,
0000
0000
3030
0001
,
0010
0100
1000
0100
,
0010
1001
0000
0001
,
0100
0000
0000
0000
0000
0001
1000
0000
0010
0000
0000
0000
0100
0000
0000
0001
,
0010
0000
0000
0000
0001
0000
0000
1000
0010
0000
0100
0000
0022
0000
0000
0000
,
0000
0000
0033
0000
1001
0000
1100
0010
,
0100
0000
0001
0010
0100
1000
0022
0000
,
0000
0033
1100
1001
,
0010
0000
0100
0001
0100
0010
1100
0000
,
0100
0110
0001
0011
,
0100
1001
0010
0100
,
0001
0000
0100
0010
0100
0000
0001
0000
,
1000
0000
0000
0000
0001
0000
0000
0100
0010
0000
0100
0000
1001
0000
0000
0000
,
0100
0011
0001
0110
,
0100
0000
1001
0020
0000
0000
0230
0000
,
0000
0000
0000
0000
0000
0000
0301
0010
,
0000
0000
0010
0000
0001
0000
0000
1000
0001
1000
0001
0000
0100
0000
0000
0010
,
0000
0000
1000
0000
0000
0000
1000
0000
0100
0000
0010
0000
0001
0000
0000
0010
,
0000
0000
0001
0000
0000
0000
0001
0000
0010
0000
0100
0000
1000
0000
0000
0010
,
0000
0000
0100
0000
0000
0000
0100
0000
0010
0000
1000
0000
0001
0000
0000
0010
,
0000
0000
0001
0000
0000
0000
0001
0000
0010
0000
0100
0000
1001
0000
0000
0010
,
0000
0000
1000
0000
0000
0000
1000
0000
0010
0000
0100
0000
1001
0000
0000
0100
,
0000
0000
0001
0000
0100
0000
0010
0000
1000
0000
0000
0000
1001
0000
0000
0010
,
0000
0000
1000
0000
0000
0000
1000
0000
0010
0000
0100
0000
0001
0000
0000
0010
,
0000
0000
0001
0000
1000
0000
0010
0100
0000
0000
0000
0000
0000
0000
0000
0000
;

//---------------dance-single - ----------------
#NOTES:
     dance-single:
     :
     Medium:
     4:
     0.234,0.320,0.124,0.270,0.000:
0000
0000
0000
0000
,
0000
0000
0000
0000
,
0000
0000
0000
0000
,
0000
0000
0000
0100
,
0010
0100
0001
0010
,
0001
1000
0100
1000
,
0001
1000
0001
0100
,
0010
0100
0001
1001
,
0100
0010
0100
0020
,
0000
0000
0000
0230
,
0000
0000
0000
0302
,
0000
0000
0000
2003
,
0000
0000
0000
3200
,
0000
0000
0000
2300
,
0000
3010
0010
2000
,
0000
3020
0000
0130
,
0100
0001
0100
0000
0001
0000
1000
0001
,
1000
0000
1001
0000
0100
0000
0001
0100
,
0001
0000
0110
0000
1000
0000
0010
0100
,
0002
0000
0000
1003
,
0010
0000
0100
0000
0010
0000
0100
0010
,
0100
0000
0001
0000
1000
0000
0010
0100
,
0010
0100
0001
0220
,
0000
0000
0330
2000
,
0000
0000
3000
0020
,
0000
0000
0000
2030
,
0000
0000
3000
0020
,
0000
0000
0000
2030
,
0000
0000
3000
0020
,
0000
0000
0000
2030
,
0000
0000
0000
3002
,
0000
0000
0003
1001
,
0100
0001
0110
1000
,
1001
0010
0100
0020
,
0000
0000
0130
0020
,
0000
0000
1030
0200
,
0000
1300
0010
0002
,
0000
0000
0103
0020
,
0000
0130
0001
2000
,
0000
3010
0100
2001
,
0000
0000
3000
1002
,
0000
0000
0000
0203
,
0000
0000
0300
1020
,
0000
0000
0000
0030
,
1000
0100
0010
0001
,
0010
1001
0000
0200
,
0000
0000
0000
0302
,
0000
0000
0000
1003
,
0000
0000
0110
0002
,
0000
0000
0000
2003
,
0000
0000
3100
0020
,
0000
0000
0000
0031
,
0010
0100
1000
0100
,
0010
0001
0000
1001
,
0000
0000
0010
0200
,
0000
0000
0000
0301
,
0010
0100
1000
0100
,
0010
1001
0000
0020
,
0000
0000
0000
0230
,
0000
0000
0000
0000
0000
0000
0301
1000
,
0001
0100
0010
0100
,
0010
0000
1000
0001
1000
0000
0010
0000
,
0100
0000
0010
0100
0010
0000
1000
0000
,
0001
0000
1000
0001
1000
0000
1001
0000
,
0100
0000
0010
0100
0010
0000
1001
0000
,
0100
0000
0001
1000
0001
0000
0110
0000
,
1000
0000
0010
0100
0001
0000
0010
0000
,
0001
0000
0100
0010
0000
0000
0000
0000
;

//---------------dance-single - ----------------
#NOTES:
     dance-single:
     :
     Beginner:
     1:
     0.055,0.074,0.037,0.000,0.000:
0000
0000
0000
0000
,
0000
0000
0000
0000
,
0000
0000
0000
0000
,
0000
0000
0000
1000
,
0000
0000
0000
0000
,
0000
0000
0000
0001
,
0000
0000
0000
0000
,
0000
0000
0000
1001
,
0000
0000
0000
0000
,
0000
0000
0000
0100
,
0000
0000
0000
0000
,
0000
0000
0000
0010
,
0000
0000
0000
0000
,
0000
0000
0000
0100
,
0000
0000
0000
0000
,
0000
0000
0000
1001
,
0000
0000
0000
0000
,
0000
0000
0000
0001
,
0000
0000
0000
0000
,
0000
0000
0000
1000
,
0000
0000
0000
0000
,
0000
0000
0000
0100
,
0000
0000
0000
0000
,
0000
0000
0000
1001
,
0000
0000
0000
0000
,
0000
0000
0000
0010
,
0000
0000
0000
0000
,
0000
0000
0000
0001
,
0000
0000
0000
0000
,
0000
0000
0000
1000
,
0000
0000
0000
0000
,
0000
0000
0000
1001
,
0000
0000
0000
0010
,
0000
0000
0000
0100
,
0000
0000
0000
0010
,
0000
0000
0000
0100
,
0000
0000
0000
0001
,
0000
0000
0000
1000
,
0000
0000
0000
0001
,
0000
0000
0000
1001
,
0000
0000
0000
0000
,
0000
0000
0000
0100
,
0000
0000
0000
0000
,
0000
0000
0000
0010
,
0000
0100
0000
0010
,
0000
0000
0000
0000
,
0000
0000
0000
0000
,
0000
0000
0000
1000
,
0000
0000
0000
0001
,
0000
0000
0000
1000
,
0000
0000
0000
0010
,
0000
0000
0000
0100
,
0000
0010
0000
0100
,
0000
0000
0000
0000
,
0000
0000
0000
0001
,
0000
0000
0000
1000
,
0000
0001
0000
1000
,
0000
0000
0000
0000
,
0000
0000
0000
0010
,
0000
0000
0000
0100
,
0000
0000
0000
0001
,
0000
0000
0000
1000
,
0000
0000
0000
0001
,
0000
0000
0000
1000
,
0000
0000
0000
0100
,
0000
0000
0000
0010
,
0000
0000
0000
0001
,
0000
0100
0000
0000
;
