#TITLE:Ferris wheel;
#SUBTITLE:;
#ARTIST:Dormir meets ケイリートレイル;
#TITLETRANSLIT:;
#SUBTITLETRANSLIT:;
#ARTISTTRANSLIT:Dormir meets CEILIDH TRAIL;
#CREDIT:DMAxel;
#BANNER:Ferris wheel.png;
#BACKGROUND:Ferris wheel-bg.png;
#LYRICSPATH:Ferris wheel.lrc;
#CDTITLE:Konami original REMIX.png;
#MUSIC:Ferris wheel.mp3;
#OFFSET:-1.330;
#SAMPLESTART:73.066;
#SAMPLELENGTH:12.000;
#SELECTABLE:YES;
#BPMS:0.000=99.000;
#STOPS:;
#BGCHANGES:;

//---------------dance-single - ----------------
#NOTES:
     dance-single:
     :
     Easy:
     2:
     0.156,0.157,0.018,0.220,0.000:
0000
0000
0000
0000
,
0000
0000
0000
0000
,
0000
0000
0000
0000
,
0000
0000
0000
0000
,
0001
0000
0000
1000
0000
0000
0001
0000
,
0000
0000
0000
0000
1000
0000
0000
0001
,
0000
0000
2000
0000
0000
3002
0000
0000
,
1003
0000
0000
0100
0000
0000
0010
0000
,
0000
0100
0000
0000
1001
0000
0000
0010
,
0000
0000
0100
0000
0000
0010
0000
0000
,
0001
0000
0000
1000
0000
0000
1000
0000
,
0000
1000
0000
0000
0020
0000
0000
0000
,
0000
0200
0000
0330
,
1000
0000
0000
0001
0000
0000
0001
0000
,
0000
0001
0000
0000
0200
0000
0000
0000
,
0000
0020
0000
0330
,
0001
0000
0000
1000
0000
0000
1000
0000
,
0000
1000
0000
0000
0002
0000
0000
0000
,
0000
2000
0000
3003
,
1000
0000
0000
0001
0000
0000
0001
0000
,
0000
0001
0000
0000
2000
0000
0000
0000
,
0000
0000
3002
0000
0000
1000
0000
0000
,
1003
0000
0000
0100
0000
0000
0002
0000
,
0000
0000
0000
0000
1003
0000
0000
0010
,
0000
0002
0000
0000
,
1003
0000
0000
0010
0000
0000
0100
0000
,
0000
0001
0000
0000
0010
0000
0000
0100
,
0000
2000
0000
0000
,
3002
0000
0000
1003
,
0000
1001
0000
0000
0001
0000
0000
0010
,
0000
0002
2000
0000
0000
0000
3003
0000
,
1000
0000
0000
0100
0000
0000
1000
0000
,
0000
0002
0000
0000
0103
0000
0000
0001
,
0000
0000
0010
0000
0000
1000
0000
0000
,
0010
0000
0000
1000
0000
0000
0100
0000
,
0000
0001
0000
0000
1000
0000
0000
0001
,
0000
0020
0002
0000
0000
0000
0033
0000
,
0001
0000
0000
1000
0000
0000
0100
0000
,
0000
2000
0000
0000
3010
0000
0000
1000
,
0000
0000
0100
0000
0000
0001
0000
0000
,
0100
0000
0000
0001
0000
0000
0020
0000
,
0000
1000
1030
0000
0000
0000
1000
0001
,
0000
0020
0200
0000
0000
0000
0330
0000
,
0000
0000
0001
1000
0000
0200
0020
0000
,
0000
0000
0330
0000
;

//---------------dance-single - ----------------
#NOTES:
     dance-single:
     :
     Medium:
     4:
     0.292,0.294,0.009,0.343,0.018:
0000
0000
0000
0000
,
0000
0000
0000
0000
,
0000
0000
0000
0000
,
0000
0000
0000
0000
,
0001
0000
0000
0010
0000
0000
0001
0000
0000
1000
0000
0000
2000
0000
0000
0000
,
0000
0000
3002
0000
0000
0000
0000
0000
1003
0000
0000
0100
0000
0000
1000
0000
,
0000
0001
0000
0000
0002
0000
0000
0000
0000
0000
1000
0000
1000
0000
1003
0000
,
0010
0200
0000
0010
0000
0300
0010
0200
,
0000
0010
0000
0300
1000
0002
0000
1000
,
0000
0003
1000
0002
0000
1000
0000
0003
,
1000
0100
0000
1000
0100
1000
0100
0000
,
0000
1000
0001
0010
0002
0000
0000
2003
,
0000
0000
3200
0000
0000
0320
0000
0000
,
0031
0010
0000
0001
0010
0001
0010
0000
,
0000
0001
1000
0100
2000
0000
0000
3002
,
0000
0000
0023
0000
0000
0230
0000
0000
,
1300
0010
0000
1000
0010
1000
0010
0000
,
0000
1000
0001
0010
0002
0000
0000
2003
,
0000
0000
3020
0000
0000
0230
0000
0000
,
0301
0100
0000
0001
0100
0001
0100
0000
,
0000
0001
1000
0010
2000
0000
0000
3002
,
0000
0000
0203
0000
0000
0010
0010
0310
,
1000
1000
0000
0100
0000
0001
2000
0000
,
0000
0000
0000
0000
3001
0001
0000
0010
,
0000
1000
0002
0000
0000
0000
0000
0000
,
1003
0010
0010
0000
1000
1000
0000
0001
,
0001
0000
0100
0100
0000
0001
0001
0000
,
1000
1000
0020
0000
0000
0000
0130
0001
,
2000
0000
0000
3010
0100
0001
1000
0000
,
0000
1001
0000
0000
0001
1000
1000
0010
,
0000
0200
0002
0000
0000
0000
0000
0000
,
0303
0000
0001
0010
0100
1000
0001
0001
,
1000
0100
0000
0000
1000
0010
0100
0002
,
0000
1000
1003
0010
0100
0001
0000
0000
,
0001
0100
0010
2000
0000
0001
0002
0000
,
0000
0000
3003
0000
1000
0001
0001
0100
,
0000
0020
2000
0000
0000
0000
0000
0000
,
3030
0000
1000
0100
0010
0001
1000
1000
,
0001
0010
0000
0000
0001
0100
0010
2000
,
0000
0001
3001
0100
0010
1000
0000
0000
,
1000
0010
0100
0002
0000
1000
1003
0010
,
0100
0001
0001
0001
0001
0000
1000
0002
,
0000
0100
0203
0000
0001
0001
0000
1000
,
1300
0000
0001
2000
0000
0010
3020
0000
,
1000
1000
0000
0001
0031
0000
0000
0000
;

//---------------dance-single - ----------------
#NOTES:
     dance-single:
     :
     Hard:
     6:
     0.351,0.333,0.044,0.273,0.035:
0000
0000
0000
0000
,
0000
0000
0000
0000
,
0000
0000
0000
0000
,
0000
0000
0000
0000
,
1000
0000
0000
1010
0000
0000
1001
0000
0000
0001
0000
0001
1000
0000
0000
0100
,
0000
0000
1000
0000
0000
0001
0000
0000
0001
0000
0000
0101
0000
0000
1001
0000
,
0000
1000
0000
1000
0002
0000
0000
0000
0000
0000
1000
0000
1000
0000
1003
0000
,
0010
0100
0000
0001
0001
0001
1000
0100
,
0000
1000
0100
1000
0010
0100
0000
0001
,
0001
0001
1000
0100
0000
1000
0100
1000
,
0001
0010
0000
0001
0010
0001
0001
0000
,
1000
0100
1000
1000
0020
0000
0000
2030
,
0001
0001
0001
3002
0000
1000
1000
1003
,
1000
0100
0000
1000
0100
1000
1000
0000
,
0001
0010
0001
0001
0200
0000
0000
0302
,
1000
1000
1000
2003
0000
0001
0001
3001
,
0001
0100
0000
0001
0100
0001
0001
0000
,
1000
0010
1000
1000
0200
0000
0000
2300
,
0001
0001
0001
3002
0000
1000
1000
1003
,
1000
0010
0000
1000
0010
1000
1000
0000
,
0001
0100
0001
0001
0020
0000
0000
0032
,
1000
1000
1000
2003
0000
0001
0001
3001
,
0100
0010
0100
0001
0010
0100
2000
0000
,
0000
0000
0000
0000
3010
0100
0010
1000
,
0100
0010
0002
0000
0000
0000
0000
0000
,
0103
0010
0100
0002
0000
0100
0103
0010
,
0100
0002
0000
0100
0103
0010
0100
0002
,
0000
1000
2003
0000
0000
0000
3001
0010
,
0002
0000
0000
1000
1003
0100
0001
0000
,
0000
1001
0000
0000
0000
1000
0100
0002
,
0000
1003
0200
0000
0000
0301
0010
0100
,
1000
0000
0001
0020
0000
1030
0001
0010
,
0100
2000
0000
0000
3001
0001
1000
0100
,
0100
1000
0100
0010
0001
1000
0000
0000
,
0100
0010
0001
0010
1000
0010
0002
1000
,
1000
1003
0000
0000
0000
0001
0010
2000
,
0000
3001
0020
0000
0000
1030
0100
0010
,
0001
0000
1000
0100
0100
0001
1000
0100
,
0010
0002
0000
0000
1003
1000
0001
0010
,
0010
0001
0010
0100
1000
0001
0000
0000
,
0010
0100
1000
0100
0001
0100
2000
0001
,
0001
3001
0000
0000
1000
0100
1000
0001
,
0000
1000
0001
0000
0010
0200
0000
1000
,
1300
0000
0001
1000
0000
0001
1000
0000
,
0100
0020
0000
0001
0031
0000
0000
0000
;

//---------------dance-single - ----------------
#NOTES:
     dance-single:
     :
     Beginner:
     1:
     0.063,0.098,0.000,0.000,0.000:
0000
0000
0000
0000
,
0000
0000
0000
0000
,
0000
0000
0000
0000
,
0000
0000
0000
0000
,
0000
0000
0000
0000
,
0000
0000
0000
0000
,
0000
0000
0000
0000
,
1000
0000
0000
0001
,
0000
0000
1000
0000
,
0000
0001
0000
0000
,
1000
0000
0000
1000
,
0000
0000
1000
0000
,
0000
0000
0000
0000
,
0001
0000
0000
0001
,
0000
0000
0001
0000
,
0000
0000
0000
0000
,
0100
0000
0000
0100
,
0000
0000
0100
0000
,
0000
0000
0000
0000
,
0010
0000
0000
0010
,
0000
0000
0010
0000
,
0000
1000
0000
0000
,
1000
0000
0000
1000
0000
0000
1000
0000
,
0000
0000
0000
0000
0001
0000
0000
0001
,
0000
0001
0000
0000
,
1000
0000
0000
1000
,
0000
0000
0001
0000
,
0000
0001
0000
0000
,
1000
0000
0000
0001
,
0000
0000
0001
0000
,
0000
1000
0000
0000
,
1000
0000
0000
0001
,
0000
0000
0001
0000
,
0000
1000
0000
0000
,
1000
0000
0000
0001
,
0000
0000
0100
0000
,
0000
0010
0000
0000
,
0010
0000
0000
0100
,
0000
0000
0100
0000
,
0000
0010
0000
0000
,
0010
0000
0000
0100
,
0000
0000
0001
0000
,
0000
0100
0000
0000
,
0010
0000
0000
1000
,
0000
0000
0001
0000
;

//---------------dance-single - ----------------
#NOTES:
     dance-single:
     :
     Challenge:
     8:
     0.466,0.431,0.000,0.202,0.251: // measure 1
0000
0000
0000
0000
,  // measure 2
0000
0000
0000
0000
,  // measure 3
0000
0000
0000
0000
,  // measure 4
0000
0000
0000
0000
,  // measure 5
0010
0000
0100
0001
0000
0100
0001
0000
1000
0200
0000
0000
1300
0000
0001
0010
,  // measure 6
0000
0000
0001
0000
1000
0002
0000
0000
0103
0000
0010
1000
0000
0010
1000
0000
,  // measure 7
0001
0010
0000
0001
0020
0000
0000
0000
0000
0000
0001
0000
0031
0000
0010
0000
,  // measure 8
1000
0001
1000
0000
0000
0001
0010
0000
0001
0000
0001
0000
0010
0000
0100
0000
,  // measure 9
0000
0000
1000
0000
0010
0000
0100
0000
0001
0000
0001
0000
0000
1000
0100
0000
,  // measure 10
1000
1000
0100
0010
0000
0001
0100
0010
,  // measure 11
1000
0000
1000
0000
0000
0001
0100
0000
0001
0000
1000
0000
0100
0000
0100
0000
,  // measure 12
1000
0000
0100
0000
0010
0000
0001
0000
0100
0010
0200
0000
0000
0301
1000
0000
,  // measure 13
0100
1000
0100
1000
0100
0000
0020
0000
0000
0031
1000
0000
0100
0000
0010
0000
,  // measure 14
0001
0000
0001
0000
0000
1000
0010
0000
1000
0000
0001
0000
0010
0000
0010
0000
,  // measure 15
0001
0000
0010
0000
0100
0000
1000
0000
0010
0100
0020
0000
0000
1030
0001
0000
,  // measure 16
0010
0001
0010
0001
0010
0000
0200
0000
0000
1300
0001
0000
0010
0000
0100
0000
,  // measure 17
1000
0000
1000
0000
0000
0001
0010
0000
0001
0000
1000
0000
0010
0000
0010
0000
,  // measure 18
1000
0000
0100
0000
0010
0000
0001
0000
0010
0100
0020
0000
0000
0031
1000
0000
,  // measure 19
0100
1000
0100
1000
0100
0000
0020
0000
0000
0031
1000
0000
0100
0000
0010
0000
,  // measure 20
0001
0000
0001
0000
0000
1000
0100
0000
1000
0000
0001
0000
0100
0000
0100
0000
,  // measure 21
0001
0000
0010
0000
0100
0000
1000
0000
0100
0010
0200
0000
0000
1300
0001
0000
,  // measure 22
0010
0001
0010
0001
0010
0000
0200
0000
0000
0000
1000
0000
1300
0000
0100
0000
,  // measure 23
0001
0000
1000
0000
0100
0000
0001
0000
0010
0000
1000
0000
0001
0000
0010
0001
,  // measure 24
0010
0100
1000
0001
0001
1000
0100
0001
,  // measure 25
0010
0000
1000
0000
0001
0000
0010
0001
0010
0000
0001
0000
0010
0001
0010
0000
,  // measure 26
0001
0100
0010
2000
0001
0001
3001
0100
,  // measure 27
0010
2000
0001
0001
3001
0010
0001
0001
,  // measure 28
1000
0000
0100
0000
0001
0000
1000
0100
1000
0100
1000
0000
0001
0000
0010
0000
,  // measure 29
1000
0000
0001
0010
0001
0010
0001
0000
0100
0000
0010
0000
1000
0000
0010
1000
,  // measure 30
0100
0010
0001
0000
0000
1000
0001
0000
0001
0000
1000
0100
1000
0001
0020
0000
,  // measure 31
0000
0000
0031
0000
0200
0000
0001
0000
0301
0000
1000
0100
1000
0000
0001
0000
,  // measure 32
0100
0000
0001
0000
1000
0100
0001
0000
1000
0000
1000
0000
0001
0000
0010
0000
,  // measure 33
0100
2000
0000
0000
3001
0001
0010
1000
,  // measure 34
0010
0000
0001
0000
0001
0000
1000
0000
0100
0000
0001
0000
1000
0100
1000
0000
,  // measure 35
0001
0010
0100
0010
0001
1000
0020
1000
,  // measure 36
1000
0000
1030
0000
0001
0010
0001
0000
1000
0000
0001
0010
0001
1000
0200
0000
,  // measure 37
0000
0000
1300
0000
0020
0000
1000
0000
1030
0000
0001
0010
0001
0000
1000
0000
,  // measure 38
0010
0000
1000
0000
0001
0010
1000
0000
0001
0000
0001
0000
1000
0000
0100
0000
,  // measure 39
0010
0002
0000
0000
1003
1000
0100
0001
,  // measure 40
0100
0000
1000
0000
1000
0000
0001
0000
0010
0000
1000
0000
0001
0010
0001
0000
,  // measure 41
1000
0100
0010
0100
1000
0001
0200
0001
,  // measure 42
0001
0000
0301
0000
1000
0100
1000
0000
0001
0000
0001
0000
1000
0000
0010
0000
,  // measure 43
0010
1000
0001
0010
2000
0001
0000
0001
,  // measure 44
3001
0000
0001
0100
0100
0001
1000
0100
,  // measure 45
0002
1000
0000
1000
1003
0000
0000
0000
;
