#TITLE:FLOWERS for ALBION;
#SUBTITLE:;
#ARTIST:dj TAKA;
#TITLETRANSLIT:;
#SUBTITLETRANSLIT:;
#ARTISTTRANSLIT:;
#CREDIT:DMAxel;
#BANNER:FLOWERS for ALBION.png;
#BACKGROUND:FLOWERS for ALBION-bg.png;
#LYRICSPATH:;
#CDTITLE:beatmaniaIIDX.png;
#MUSIC:FLOWERS for ALBION.mp3;
#OFFSET:2.101;
#SAMPLESTART:43.151;
#SAMPLELENGTH:12.000;
#SELECTABLE:YES;
#BPMS:0.000=80.000,7.000=93.000,14.021=84.000,14.979=93.000,26.000=90.000,27.000=93.000,34.000=79.000,35.000=91.000,37.000=85.000,37.979=70.000,39.000=93.000,50.000=85.000,51.000=93.000,54.000=84.000,55.000=93.000,62.000=84.000,63.000=93.000;
#STOPS:;
#BGCHANGES:0.101=FLOWERS for ALBION.avi=1.000=1=0=0,
99999=-nosongbg-=1.000=0=0=0 // don't automatically add -songbackground-
;

//---------------dance-single - ----------------
#NOTES:
     dance-single:
     :
     Easy:
     2:
     0.091,0.131,0.040,0.061,0.000:
0000
0000
0000
0000
,
0000
0000
0000
0000
,
0000
0000
0000
0000
,
0000
0000
0000
0000
,
0000
0000
0000
0000
,
0000
0000
0000
0000
,
0000
0000
0000
0000
,
0000
0000
0000
0000
,
0000
0000
0000
0000
,
0000
0000
0000
0000
,
0001
0000
0000
0000
,
0001
0000
0000
0000
,
1000
0000
0000
0000
,
1000
0000
0000
0000
,
0001
0000
0000
0000
,
1000
0000
0000
0000
,
0010
0010
0110
0000
,
1001
0000
0000
1000
,
0000
0010
0010
0010
,
0010
0000
0000
0100
,
0001
0000
0001
1000
,
1001
1000
0000
0010
,
0000
0100
0100
0100
,
0100
0001
0000
1000
,
0001
1000
0010
0100
,
0020
0000
0000
0000
,
0230
0000
0000
0000
,
0302
0000
0000
0000
,
1003
0100
0010
0001
,
0100
0020
0000
0000
,
0000
1030
0100
0010
,
0001
0000
0000
0001
,
0000
1000
0000
0001
,
1000
0000
0000
1000
0000
0000
0000
0000
,
0001
0000
0000
0001
0000
0000
0000
2002
,
0000
0000
0000
0000
,
0000
0000
0000
0000
,
3003
0000
0000
0000
;

//---------------dance-single - ----------------
#NOTES:
     dance-single:
     :
     Hard:
     4:
     0.195,0.299,0.071,0.111,0.035:
0000
0000
0000
0000
,
0000
0000
0000
0000
,
0000
0000
0000
0000
,
0000
0000
0000
0000
,
0000
0000
0000
0000
,
0001
0000
1000
0000
0001
0010
0100
1000
,
0010
0000
0000
0000
0000
0000
1000
0001
,
2000
0000
0000
0000
,
3020
0000
0030
0000
,
0000
2000
0000
0000
0000
0000
0000
0000
,
3020
0000
0000
0000
,
0230
0000
0000
0000
,
0302
0000
0000
0000
,
0013
0000
0000
0000
0000
0001
1000
0001
,
2000
0000
0000
0000
,
3002
0000
0000
0000
,
1003
0000
1000
0000
1000
0000
0000
0010
0100
0000
0010
0000
1000
0000
0010
0000
,
1001
0000
0010
0000
0100
1000
0100
0000
,
1000
0000
0010
0000
0100
0001
0100
0000
,
0001
0000
0100
0000
0010
1000
0010
0000
,
1000
0100
0010
0001
0010
0001
0010
0000
,
0001
0010
0100
1000
0100
1000
0100
0000
,
1001
0010
0001
0010
,
1001
0000
0100
0000
1000
0001
1000
0000
,
0100
0010
0001
0000
0010
0100
1000
0000
,
1001
0001
0010
1000
,
0100
0001
0010
1000
,
0100
0001
0010
1000
,
1001
0000
0000
0000
0010
0000
0000
0010
0000
0000
1000
0000
0100
0000
0010
0000
,
0001
0100
0020
0000
0000
0000
0000
0000
,
0000
1030
0100
0010
,
0001
0000
0100
0000
0001
0010
0100
0000
,
1010
0100
0101
0010
,
1000
1000
0000
0000
0000
0000
0001
0001
0000
0000
0000
0000
0000
0000
0100
0000
,
0010
0010
0000
0000
0000
0000
0100
0100
0000
0000
0000
0000
0000
0000
0002
2000
,
0000
0000
0000
0000
,
0000
0000
0000
0000
,
3003
0000
0000
0000
;

//---------------dance-single - ----------------
#NOTES:
     dance-single:
     :
     Challenge:
     6:
     0.299,0.393,0.232,0.071,0.111: // measure 1
0000
0000
0000
0000
,  // measure 2
0000
0000
0000
0000
,  // measure 3
0000
0000
0000
0000
,  // measure 4
0000
0000
0000
0000
,  // measure 5
0000
0000
0000
0000
,  // measure 6
0011
0000
0001
0000
1000
0001
0010
0100
,  // measure 7
1000
0000
0000
0000
0000
0000
1000
0100
,  // measure 8
0002
0000
0100
0010
,  // measure 9
0103
0000
0000
0000
0000
0000
0000
0010
0100
0010
0000
0000
0000
0000
0000
0000
,  // measure 10
0000
0000
2000
0000
0000
0000
0000
0001
0000
0000
0000
0000
0000
0000
0000
0000
,  // measure 11
3001
0000
0000
0100
0000
0100
0010
0000
,  // measure 12
0001
0010
0200
0000
0000
0000
0000
0000
,  // measure 13
1300
0100
0010
0001
,  // measure 14
0100
0000
0000
0000
0000
0001
0010
0100
,  // measure 15
2000
0000
0000
3000
,  // measure 16
0002
0000
0000
0000
0000
0000
0000
0000
1003
0000
0000
0000
0000
0000
0000
0010
,  // measure 17
1000
0000
1000
0000
0100
0010
0000
0001
0100
0001
0100
0000
0010
1000
0010
1000
,  // measure 18
0100
1000
0100
0010
0001
0100
0001
0000
,  // measure 19
0010
0001
0010
0100
1000
0010
1000
0100
,  // measure 20
0001
0000
0000
0000
0010
0000
0001
0010
0100
0000
0000
1000
0000
0000
0100
0000
,  // measure 21
0010
0000
0001
0000
0100
0000
0001
0010
0100
0000
1000
0000
0010
0000
0010
0000
,  // measure 22
0110
0000
0000
0000
0100
0000
1000
0100
0010
0000
0001
0000
0100
0000
0001
0000
,  // measure 23
0010
1100
1001
0011
,  // measure 24
1001
0010
0001
0010
0100
1000
0010
0000
,  // measure 25
1000
0100
0010
0010
0001
0010
0100
0100
,  // measure 26
1001
0000
1000
0100
0001
0100
1000
0100
,  // measure 27
0001
0000
1000
0010
0001
0010
1000
0010
,  // measure 28
0001
0100
1000
0100
0001
0100
1000
0100
,  // measure 29
1001
0000
0000
0000
0010
0100
0000
0100
0000
0000
0001
0000
0010
0000
0100
0000
,  // measure 30
1001
0000
0100
0000
0001
0000
0010
0100
1000
0000
0010
0000
1000
0000
0100
0000
,  // measure 31
0001
0101
1001
1010
,  // measure 32
1001
0100
1000
0100
0010
0001
0100
0000
,  // measure 33
0110
0010
1000
0000
0110
0100
0001
0000
,  // measure 34
0101
0101
0000
0000
0000
0000
1010
1010
0000
0000
0000
0000
0100
0000
0001
0010
,  // measure 35
1100
1100
0000
0000
0000
0000
0011
0011
0000
0000
0100
0000
1000
0000
0002
2000
,  // measure 36
0000
0000
0000
0000
,  // measure 37
0000
0000
0000
0000
,  // measure 38
3003
0000
0000
0000
;

//---------------dance-single - ----------------
#NOTES:
     dance-single:
     :
     Medium:
     3:
     0.157,0.243,0.121,0.131,0.000:
0000
0000
0000
0000
,
0000
0000
0000
0000
,
0000
0000
0000
0000
,
0000
0000
0000
0000
,
0000
0000
0000
0000
,
0100
0000
0000
0001
,
1000
0000
0000
0001
,
0020
0000
0000
0000
,
0230
0000
0000
0000
,
2300
0000
0000
0000
,
0000
0000
0000
0000
,
3002
0000
0000
0000
,
0203
0000
0000
0000
,
0310
0000
0000
0000
0000
1000
0001
1000
,
0002
0000
0000
0000
,
2003
0000
0000
0000
,
3010
0100
0010
0000
1000
0000
0100
0010
,
0001
0010
0001
0010
,
0100
1000
0100
1000
,
0010
1000
0010
1000
,
0010
0100
0001
0100
,
1001
0001
0010
0100
,
1001
0100
0010
0100
,
1001
0010
0100
1000
,
0001
0100
0001
0000
0100
0010
0100
0000
,
1001
0020
0000
0000
,
0130
2000
0000
0000
,
3001
0200
0000
0000
,
0310
1000
1000
0100
,
0010
0001
0020
0000
0000
0000
0000
0000
,
0000
0031
0010
0100
,
1000
0000
0000
0000
0100
1000
0100
0000
,
1001
0000
0011
0011
,
1001
0000
0000
0110
0000
0000
0000
0100
,
0110
0000
0000
1001
0000
0000
0000
2002
,
0000
0000
0000
0000
,
0000
0000
0000
0000
,
3003
0000
0000
0000
;

//---------------dance-single - ----------------
#NOTES:
     dance-single:
     :
     Beginner:
     1:
     0.040,0.106,0.061,0.000,0.000:
0000
0000
0000
0000
,
0000
0000
0000
0000
,
0000
0000
0000
0000
,
0000
0000
0000
0000
,
0000
0000
0000
0000
,
0000
0000
0000
0000
,
0000
0000
0000
0000
,
0000
0000
0000
0000
,
0000
0000
0000
0000
,
0000
0000
0000
0000
,
0000
0000
0000
0000
,
0000
0000
0000
0000
,
0000
0000
0000
0000
,
0000
0000
0000
0000
,
0000
0000
0000
0000
,
0000
0000
0000
0000
,
0001
0000
0000
0000
,
1001
0000
0000
0000
,
1000
0000
0000
0000
,
0010
0000
0000
0000
,
0100
0000
0000
0000
,
0010
0000
0000
0000
,
0100
0000
0000
0000
,
0001
0000
0000
0000
,
1000
0000
1000
0000
,
1001
0000
0000
0000
,
0010
0000
0000
0000
,
0100
0000
0000
0000
,
1000
0000
0000
0000
,
0001
0000
0000
0000
,
0000
1000
0000
0000
,
1001
0000
0000
0000
,
0100
0000
0010
0000
,
1001
0000
0000
0000
,
1001
0000
0000
0000
0000
0000
0000
1001
;

//---------------dance-double - ----------------
#NOTES:
     dance-double:
     :
     Easy:
     2:
     0.117,0.206,0.121,0.030,0.000:
00000000
00000000
00000000
00000000
,
00000000
00000000
00000000
00000000
,
00000000
00000000
00000000
00000000
,
00000000
00000000
00000000
00000000
,
00000000
00000000
00000000
00000000
,
00000000
00000000
00000000
00000000
,
00000000
00000000
00000000
00000000
,
00000000
00000000
00000000
00000000
,
00000000
00000000
00000000
00000000
,
00000000
00000000
00000000
00000000
,
10000000
00000000
00000000
00000000
,
10010000
00000000
00000000
00000000
,
00010000
00010000
00010000
00010000
,
00001000
00000000
00000000
00000000
,
00000001
00000000
00000000
00000000
,
00001000
00000000
00000001
00000000
,
00000100
00000110
00011000
00000000
,
10010000
00000000
00000000
10000000
,
00000000
10000000
01000000
00100000
,
00010000
00000000
00000000
00001000
,
00000010
00000000
00000100
00000100
,
00001001
00010000
00000000
00100000
,
00000000
10000000
01000000
00100000
,
00010000
00001000
00000000
00000001
,
00000010
00000100
00001000
00010000
,
00100000
00100000
00100000
00100000
,
00110000
00001000
00001000
00001000
,
00001100
00000010
00000001
00000010
,
00000001
00000010
00000100
00001000
,
00010000
00200000
00000000
00000000
,
00000000
10300000
01000000
00100000
,
00010000
00000000
00000000
00001000
,
00000000
00000001
00000000
00001000
,
00011000
00000000
00000000
10010000
00000000
00000000
00000000
00000000
,
00011000
00000000
00000000
00001001
00000000
00000000
00000000
00022000
,
00000000
00000000
00000000
00000000
,
00000000
00000000
00000000
00000000
,
00033000
00000000
00000000
00000000
;
