#TITLE:ドラえもんのうた;
#SUBTITLE:(TV Edit);
#ARTIST:大杉久美子 & 大山のぶ代;
#TITLETRANSLIT:Doraemon No Uta;
#SUBTITLETRANSLIT:;
#ARTISTTRANSLIT:Kumiko Oosugi & Nobuyo Oyama;
#CREDIT:Kyon;
#BANNER:Doraemon no Uta (TV Edit).png;
#BACKGROUND:Doraemon no Uta (TV Edit)-bg.png;
#LYRICSPATH:Doraemon no Uta (TV Edit).lrc;
#CDTITLE:Dj DMA Original Simfile.png;
#MUSIC:Doraemon no Uta (TV Edit).mp3;
#OFFSET:0.140;
#SAMPLESTART:44.447;
#SAMPLELENGTH:12.000;
#SELECTABLE:YES;
#BPMS:0.000=120.660;
#STOPS:;
#BGCHANGES:0.000=Doraemon no Uta (TV Edit).avi=1.000=1=1=0,
99999=-nosongbg-=1.000=0=0=0 // don't automatically add -songbackground-
;

//---------------dance-single - ----------------
#NOTES:
     dance-single:
     :
     Easy:
     2:
     0.109,0.195,0.160,0.040,0.000:
0000
0000
0000
0000
,
0000
0000
0000
0000
,
0000
0000
0000
0000
,
0000
0000
0000
0000
,
0000
0000
0000
0000
,
0000
0000
0000
0000
,
0000
0000
0002
0000
,
0000
0000
0000
1000
,
1003
0000
0000
0010
,
0000
0100
0000
0010
,
0000
0100
0000
0001
,
0000
0010
0000
0001
,
0000
1000
0000
0100
,
0000
0000
0000
1000
,
0000
0010
0000
0100
,
0000
0010
0000
0100
,
0000
0001
0000
0010
,
0000
0001
0000
1000
,
0000
0000
0001
0000
,
0000
0000
1000
0000
,
0000
0000
0011
0000
,
0000
0000
0000
0000
,
0000
0000
1100
1100
,
1100
0000
1001
0000
,
0000
0000
1001
0000
,
0000
0000
0000
0000
,
0000
0000
0011
0011
,
0011
0000
1001
0000
,
0000
0000
1001
0000
,
0000
0000
1000
0010
,
1000
0000
0001
0000
,
0000
0000
0100
0000
,
0000
0000
0010
0000
,
0000
0000
0100
0000
,
0000
0000
0000
0000
,
2002
0000
0000
0000
,
0000
0000
3003
0000
;

//---------------dance-single - ----------------
#NOTES:
     dance-single:
     :
     Hard:
     6:
     0.285,0.415,0.227,0.094,0.247:
0000
0000
0000
0000
,
0000
0000
0000
0000
,
0000
0000
0000
0000
,
0000
0000
0000
0000
,
0000
0000
0000
0000
,
0000
0000
0000
0000
,
0000
0000
2002
0000
,
0000
0000
3003
0000
,
0000
0000
0000
0000
0000
0000
0001
0000
0100
0010
0000
1000
,
0010
0000
1000
0001
0000
0001
0100
0000
0100
0001
0000
0001
,
1000
0000
1000
0010
0000
0010
0100
0000
0100
0010
0000
1000
,
0001
0000
0100
0001
0000
0100
0002
0000
0000
0000
0000
0000
,
2003
0000
0000
3001
,
0100
0000
0000
0010
0000
0000
1000
0000
1000
0001
0000
0001
,
1000
0000
0000
0010
0000
0000
0100
0000
0100
0010
0000
0010
,
1000
0000
1000
0001
0000
0000
0100
0000
0000
0010
0000
0000
,
1001
0000
0000
1001
0000
0000
1000
0000
0010
1000
0000
0001
,
0100
0010
2000
0000
,
0000
0000
0000
0000
0000
0000
3001
0000
0000
0100
0000
0010
,
0100
0000
0100
0001
0000
0000
0100
0000
0001
1000
0000
1000
,
0010
0000
1000
0001
,
0100
0000
0010
1000
0000
1000
0001
0000
0000
0000
0000
0000
,
0000
0000
1100
0011
,
1001
0010
0100
0001
,
1000
0010
1001
0000
,
0000
0000
0101
0010
,
1000
0001
0100
0010
,
1000
0001
0010
0001
,
1000
0010
1010
0000
,
0000
0000
0001
0100
,
0010
0000
1000
0001
0000
0001
0100
0000
0100
0010
0000
0010
,
1000
0000
0011
0000
0000
1000
0010
0000
0100
0001
0000
1000
,
0010
0000
1100
0000
0000
0000
0101
0000
0000
1100
0000
0000
,
1000
0000
1000
0010
0000
0000
0011
0000
0000
0101
0000
0000
,
0001
0000
0100
0010
0000
1001
0000
0000
0000
0000
0000
0000
,
2002
0000
0000
0000
,
0000
0000
3003
0000
;

//---------------dance-single - ----------------
#NOTES:
     dance-single:
     :
     Challenge:
     8:
     0.437,0.488,0.401,0.080,0.595:
0000
0000
0000
0000
,
0000
0000
0000
0000
,
0000
0000
0000
0000
,
0000
0000
0000
0000
,
0000
0000
0000
0000
,
0000
0000
0000
0000
,
0000
0000
0000
0000
0000
0000
0001
0010
0100
1000
0100
0010
,
0001
0100
0010
1000
0001
1000
0001
0000
0000
1100
0000
0000
,
0011
0000
1000
0001
0000
0001
0100
0000
0100
0010
0000
1000
,
0100
0000
1000
0100
0000
0010
0001
0000
0100
0010
0000
0100
,
0001
0000
0100
0001
0000
0001
0010
0000
0010
0100
0000
0100
,
1000
0000
1000
0001
0000
0000
0011
0000
0000
1100
0000
0000
,
0010
0000
0010
0100
0000
0100
0010
0100
0010
1000
0100
0010
,
0001
0000
0100
0010
0000
0010
0100
0000
0100
0001
0000
0001
,
1000
0000
0001
1000
0000
0000
0011
0000
0100
1000
0000
1000
,
0001
0000
0100
0010
0000
0000
0101
0000
0010
1000
0000
0001
,
1100
0000
0000
0011
0000
0100
0010
0000
0010
0100
0000
0010
,
1000
0000
1000
0001
0000
0100
0001
0000
0000
1100
0000
0000
,
0001
0010
0100
1000
0100
0010
0001
0000
1000
0010
0000
0100
,
0001
0100
0010
1000
0000
0000
1001
0000
0001
0100
0000
0100
,
0010
0000
1001
0110
,
0001
0000
0100
0010
0000
0010
0100
0000
0000
0001
0000
1000
,
0001
0000
0001
0100
0000
0100
0011
0000
0000
1100
0000
0000
,
1001
0000
0000
0010
0000
1000
0010
0000
0010
0100
0000
0100
,
0001
0000
0001
1000
0000
1000
0022
0000
0000
0000
0000
0000
,
0000
0000
0000
0033
0000
0000
1000
0000
0001
1000
0000
1000
,
0010
0000
0100
0010
0000
0010
1100
0000
0000
0011
0000
0000
,
1001
0000
0001
0100
0000
0100
0010
0000
0010
1000
0000
1000
,
0001
0000
0001
0100
0000
0100
2002
0000
0000
0000
0000
0000
,
0000
0000
0000
3003
0000
0000
0001
0000
1000
0100
0010
0001
,
1000
0000
1000
0010
0000
0010
0001
0010
0001
0010
0000
0001
,
1000
0000
0101
0000
0000
1000
0001
1000
0001
1000
0000
0010
,
0100
0000
0011
0000
0000
0000
1100
0000
0000
0011
0000
0000
,
1010
0000
0001
0100
0000
0000
0011
0000
0000
1100
0000
0000
,
0101
0000
0010
1000
0000
1001
0000
0000
0000
0000
0000
0000
,
2002
0000
0000
0000
,
0000
0000
3003
0000
;

//---------------dance-single - ----------------
#NOTES:
     dance-single:
     :
     Medium:
     4:
     0.233,0.293,0.308,0.067,0.020:
0000
0000
0000
0000
,
0000
0000
0000
0000
,
0000
0000
0000
0000
,
0000
0000
0000
0000
,
0000
0000
0000
0000
,
0000
0000
0000
0000
,
0000
0000
2000
0000
,
0000
0000
0000
0001
,
3001
0000
0100
0010
,
0100
0001
1000
0100
,
1000
0010
0100
0010
,
1000
0001
2000
0000
,
3002
0000
0103
0010
,
1100
0011
1000
0010
,
1000
0000
0001
0100
,
0001
0000
0100
0010
,
1100
0011
1000
0001
,
1000
0010
0100
0000
,
0000
0000
0011
0011
,
1100
1100
0001
1000
,
0001
0000
1010
1010
,
0101
0101
0010
0000
,
0000
0000
1100
1100
,
1100
0001
0100
0010
,
1000
0001
1000
0000
,
0000
0000
0010
0001
,
1000
0100
0011
0011
,
0011
0100
0010
1000
,
0001
1000
1010
0000
,
0000
0000
0101
0010
,
1000
0001
0011
1000
,
0010
0100
0010
1000
,
0001
0100
0010
0100
,
0001
0000
1000
0001
0000
0000
0100
0000
0000
0010
0000
0000
,
1000
0000
0001
1000
0000
0011
0000
0000
0000
0000
0000
0000
,
2200
0000
0000
0000
,
0000
0000
3300
0000
;

//---------------dance-single - ----------------
#NOTES:
     dance-single:
     :
     Beginner:
     1:
     0.055,0.070,0.067,0.000,0.000: // measure 1
0000
0000
0000
0000
,  // measure 2
0000
0000
0000
0000
,  // measure 3
0000
0000
0000
0000
,  // measure 4
0000
0000
0000
0000
,  // measure 5
0000
0000
0000
0000
,  // measure 6
0000
0000
0000
0000
,  // measure 7
0000
0000
0000
0000
,  // measure 8
0000
0000
0000
0000
,  // measure 9
0000
0000
1000
0000
,  // measure 10
0000
0000
0001
0000
,  // measure 11
0000
0000
0010
0000
,  // measure 12
0000
0000
0001
0000
,  // measure 13
0000
0000
0000
0000
,  // measure 14
0000
0000
0001
0000
,  // measure 15
0000
0000
1000
0000
,  // measure 16
0000
0000
0100
0000
,  // measure 17
0000
0000
1000
0000
,  // measure 18
0000
0000
0000
0000
,  // measure 19
0000
0000
0011
0000
,  // measure 20
0000
0000
0000
0000
,  // measure 21
0000
0000
1000
1000
,  // measure 22
0000
0000
0000
0000
,  // measure 23
0000
0000
1100
0000
,  // measure 24
0000
0000
0001
0000
,  // measure 25
0000
0000
1001
0000
,  // measure 26
0000
0000
0100
0000
,  // measure 27
0000
0000
0010
0000
,  // measure 28
0000
0000
0100
0000
,  // measure 29
0000
0000
1001
0000
,  // measure 30
0000
0000
0010
0000
,  // measure 31
0000
0000
0100
0000
,  // measure 32
0000
0000
0001
0000
,  // measure 33
0000
0000
1000
0000
,  // measure 34
0000
0000
0001
0000
,  // measure 35
0000
0000
0000
0000
,  // measure 36
1001
0000
0000
0000
;
